<?xml version="1.0" standalone="no"?>
<!DOCTYPE svg PUBLIC "-//W3C//DTD SVG 1.1//EN" "http://www.w3.org/Graphics/SVG/1.1/DTD/svg11.dtd" >
<svg xmlns="http://www.w3.org/2000/svg" xmlns:xlink="http://www.w3.org/1999/xlink" version="1.1">
<metadata>
Created by FontForge 20200511 at Mon May 24 19:30:08 2021
 By convertio
Copyright (c) Font Awesome
</metadata>
<defs>
<font id="FontAwesome6Pro-Light" horiz-adv-x="512" >
  <font-face 
    font-family="Font Awesome 6 Pro Light"
    font-weight="300"
    font-stretch="normal"
    units-per-em="512"
    panose-1="2 0 5 3 0 0 0 0 0 0"
    ascent="448"
    descent="-64"
    x-height="412"
    bbox="-1.125 -66 640.333 449.042"
    underline-thickness="25"
    underline-position="-49"
    unicode-range="U+0022-1FAC1"
  />
<missing-glyph horiz-adv-x="384" 
d="M336 448h-288q-20 -1 -34 -14q-13 -14 -14 -34v-416q1 -20 14 -34q14 -13 34 -14h288q20 1 34 14q13 14 14 34v416q-1 20 -14 34q-14 13 -34 14v0zM352 388v-392l-140 196l140 196v0zM192 219l-140 197h280l-140 -197v0zM172 192l-140 -197v393l140 -196v0zM192 164
l140 -196h-280l140 196v0z" />
    <glyph glyph-name=".notdef" horiz-adv-x="384" 
d="M336 448h-288q-20 -1 -34 -14q-13 -14 -14 -34v-416q1 -20 14 -34q14 -13 34 -14h288q20 1 34 14q13 14 14 34v416q-1 20 -14 34q-14 13 -34 14v0zM352 388v-392l-140 196l140 196v0zM192 219l-140 197h280l-140 -197v0zM172 192l-140 -197v393l140 -196v0zM192 164
l140 -196h-280l140 196v0z" />
    <glyph glyph-name="exclamation" unicode="&#xf12a;" horiz-adv-x="128" 
d="M64 48q-14 0 -23 -9v0q-9 -9 -9 -23t9 -23t23 -9t23 9t9 23t-9 23t-23 9v0zM64 96q15 1 16 16v288q-1 15 -16 16q-15 -1 -16 -16v-288q1 -15 16 -16v0z" />
    <glyph glyph-name="exclamation" unicode="&#x2757;" horiz-adv-x="128" 
d="M64 48q-14 0 -23 -9v0q-9 -9 -9 -23t9 -23t23 -9t23 9t9 23t-9 23t-23 9v0zM64 96q15 1 16 16v288q-1 15 -16 16q-15 -1 -16 -16v-288q1 -15 16 -16v0z" />
    <glyph glyph-name="exclamation" unicode="&#x2755;" horiz-adv-x="128" 
d="M64 48q-14 0 -23 -9v0q-9 -9 -9 -23t9 -23t23 -9t23 9t9 23t-9 23t-23 9v0zM64 96q15 1 16 16v288q-1 15 -16 16q-15 -1 -16 -16v-288q1 -15 16 -16v0z" />
    <glyph glyph-name="exclamation" unicode="!" horiz-adv-x="128" 
d="M64 48q-14 0 -23 -9v0q-9 -9 -9 -23t9 -23t23 -9t23 9t9 23t-9 23t-23 9v0zM64 96q15 1 16 16v288q-1 15 -16 16q-15 -1 -16 -16v-288q1 -15 16 -16v0z" />
    <glyph glyph-name="ditto" unicode="&#x22;" horiz-adv-x="320" 
d="M64 416q-29 0 -49 -23q-19 -24 -14 -55l25 -145q3 -15 13 -24q11 -9 25 -9t25 9q10 9 13 24l25 145q5 31 -14 55q-20 23 -49 23v0zM70 198q-1 -5 -6 -6q-5 0 -6 6l-25 146q-3 16 7 29q9 11 24 11t24 -11q10 -13 7 -29l-25 -146v0zM305 393q-19 23 -50 23q-30 0 -49 -23
q-19 -24 -14 -55l25 -145q4 -15 14 -24q11 -9 24 -9q14 0 24 9q11 9 14 24l25 145q6 31 -13 55v0zM262 198q-1 -5 -7 -6q-5 0 -6 6l-25 146q-3 16 7 29q10 11 24 11q15 0 24 -11q10 -13 8 -29l-25 -146v0z" />
    <glyph glyph-name="hashtag" unicode="&#xf292;" horiz-adv-x="448" 
d="M432 304h-86l22 92q2 15 -12 20q-15 1 -20 -12l-23 -99h-127l22 92q2 15 -12 19q-15 2 -20 -11l-23 -101h-105q-15 -1 -16 -16q1 -15 16 -16h98l-37 -160h-93q-15 -1 -16 -16q1 -15 16 -16h86l-22 -92q-2 -15 12 -20h4q12 0 16 12l23 100h127l-22 -92q-1 -15 12 -20h4
q12 0 16 12l23 100h105q15 1 16 16q-1 15 -16 16h-98l37 159h93q15 1 16 16q-1 16 -16 17v0zM269 112h-128l38 160h127l-37 -160v0z" />
    <glyph glyph-name="hashtag" unicode="#" horiz-adv-x="448" 
d="M432 304h-86l22 92q2 15 -12 20q-15 1 -20 -12l-23 -99h-127l22 92q2 15 -12 19q-15 2 -20 -11l-23 -101h-105q-15 -1 -16 -16q1 -15 16 -16h98l-37 -160h-93q-15 -1 -16 -16q1 -15 16 -16h86l-22 -92q-2 -15 12 -20h4q12 0 16 12l23 100h127l-22 -92q-1 -15 12 -20h4
q12 0 16 12l23 100h105q15 1 16 16q-1 15 -16 16h-98l37 159h93q15 1 16 16q-1 16 -16 17v0zM269 112h-128l38 160h127l-37 -160v0z" />
    <glyph glyph-name="dollar-sign" unicode="&#x1f4b2;" horiz-adv-x="320" 
d="M302 82q-8 -38 -41 -59v0q-33 -21 -85 -23v-48q-1 -15 -16 -16q-15 1 -16 16v50h-7q-6 0 -12 1q-43 8 -85 23v0l-13 4q-13 6 -10 20q6 14 20 11l13 -5q40 -14 80 -21q49 -7 90 4q42 12 51 49q6 38 -25 56q-31 19 -90 33l-17 4v0q-27 7 -58 19t-50 36q-20 24 -13 66
q8 38 41 59t85 22v49q1 15 16 16q15 -1 16 -16v-49q3 -1 6 -1q6 0 13 -1q26 -4 66 -16q13 -6 10 -21q-5 -13 -20 -10q-37 12 -61 15q-49 7 -90 -4q-42 -12 -51 -49q-6 -34 19 -52t79 -32l17 -4v0q36 -9 70 -22t55 -38q20 -24 13 -66v0z" />
    <glyph glyph-name="dollar-sign" unicode="$" horiz-adv-x="320" 
d="M302 82q-8 -38 -41 -59v0q-33 -21 -85 -23v-48q-1 -15 -16 -16q-15 1 -16 16v50h-7q-6 0 -12 1q-43 8 -85 23v0l-13 4q-13 6 -10 20q6 14 20 11l13 -5q40 -14 80 -21q49 -7 90 4q42 12 51 49q6 38 -25 56q-31 19 -90 33l-17 4v0q-27 7 -58 19t-50 36q-20 24 -13 66
q8 38 41 59t85 22v49q1 15 16 16q15 -1 16 -16v-49q3 -1 6 -1q6 0 13 -1q26 -4 66 -16q13 -6 10 -21q-5 -13 -20 -10q-37 12 -61 15q-49 7 -90 -4q-42 -12 -51 -49q-6 -34 19 -52t79 -32l17 -4v0q36 -9 70 -22t55 -38q20 -24 13 -66v0z" />
    <glyph glyph-name="percent" unicode="&#xf541;" horiz-adv-x="384" 
d="M379 379q-11 10 -22 0l-352 -352q-10 -11 0 -22q5 -5 11 -5t11 5l352 352q10 11 0 22v0zM64 256q27 1 45 19v0q18 18 19 45q-1 27 -19 45t-45 19q-27 -1 -45 -19t-19 -44q1 -27 19 -45q18 -19 45 -20v0zM64 352q14 0 23 -9v0q9 -9 9 -23t-9 -23t-23 -9t-23 9t-9 23t9 23
t23 9v0zM320 128q-27 -1 -45 -19v0q-18 -18 -19 -45q1 -27 19 -45t45 -19q27 1 45 19t19 45q-1 27 -19 45t-45 19v0zM320 32q-14 0 -23 9v0q-9 9 -9 23t9 23t23 9t23 -9t9 -23t-9 -23t-23 -9v0z" />
    <glyph glyph-name="percent" unicode="&#xf295;" horiz-adv-x="384" 
d="M379 379q-11 10 -22 0l-352 -352q-10 -11 0 -22q5 -5 11 -5t11 5l352 352q10 11 0 22v0zM64 256q27 1 45 19v0q18 18 19 45q-1 27 -19 45t-45 19q-27 -1 -45 -19t-19 -44q1 -27 19 -45q18 -19 45 -20v0zM64 352q14 0 23 -9v0q9 -9 9 -23t-9 -23t-23 -9t-23 9t-9 23t9 23
t23 9v0zM320 128q-27 -1 -45 -19v0q-18 -18 -19 -45q1 -27 19 -45t45 -19q27 1 45 19t19 45q-1 27 -19 45t-45 19v0zM320 32q-14 0 -23 9v0q-9 9 -9 23t9 23t23 9t23 -9t9 -23t-9 -23t-23 -9v0z" />
    <glyph glyph-name="percent" unicode="%" horiz-adv-x="384" 
d="M379 379q-11 10 -22 0l-352 -352q-10 -11 0 -22q5 -5 11 -5t11 5l352 352q10 11 0 22v0zM64 256q27 1 45 19v0q18 18 19 45q-1 27 -19 45t-45 19q-27 -1 -45 -19t-19 -44q1 -27 19 -45q18 -19 45 -20v0zM64 352q14 0 23 -9v0q9 -9 9 -23t-9 -23t-23 -9t-23 9t-9 23t9 23
t23 9v0zM320 128q-27 -1 -45 -19v0q-18 -18 -19 -45q1 -27 19 -45t45 -19q27 1 45 19t19 45q-1 27 -19 45t-45 19v0zM320 32q-14 0 -23 9v0q-9 9 -9 23t9 23t23 9t23 -9t9 -23t-9 -23t-23 -9v0z" />
    <glyph glyph-name="ampersand" unicode="&#x26;" horiz-adv-x="384" 
d="M380 -5l-72 74l73 105q7 13 -4 22q-13 7 -22 -4l-70 -99l-115 119l70 56q31 25 32 65q-2 35 -25 59q-24 23 -60 24h-54q-36 -1 -61 -24q-24 -24 -25 -59q1 -39 27 -67l48 -50l-83 -67q-38 -31 -39 -79q1 -43 30 -72q30 -29 74 -30h66q32 0 59 14q28 15 45 40l15 21
l67 -70q6 -5 11 -5t11 4q11 12 2 23v0zM98 288q-18 19 -18 45q0 21 15 36q15 14 38 15h54q22 -1 37 -15q15 -15 16 -36q0 -25 -20 -40l-72 -58l-50 53v0zM249 40q-29 -39 -79 -40h-66q-31 1 -51 20q-20 20 -21 50q1 33 27 54l86 68l122 -126l-18 -26v0z" />
    <glyph glyph-name="apostrophe" unicode="'" horiz-adv-x="192" 
d="M112 416q-34 -1 -57 -23v0q-22 -23 -23 -57q1 -34 23 -57q23 -22 57 -23q28 1 48 16v-32q-1 -34 -23 -57q-23 -22 -57 -23q-15 -1 -16 -16q1 -15 16 -16q48 1 79 33q32 31 33 79v96q-1 34 -23 57q-23 22 -57 23v0zM112 288q-20 1 -34 14v0q-13 14 -14 34q1 20 14 34
q14 13 34 14q20 -1 34 -14q13 -14 14 -34q-1 -20 -14 -34q-14 -13 -34 -14v0z" />
    <glyph glyph-name="bracket-round" unicode="(" horiz-adv-x="192" 
d="M121 -3q11 -10 4 -22q-5 -7 -13 -7q-5 0 -9 3q-4 1 -29 26q-24 25 -48 74q-24 48 -26 120q2 72 26 121q24 48 48 73q25 25 29 26q12 8 22 -3q7 -13 -4 -23q-3 -1 -24 -23q-22 -22 -43 -65q-20 -43 -22 -107q1 -63 22 -105q20 -42 42 -64q21 -22 25 -24v0v0z" />
    <glyph glyph-name="bracket-round-right" unicode=")" horiz-adv-x="192" 
d="M159 193q-1 64 -22 107v0q-21 43 -43 65v0q-21 22 -24 23q-10 9 -3 21q10 11 22 4q4 -2 29 -26q24 -25 48 -74q24 -48 26 -121q-2 -73 -26 -121q-24 -49 -48 -73q-25 -25 -29 -26q-4 -4 -9 -4q-8 0 -13 7q-7 12 4 22q3 1 24 23t42 65t22 108v0z" />
    <glyph glyph-name="asterisk" unicode="&#xf069;" horiz-adv-x="448" 
d="M414 80q-5 -8 -15 -8q-4 0 -8 2l-151 90v-180q-2 -15 -15 -16q-15 1 -17 16v180l-152 -90q-4 -2 -8 -2q-9 0 -14 8q-6 13 6 22l153 90l-153 90q-12 9 -6 22q9 12 22 6l152 -89v179q1 15 16 16q15 -1 16 -16v-179l152 90q13 6 22 -6q6 -13 -6 -22l-152 -91l152 -90
q12 -9 6 -22v0z" />
    <glyph glyph-name="asterisk" unicode="&#x2731;" horiz-adv-x="448" 
d="M414 80q-5 -8 -15 -8q-4 0 -8 2l-151 90v-180q-2 -15 -15 -16q-15 1 -17 16v180l-152 -90q-4 -2 -8 -2q-9 0 -14 8q-6 13 6 22l153 90l-153 90q-12 9 -6 22q9 12 22 6l152 -89v179q1 15 16 16q15 -1 16 -16v-179l152 90q13 6 22 -6q6 -13 -6 -22l-152 -91l152 -90
q12 -9 6 -22v0z" />
    <glyph glyph-name="asterisk" unicode="*" horiz-adv-x="448" 
d="M414 80q-5 -8 -15 -8q-4 0 -8 2l-151 90v-180q-2 -15 -15 -16q-15 1 -17 16v180l-152 -90q-4 -2 -8 -2q-9 0 -14 8q-6 13 6 22l153 90l-153 90q-12 9 -6 22q9 12 22 6l152 -89v179q1 15 16 16q15 -1 16 -16v-179l152 90q13 6 22 -6q6 -13 -6 -22l-152 -91l152 -90
q12 -9 6 -22v0z" />
    <glyph glyph-name="plus" unicode="&#x2795;" horiz-adv-x="448" 
d="M432 192q-1 -15 -16 -16h-176v-176q-1 -15 -16 -16q-15 1 -16 16v176h-176q-15 1 -16 16q1 15 16 16h176v176q1 15 16 16q15 -1 16 -16v-176h176q15 -1 16 -16v0z" />
    <glyph glyph-name="plus" unicode="+" horiz-adv-x="448" 
d="M432 192q-1 -15 -16 -16h-176v-176q-1 -15 -16 -16q-15 1 -16 16v176h-176q-15 1 -16 16q1 15 16 16h176v176q1 15 16 16q15 -1 16 -16v-176h176q15 -1 16 -16v0z" />
    <glyph glyph-name="comma" unicode="," horiz-adv-x="192" 
d="M156 121q-7 18 -23 28v0q-16 11 -35 11v0v0q-15 0 -28 -8q-25 -14 -30 -42l-23 -132q-2 -28 24 -40q4 -1 10 -1h2q20 0 31 18l68 115q13 24 4 51v0zM124 86l-68 -116q-1 -2 -4 -2h-1q-3 2 -3 5l23 132q2 13 14 20q5 3 12 3q22 -1 29 -18q5 -13 -2 -24v0z" />
    <glyph glyph-name="hyphen" unicode="-" horiz-adv-x="320" 
d="M320 192q-1 -15 -16 -16h-288q-15 1 -16 16q1 15 16 16h288q15 -1 16 -16v0z" />
    <glyph glyph-name="period" unicode="." horiz-adv-x="128" 
d="M64 96q-27 -1 -45 -19v0q-18 -18 -19 -45q1 -27 19 -45t45 -19q27 1 45 19t19 45q-1 27 -19 45t-45 19v0zM64 0q-14 0 -23 9v0q-9 9 -9 23t9 23t23 9t23 -9t9 -23t-9 -23t-23 -9v0z" />
    <glyph glyph-name="slash-forward" unicode="/" horiz-adv-x="320" 
d="M312 446q-13 6 -22 -6l-288 -480q-6 -13 6 -22q4 -2 8 -2q9 0 14 8l288 480q6 13 -6 22v0z" />
    <glyph glyph-name="0" unicode="0" horiz-adv-x="320" 
d="M160 416q-68 -2 -113 -47v0q-45 -45 -47 -113v-127q2 -68 47 -113t113 -47q68 2 113 47t47 113v127q-2 68 -47 113t-113 47v0zM288 128q-1 -54 -38 -90v0q-36 -37 -90 -38q-54 1 -90 38q-37 36 -38 90v128q1 54 38 90q36 37 90 38q54 -1 90 -38q37 -36 38 -90v-128v0z
" />
    <glyph glyph-name="1" unicode="1" horiz-adv-x="256" 
d="M256 -16q-1 -15 -16 -16h-224q-15 1 -16 16q1 15 16 16h96v369l-55 -38q-13 -7 -22 4q-7 13 4 22l80 55q8 5 16 1q9 -3 9 -13v-400h96q15 -1 16 -16v0z" />
    <glyph glyph-name="2" unicode="2" horiz-adv-x="320" 
d="M320 -15q-1 -16 -16 -17h-288q-11 0 -15 10q-3 10 4 18l213 194q35 32 38 75q4 43 -25 79q-30 36 -77 40q-46 3 -81 -27l-32 -28q-12 -9 -23 1q-8 12 2 23l32 28q46 38 105 35q59 -6 98 -51q38 -47 33 -103q-4 -55 -48 -96l-183 -166h247q15 -1 16 -15v0z" />
    <glyph glyph-name="3" unicode="3" horiz-adv-x="320" 
d="M320 96q-1 -54 -38 -90v0q-36 -37 -90 -38h-99q-32 0 -57 18t-35 48q-4 15 10 21q14 3 20 -10q7 -21 24 -33t38 -12h99q41 1 68 28t28 68q-1 41 -28 68t-68 28h-112q-11 1 -15 10q-3 10 4 18l178 164h-231q-15 1 -16 16q1 15 16 16h272q11 0 15 -10q3 -10 -4 -18
l-178 -164h71q54 -1 90 -38q37 -36 38 -90v0z" />
    <glyph glyph-name="4" unicode="4" horiz-adv-x="384" 
d="M384 112q-2 -14 -15 -15h-47v-111q-2 -14 -15 -15q-14 1 -15 15v111h-276q-9 0 -14 7q-4 7 0 15l143 287q8 13 21 7q13 -7 7 -21l-132 -265h246v177q2 14 15 15q14 -1 15 -15v-175h47q19 -3 20 -17v0z" />
    <glyph glyph-name="5" unicode="5" horiz-adv-x="320" 
d="M320 96q-1 -54 -38 -90v0q-36 -37 -90 -38h-97q-33 0 -58 19q-25 18 -36 49q-4 14 10 20q14 3 20 -10q7 -21 25 -33q17 -13 39 -13h97q41 1 68 28t28 68q-1 41 -28 68t-68 28h-176q-8 0 -13 6q-4 6 -3 14l48 192q4 11 16 12h208q15 -1 16 -16q-1 -15 -16 -16h-195
l-40 -160h155q54 -1 90 -38q37 -36 38 -90v0z" />
    <glyph glyph-name="6" unicode="6" horiz-adv-x="320" 
d="M0 128q2 -68 47 -113v0q45 -45 113 -47q68 2 113 47t47 113q-2 68 -47 113t-113 47q-19 0 -36 -5l96 106q9 12 -1 23q-5 4 -11 4q-7 0 -12 -5q-31 -34 -56 -62q-76 -79 -108 -126q-33 -46 -32 -95v0zM288 128q-1 -54 -38 -90v0q-36 -37 -90 -38q-54 1 -90 38
q-37 36 -38 90q1 54 38 90q36 37 90 38q54 -1 90 -38q37 -36 38 -90v0z" />
    <glyph glyph-name="7" unicode="7" horiz-adv-x="320" 
d="M318 392l-256 -416q-5 -8 -14 -8q-4 0 -8 2q-12 9 -6 22l241 392h-259q-15 1 -16 16q1 15 16 16h288q9 0 14 -8q4 -8 0 -16v0z" />
    <glyph glyph-name="8" unicode="8" horiz-adv-x="320" 
d="M251 196q24 17 38 43v0q15 26 15 57q-1 51 -35 85t-85 35h-48q-51 -1 -85 -35t-35 -85q0 -31 15 -57q14 -26 38 -43q-31 -14 -50 -43q-18 -29 -19 -65q1 -51 35 -85t85 -35h80q51 1 85 35t35 85q-1 36 -19 65q-19 28 -50 43v0zM48 296q1 37 26 62v0q25 25 62 26h48
q37 -1 62 -26t26 -62q-1 -37 -26 -62t-62 -26h-48q-37 1 -62 26t-26 62v0zM200 0h-80q-37 1 -62 26t-26 62q1 37 26 62t62 26h80q37 -1 62 -26t26 -62q-1 -37 -26 -62t-62 -26v0z" />
    <glyph glyph-name="9" unicode="9" horiz-adv-x="320" 
d="M320 256q-2 68 -47 113v0q-45 45 -113 47q-68 -2 -113 -47t-47 -113q2 -68 47 -113t113 -47q19 0 36 5l-96 -106q-9 -12 1 -23q5 -4 11 -4q7 0 12 5q31 34 56 62q76 79 108 126q33 46 32 95v0zM32 256q1 54 38 90v0q36 37 90 38q54 -1 90 -38q37 -36 38 -90
q-1 -54 -38 -90q-36 -37 -90 -38q-54 1 -90 38q-37 36 -38 90v0z" />
    <glyph glyph-name="colon" unicode=":" horiz-adv-x="128" 
d="M64 256q27 1 45 19v0q18 18 19 45q-1 27 -19 45t-45 19q-27 -1 -45 -19t-19 -45q1 -27 19 -45t45 -19v0zM64 352q14 0 23 -9v0q9 -9 9 -23t-9 -23t-23 -9t-23 9t-9 23t9 23t23 9v0zM64 128q-27 -1 -45 -19v0q-18 -18 -19 -45q1 -27 19 -45t45 -19q27 1 45 19t19 45
q-1 27 -19 45t-45 19v0zM64 32q-14 0 -23 9v0q-9 9 -9 23t9 23t23 9t23 -9t9 -23t-9 -23t-23 -9v0z" />
    <glyph glyph-name="semicolon" unicode=";" horiz-adv-x="192" 
d="M96 256q27 1 45 19v0q18 18 19 45q-1 27 -19 45t-45 19q-27 -1 -45 -19q-17 -18 -18 -45q0 -27 18 -45t45 -19v0zM95 352q14 0 23 -9v0q9 -9 9 -23t-9 -23t-23 -9q-13 0 -22 9t-9 23t9 23t22 9v0zM97 161q-15 0 -28 -8q-25 -14 -30 -42l-22 -132q-3 -28 23 -40
q6 -3 12 -2h1q20 0 31 18l68 115q13 25 4 52q-7 17 -23 28t-36 11v0zM124 86l-68 -116q-1 -2 -4 -2h-1q-3 2 -3 5l23 132q2 13 14 20q5 3 12 3q22 -1 29 -18q5 -13 -2 -24v0z" />
    <glyph glyph-name="less-than" unicode="&#xf536;" horiz-adv-x="384" 
d="M383 25q-5 -9 -16 -9q-3 0 -7 1l-351 160q-9 6 -9 15q0 10 9 15l351 160q14 4 22 -8q4 -14 -8 -22l-319 -144l319 -146q14 -8 9 -22v0z" />
    <glyph glyph-name="less-than" unicode="&#x3c;" horiz-adv-x="384" 
d="M383 25q-5 -9 -16 -9q-3 0 -7 1l-351 160q-9 6 -9 15q0 10 9 15l351 160q14 4 22 -8q4 -14 -8 -22l-319 -144l319 -146q14 -8 9 -22v0z" />
    <glyph glyph-name="equals" unicode="&#xf52c;" horiz-adv-x="448" 
d="M16 272h416q15 1 16 16q-1 15 -16 16h-416q-15 -1 -16 -16q1 -15 16 -16v0zM432 112h-416q-15 -1 -16 -16q1 -15 16 -16h416q15 1 16 16q-1 15 -16 16v0z" />
    <glyph glyph-name="equals" unicode="=" horiz-adv-x="448" 
d="M16 272h416q15 1 16 16q-1 15 -16 16h-416q-15 -1 -16 -16q1 -15 16 -16v0zM432 112h-416q-15 -1 -16 -16q1 -15 16 -16h416q15 1 16 16q-1 15 -16 16v0z" />
    <glyph glyph-name="greater-than" unicode="&#xf531;" horiz-adv-x="384" 
d="M1 359q5 9 15 10q3 0 7 -2l351 -160q10 -5 10 -15t-9 -15l-351 -160q-14 -4 -22 8q-4 14 8 22l319 145l-319 145q-14 8 -9 22v0z" />
    <glyph glyph-name="greater-than" unicode="&#x3e;" horiz-adv-x="384" 
d="M1 359q5 9 15 10q3 0 7 -2l351 -160q10 -5 10 -15t-9 -15l-351 -160q-14 -4 -22 8q-4 14 8 22l319 145l-319 145q-14 8 -9 22v0z" />
    <glyph glyph-name="question" unicode="&#xf128;" horiz-adv-x="320" 
d="M213 416h-106q-46 -1 -76 -31t-31 -76v-21q1 -15 16 -16q15 1 16 16v21q1 32 22 53t53 22h106q32 -1 53 -22t22 -53q-1 -43 -38 -65l-97 -55q-24 -14 -25 -42v-35q1 -15 16 -16q15 1 16 16v35q0 9 8 14l98 55q25 15 39 39q15 25 15 54q-1 45 -31 76q-30 30 -76 31v0z
M144 48q-14 0 -23 -9v0q-9 -9 -9 -23t9 -23t23 -9t23 9t9 23t-9 23t-23 9v0z" />
    <glyph glyph-name="question" unicode="&#x2754;" horiz-adv-x="320" 
d="M213 416h-106q-46 -1 -76 -31t-31 -76v-21q1 -15 16 -16q15 1 16 16v21q1 32 22 53t53 22h106q32 -1 53 -22t22 -53q-1 -43 -38 -65l-97 -55q-24 -14 -25 -42v-35q1 -15 16 -16q15 1 16 16v35q0 9 8 14l98 55q25 15 39 39q15 25 15 54q-1 45 -31 76q-30 30 -76 31v0z
M144 48q-14 0 -23 -9v0q-9 -9 -9 -23t9 -23t23 -9t23 9t9 23t-9 23t-23 9v0z" />
    <glyph glyph-name="question" unicode="&#x2753;" horiz-adv-x="320" 
d="M213 416h-106q-46 -1 -76 -31t-31 -76v-21q1 -15 16 -16q15 1 16 16v21q1 32 22 53t53 22h106q32 -1 53 -22t22 -53q-1 -43 -38 -65l-97 -55q-24 -14 -25 -42v-35q1 -15 16 -16q15 1 16 16v35q0 9 8 14l98 55q25 15 39 39q15 25 15 54q-1 45 -31 76q-30 30 -76 31v0z
M144 48q-14 0 -23 -9v0q-9 -9 -9 -23t9 -23t23 -9t23 9t9 23t-9 23t-23 9v0z" />
    <glyph glyph-name="question" unicode="?" horiz-adv-x="320" 
d="M213 416h-106q-46 -1 -76 -31t-31 -76v-21q1 -15 16 -16q15 1 16 16v21q1 32 22 53t53 22h106q32 -1 53 -22t22 -53q-1 -43 -38 -65l-97 -55q-24 -14 -25 -42v-35q1 -15 16 -16q15 1 16 16v35q0 9 8 14l98 55q25 15 39 39q15 25 15 54q-1 45 -31 76q-30 30 -76 31v0z
M144 48q-14 0 -23 -9v0q-9 -9 -9 -23t9 -23t23 -9t23 9t9 23t-9 23t-23 9v0z" />
    <glyph glyph-name="at" unicode="&#x1fa80;" 
d="M260 432q-73 0 -130 -37v0q-57 -36 -88 -97v0q-31 -61 -25 -133q11 -90 71 -148t151 -65q15 1 17 16q-1 14 -15 16q-81 7 -134 59q-52 53 -59 134q-3 60 23 110q25 50 72 80q47 31 108 33q91 0 150 -59q60 -58 62 -149v-23q0 -20 -12 -36q-12 -15 -31 -20q-28 -5 -48 11
t-21 44v120q-1 14 -16 16q-15 -2 -16 -16v-18q-19 19 -45 28q-27 9 -57 4q-33 -7 -57 -31t-30 -59q-8 -54 24 -93q33 -38 86 -39q58 2 91 46q12 -23 36 -36q23 -13 52 -10q34 6 55 31t22 60v21q-3 102 -69 169q-65 67 -167 71v0zM240 112q-34 1 -57 23v0q-22 23 -23 57
q1 34 23 56q23 23 57 24q34 -1 56 -24q23 -22 24 -56q-1 -34 -24 -57q-22 -22 -56 -23v0z" />
    <glyph glyph-name="at" unicode="&#xf1fa;" 
d="M260 432q-73 0 -130 -37v0q-57 -36 -88 -97v0q-31 -61 -25 -133q11 -90 71 -148t151 -65q15 1 17 16q-1 14 -15 16q-81 7 -134 59q-52 53 -59 134q-3 60 23 110q25 50 72 80q47 31 108 33q91 0 150 -59q60 -58 62 -149v-23q0 -20 -12 -36q-12 -15 -31 -20q-28 -5 -48 11
t-21 44v120q-1 14 -16 16q-15 -2 -16 -16v-18q-19 19 -45 28q-27 9 -57 4q-33 -7 -57 -31t-30 -59q-8 -54 24 -93q33 -38 86 -39q58 2 91 46q12 -23 36 -36q23 -13 52 -10q34 6 55 31t22 60v21q-3 102 -69 169q-65 67 -167 71v0zM240 112q-34 1 -57 23v0q-22 23 -23 57
q1 34 23 56q23 23 57 24q34 -1 56 -24q23 -22 24 -56q-1 -34 -24 -57q-22 -22 -56 -23v0z" />
    <glyph glyph-name="at" unicode="@" 
d="M260 432q-73 0 -130 -37v0q-57 -36 -88 -97v0q-31 -61 -25 -133q11 -90 71 -148t151 -65q15 1 17 16q-1 14 -15 16q-81 7 -134 59q-52 53 -59 134q-3 60 23 110q25 50 72 80q47 31 108 33q91 0 150 -59q60 -58 62 -149v-23q0 -20 -12 -36q-12 -15 -31 -20q-28 -5 -48 11
t-21 44v120q-1 14 -16 16q-15 -2 -16 -16v-18q-19 19 -45 28q-27 9 -57 4q-33 -7 -57 -31t-30 -59q-8 -54 24 -93q33 -38 86 -39q58 2 91 46q12 -23 36 -36q23 -13 52 -10q34 6 55 31t22 60v21q-3 102 -69 169q-65 67 -167 71v0zM240 112q-34 1 -57 23v0q-22 23 -23 57
q1 34 23 56q23 23 57 24q34 -1 56 -24q23 -22 24 -56q-1 -34 -24 -57q-22 -22 -56 -23v0z" />
    <glyph glyph-name="a" unicode="a" horiz-adv-x="384" 
d="M383 -10l-176 417q-4 9 -15 9q-10 0 -15 -9l-176 -417q-4 -14 9 -21q14 -4 21 9l36 86h250l36 -86q5 -10 14 -10q3 0 6 1q14 7 10 21v0zM81 96l111 264l111 -264h-222v0z" />
    <glyph glyph-name="a" unicode="A" horiz-adv-x="384" 
d="M383 -10l-176 417q-4 9 -15 9q-10 0 -15 -9l-176 -417q-4 -14 9 -21q14 -4 21 9l36 86h250l36 -86q5 -10 14 -10q3 0 6 1q14 7 10 21v0zM81 96l111 264l111 -264h-222v0z" />
    <glyph glyph-name="b" unicode="b" horiz-adv-x="320" 
d="M242 214q44 32 46 90q-1 48 -33 79q-31 32 -79 33h-160q-15 -1 -16 -16v-416q1 -15 16 -16h176q54 1 90 38q37 36 38 90q-1 40 -22 71q-21 32 -56 47v0zM32 384h144q34 -1 57 -23q22 -23 23 -57q-1 -34 -23 -57q-23 -22 -57 -23h-144v160v0zM192 0h-160v192h160
q41 -1 68 -28t28 -68q-1 -41 -28 -68t-68 -28v0z" />
    <glyph glyph-name="b" unicode="B" horiz-adv-x="320" 
d="M242 214q44 32 46 90q-1 48 -33 79q-31 32 -79 33h-160q-15 -1 -16 -16v-416q1 -15 16 -16h176q54 1 90 38q37 36 38 90q-1 40 -22 71q-21 32 -56 47v0zM32 384h144q34 -1 57 -23q22 -23 23 -57q-1 -34 -23 -57q-23 -22 -57 -23h-144v160v0zM192 0h-160v192h160
q41 -1 68 -28t28 -68q-1 -41 -28 -68t-68 -28v0z" />
    <glyph glyph-name="c" unicode="c" horiz-adv-x="384" 
d="M222 -32q-69 1 -119 34v0q-50 33 -76 84v0q-27 51 -27 105q0 55 27 106q26 51 76 85q49 33 119 34q44 -1 81 -16q36 -14 58 -32t23 -29q0 -4 -3 -9q-4 -5 -13 -6q-8 0 -22 13q-15 15 -45 30q-29 16 -79 17q-59 -1 -102 -29q-42 -29 -65 -72q-23 -44 -23 -91t23 -91
t66 -72q42 -28 101 -29q50 1 80 17q29 16 45 31q13 12 21 13q9 -1 13 -6q3 -6 3 -10q-1 -10 -22 -28q-22 -18 -59 -33q-36 -15 -81 -16v0z" />
    <glyph glyph-name="c" unicode="C" horiz-adv-x="384" 
d="M222 -32q-69 1 -119 34v0q-50 33 -76 84v0q-27 51 -27 105q0 55 27 106q26 51 76 85q49 33 119 34q44 -1 81 -16q36 -14 58 -32t23 -29q0 -4 -3 -9q-4 -5 -13 -6q-8 0 -22 13q-15 15 -45 30q-29 16 -79 17q-59 -1 -102 -29q-42 -29 -65 -72q-23 -44 -23 -91t23 -91
t66 -72q42 -28 101 -29q50 1 80 17q29 16 45 31q13 12 21 13q9 -1 13 -6q3 -6 3 -10q-1 -10 -22 -28q-22 -18 -59 -33q-36 -15 -81 -16v0z" />
    <glyph glyph-name="d" unicode="d" horiz-adv-x="384" 
d="M160 -32h-144q-15 1 -16 16v416q1 15 16 16h144q62 -1 113 -31q50 -29 80 -80q30 -50 31 -112q-1 -62 -31 -113t-80 -81q-51 -30 -113 -31v0zM32 0h128q81 2 136 56q54 55 56 136q-2 81 -56 136q-55 54 -136 56h-128v-384v0z" />
    <glyph glyph-name="d" unicode="D" horiz-adv-x="384" 
d="M160 -32h-144q-15 1 -16 16v416q1 15 16 16h144q62 -1 113 -31q50 -29 80 -80q30 -50 31 -112q-1 -62 -31 -113t-80 -81q-51 -30 -113 -31v0zM32 0h128q81 2 136 56q54 55 56 136q-2 81 -56 136q-55 54 -136 56h-128v-384v0z" />
    <glyph glyph-name="e" unicode="e" horiz-adv-x="320" 
d="M320 -16q-1 -15 -16 -16h-288q-15 1 -16 16v416q1 15 16 16h288q15 -1 16 -16q-1 -15 -16 -16h-272v-176h208q15 -1 16 -16q-1 -15 -16 -16h-208v-176h272q15 -1 16 -16v0z" />
    <glyph glyph-name="e" unicode="E" horiz-adv-x="320" 
d="M320 -16q-1 -15 -16 -16h-288q-15 1 -16 16v416q1 15 16 16h288q15 -1 16 -16q-1 -15 -16 -16h-272v-176h208q15 -1 16 -16q-1 -15 -16 -16h-208v-176h272q15 -1 16 -16v0z" />
    <glyph glyph-name="f" unicode="f" horiz-adv-x="320" 
d="M320 400q-1 -15 -16 -16h-272v-192h208q15 -1 16 -16q-1 -15 -16 -16h-208v-176q-1 -15 -16 -16q-15 1 -16 16v416q1 15 16 16h288q15 -1 16 -16v0z" />
    <glyph glyph-name="f" unicode="F" horiz-adv-x="320" 
d="M320 400q-1 -15 -16 -16h-272v-192h208q15 -1 16 -16q-1 -15 -16 -16h-208v-176q-1 -15 -16 -16q-15 1 -16 16v416q1 15 16 16h288q15 -1 16 -16v0z" />
    <glyph glyph-name="g" unicode="g" horiz-adv-x="448" 
d="M224 -32q-61 1 -111 30v0q-51 28 -81 79v0q-31 50 -32 115q1 65 32 116q31 50 81 79q51 28 110 29q45 -1 82 -16q36 -14 58 -32t22 -29q0 -9 -6 -12q-5 -4 -10 -4q-7 1 -21 13q-15 15 -45 31t-81 17q-83 -2 -136 -57q-53 -54 -55 -134q2 -81 56 -135q53 -55 135 -57
q61 1 102 29t64 64q22 37 27 64l-1 3h-191q-3 0 -9 3q-7 3 -8 13q2 15 16 16h208q17 -2 18 -16q-1 -52 -30 -99q-29 -48 -80 -78q-50 -31 -114 -32v0z" />
    <glyph glyph-name="g" unicode="G" horiz-adv-x="448" 
d="M224 -32q-61 1 -111 30v0q-51 28 -81 79v0q-31 50 -32 115q1 65 32 116q31 50 81 79q51 28 110 29q45 -1 82 -16q36 -14 58 -32t22 -29q0 -9 -6 -12q-5 -4 -10 -4q-7 1 -21 13q-15 15 -45 31t-81 17q-83 -2 -136 -57q-53 -54 -55 -134q2 -81 56 -135q53 -55 135 -57
q61 1 102 29t64 64q22 37 27 64l-1 3h-191q-3 0 -9 3q-7 3 -8 13q2 15 16 16h208q17 -2 18 -16q-1 -52 -30 -99q-29 -48 -80 -78q-50 -31 -114 -32v0z" />
    <glyph glyph-name="h" unicode="h" horiz-adv-x="384" 
d="M384 400v-416q-1 -15 -16 -16q-15 1 -16 16v208h-320v-208q-1 -15 -16 -16q-15 1 -16 16v416q1 15 16 16q15 -1 16 -16v-176h320v176q1 15 16 16q15 -1 16 -16v0z" />
    <glyph glyph-name="h" unicode="H" horiz-adv-x="384" 
d="M384 400v-416q-1 -15 -16 -16q-15 1 -16 16v208h-320v-208q-1 -15 -16 -16q-15 1 -16 16v416q1 15 16 16q15 -1 16 -16v-176h320v176q1 15 16 16q15 -1 16 -16v0z" />
    <glyph glyph-name="i" unicode="i" horiz-adv-x="320" 
d="M320 -16q-1 -15 -16 -16h-288q-15 1 -16 16q1 15 16 16h128v384h-128q-15 1 -16 16q1 15 16 16h288q15 -1 16 -16q-1 -15 -16 -16h-128v-384h128q15 -1 16 -16v0z" />
    <glyph glyph-name="i" unicode="I" horiz-adv-x="320" 
d="M320 -16q-1 -15 -16 -16h-288q-15 1 -16 16q1 15 16 16h128v384h-128q-15 1 -16 16q1 15 16 16h288q15 -1 16 -16q-1 -15 -16 -16h-128v-384h128q15 -1 16 -16v0z" />
    <glyph glyph-name="j" unicode="j" horiz-adv-x="320" 
d="M160 -32q-68 2 -113 47v0q-45 45 -47 113v48q1 15 16 16q15 -1 16 -16v-48q1 -54 38 -90q36 -37 90 -38q54 1 90 38q37 36 38 90v272q1 15 16 16q15 -1 16 -16v-272q-2 -68 -47 -113t-113 -47v0z" />
    <glyph glyph-name="j" unicode="J" horiz-adv-x="320" 
d="M160 -32q-68 2 -113 47v0q-45 45 -47 113v48q1 15 16 16q15 -1 16 -16v-48q1 -54 38 -90q36 -37 90 -38q54 1 90 38q37 36 38 90v272q1 15 16 16q15 -1 16 -16v-272q-2 -68 -47 -113t-113 -47v0z" />
    <glyph glyph-name="k" unicode="k" horiz-adv-x="320" 
d="M317 -7q7 -12 -4 -22q-4 -3 -9 -3q-8 0 -13 7l-166 226l-93 -91v-126q-2 -15 -15 -16q-14 1 -15 16v416q1 15 15 16q13 -1 15 -16v-245l261 256q11 10 22 0q10 -11 0 -22l-167 -165l169 -231v0z" />
    <glyph glyph-name="k" unicode="K" horiz-adv-x="320" 
d="M317 -7q7 -12 -4 -22q-4 -3 -9 -3q-8 0 -13 7l-166 226l-93 -91v-126q-2 -15 -15 -16q-14 1 -15 16v416q1 15 15 16q13 -1 15 -16v-245l261 256q11 10 22 0q10 -11 0 -22l-167 -165l169 -231v0z" />
    <glyph glyph-name="l" unicode="l" horiz-adv-x="320" 
d="M304 -32h-256q-15 1 -16 16v416q1 15 16 16q15 -1 16 -16v-400h240q15 -1 16 -16q-1 -15 -16 -16v0z" />
    <glyph glyph-name="l" unicode="L" horiz-adv-x="320" 
d="M304 -32h-256q-15 1 -16 16v416q1 15 16 16q15 -1 16 -16v-400h240q15 -1 16 -16q-1 -15 -16 -16v0z" />
    <glyph glyph-name="m" unicode="m" horiz-adv-x="448" 
d="M432 -32q-15 2 -16 15v365l-179 -261q-5 -7 -13 -7t-13 7l-179 261v-364q-1 -15 -16 -16q-15 1 -16 16v416q1 11 11 15q11 3 18 -6l195 -285l195 285q7 9 18 6q10 -4 11 -15v-415q-1 -16 -16 -17v0z" />
    <glyph glyph-name="m" unicode="M" horiz-adv-x="448" 
d="M432 -32q-15 2 -16 15v365l-179 -261q-5 -7 -13 -7t-13 7l-179 261v-364q-1 -15 -16 -16q-15 1 -16 16v416q1 11 11 15q11 3 18 -6l195 -285l195 285q7 9 18 6q10 -4 11 -15v-415q-1 -16 -16 -17v0z" />
    <glyph glyph-name="n" unicode="n" horiz-adv-x="384" 
d="M368 -32q-7 -1 -12 6l-324 382v-372q-1 -14 -16 -15q-15 1 -16 15v416q1 11 11 15q10 3 17 -5l324 -382v372q1 14 16 15q15 -1 16 -15v-415q-1 -11 -10 -15q-3 -2 -6 -2v0z" />
    <glyph glyph-name="n" unicode="N" horiz-adv-x="384" 
d="M368 -32q-7 -1 -12 6l-324 382v-372q-1 -14 -16 -15q-15 1 -16 15v416q1 11 11 15q10 3 17 -5l324 -382v372q1 14 16 15q15 -1 16 -15v-415q-1 -11 -10 -15q-3 -2 -6 -2v0z" />
    <glyph glyph-name="o" unicode="o" horiz-adv-x="448" 
d="M224 -32q-62 1 -113 31v0q-50 30 -80 80v0q-30 51 -31 113q1 62 31 113q30 50 80 80q51 30 113 31q62 -1 113 -31q50 -30 80 -80q30 -51 31 -113q-1 -62 -31 -113q-30 -50 -80 -80q-51 -30 -113 -31v0zM224 384q-81 -2 -136 -56v0q-54 -55 -56 -136q2 -81 56 -136
q55 -54 136 -56q81 2 136 56q54 55 56 136q-2 81 -56 136q-55 54 -136 56v0z" />
    <glyph glyph-name="o" unicode="O" horiz-adv-x="448" 
d="M224 -32q-62 1 -113 31v0q-50 30 -80 80v0q-30 51 -31 113q1 62 31 113q30 50 80 80q51 30 113 31q62 -1 113 -31q50 -30 80 -80q30 -51 31 -113q-1 -62 -31 -113q-30 -50 -80 -80q-51 -30 -113 -31v0zM224 384q-81 -2 -136 -56v0q-54 -55 -56 -136q2 -81 56 -136
q55 -54 136 -56q81 2 136 56q54 55 56 136q-2 81 -56 136q-55 54 -136 56v0z" />
    <glyph glyph-name="p" unicode="p" horiz-adv-x="320" 
d="M16 -32q-15 1 -16 16v416q1 15 16 16h160q61 -2 102 -42q40 -41 42 -102q-2 -61 -42 -102q-41 -40 -102 -42h-144v-144q-1 -15 -16 -16v0zM32 160h144q48 1 79 33q32 31 33 79q-1 48 -33 79q-31 32 -79 33h-144v-224v0z" />
    <glyph glyph-name="p" unicode="P" horiz-adv-x="320" 
d="M16 -32q-15 1 -16 16v416q1 15 16 16h160q61 -2 102 -42q40 -41 42 -102q-2 -61 -42 -102q-41 -40 -102 -42h-144v-144q-1 -15 -16 -16v0zM32 160h144q48 1 79 33q32 31 33 79q-1 48 -33 79q-31 32 -79 33h-144v-224v0z" />
    <glyph glyph-name="q" unicode="q" horiz-adv-x="448" 
d="M383 34q30 31 47 71v0q18 41 18 87q-1 62 -31 113q-29 50 -80 80q-50 30 -112 31q-62 -1 -112 -31q-51 -30 -81 -80q-29 -51 -30 -113q1 -62 30 -113q30 -50 81 -80q50 -30 112 -31q77 1 134 45l62 -71q4 -6 10 -6q4 0 10 3q6 4 6 13q0 6 -4 10l-60 72v0zM223 0
q-81 2 -135 56v0q-54 55 -56 136q2 81 56 136q54 54 135 56q81 -2 135 -56q54 -55 56 -136q-2 -80 -54 -134l-110 128q-5 6 -12 6q-9 -1 -12 -6q-4 -6 -4 -10q0 -6 4 -10l110 -128q-47 -37 -113 -38v0z" />
    <glyph glyph-name="q" unicode="Q" horiz-adv-x="448" 
d="M383 34q30 31 47 71v0q18 41 18 87q-1 62 -31 113q-29 50 -80 80q-50 30 -112 31q-62 -1 -112 -31q-51 -30 -81 -80q-29 -51 -30 -113q1 -62 30 -113q30 -50 81 -80q50 -30 112 -31q77 1 134 45l62 -71q4 -6 10 -6q4 0 10 3q6 4 6 13q0 6 -4 10l-60 72v0zM223 0
q-81 2 -135 56v0q-54 55 -56 136q2 81 56 136q54 54 135 56q81 -2 135 -56q54 -55 56 -136q-2 -80 -54 -134l-110 128q-5 6 -12 6q-9 -1 -12 -6q-4 -6 -4 -10q0 -6 4 -10l110 -128q-47 -37 -113 -38v0z" />
    <glyph glyph-name="r" unicode="r" horiz-adv-x="320" 
d="M205 161q49 6 81 41v0q32 35 33 86q-1 54 -37 90q-36 37 -90 38h-177q-13 -1 -15 -16v-416q2 -15 15 -16q14 1 15 16v176h136l123 -185q7 -7 15 -7q5 0 9 3q11 9 4 22l-112 168v0zM31 384h159q41 -1 68 -28q26 -27 27 -68q-1 -41 -28 -68t-67 -28h-159v192v0z" />
    <glyph glyph-name="r" unicode="R" horiz-adv-x="320" 
d="M205 161q49 6 81 41v0q32 35 33 86q-1 54 -37 90q-36 37 -90 38h-177q-13 -1 -15 -16v-416q2 -15 15 -16q14 1 15 16v176h136l123 -185q7 -7 15 -7q5 0 9 3q11 9 4 22l-112 168v0zM31 384h159q41 -1 68 -28q26 -27 27 -68q-1 -41 -28 -68t-67 -28h-159v192v0z" />
    <glyph glyph-name="s" unicode="s" horiz-adv-x="384" 
d="M212 -32q-53 1 -100 14v0q-48 13 -70 23q-13 6 -9 20q7 14 21 10q73 -29 133 -34t95 14q30 17 36 52q8 47 -27 70q-36 23 -103 39q-41 11 -80 26q-38 16 -60 44q-21 28 -14 76q9 44 47 70q70 44 218 7q14 -5 11 -20q-5 -13 -19 -11q-83 20 -128 15q-46 -4 -65 -18
q-16 -11 -23 -25q-8 -13 -9 -24q-8 -47 27 -69q36 -23 103 -40q41 -10 80 -26q38 -15 60 -43q21 -28 14 -76q-9 -51 -52 -75q-39 -20 -86 -19v0z" />
    <glyph glyph-name="s" unicode="S" horiz-adv-x="384" 
d="M212 -32q-53 1 -100 14v0q-48 13 -70 23q-13 6 -9 20q7 14 21 10q73 -29 133 -34t95 14q30 17 36 52q8 47 -27 70q-36 23 -103 39q-41 11 -80 26q-38 16 -60 44q-21 28 -14 76q9 44 47 70q70 44 218 7q14 -5 11 -20q-5 -13 -19 -11q-83 20 -128 15q-46 -4 -65 -18
q-16 -11 -23 -25q-8 -13 -9 -24q-8 -47 27 -69q36 -23 103 -40q41 -10 80 -26q38 -15 60 -43q21 -28 14 -76q-9 -51 -52 -75q-39 -20 -86 -19v0z" />
    <glyph glyph-name="t" unicode="t" horiz-adv-x="384" 
d="M384 400q-1 -15 -16 -16h-160v-400q-1 -15 -16 -16q-15 1 -16 16v400h-160q-15 1 -16 16q1 15 16 16h352q15 -1 16 -16v0z" />
    <glyph glyph-name="t" unicode="T" horiz-adv-x="384" 
d="M384 400q-1 -15 -16 -16h-160v-400q-1 -15 -16 -16q-15 1 -16 16v400h-160q-15 1 -16 16q1 15 16 16h352q15 -1 16 -16v0z" />
    <glyph glyph-name="u" unicode="u" horiz-adv-x="384" 
d="M192 -32q-81 2 -136 56v0q-54 55 -56 136v240q1 15 16 16q15 -1 16 -16v-240q2 -68 47 -113t113 -47q68 2 113 47t47 113v240q1 15 16 16q15 -1 16 -16v-240q-2 -81 -56 -136q-55 -54 -136 -56v0z" />
    <glyph glyph-name="u" unicode="U" horiz-adv-x="384" 
d="M192 -32q-81 2 -136 56v0q-54 55 -56 136v240q1 15 16 16q15 -1 16 -16v-240q2 -68 47 -113t113 -47q68 2 113 47t47 113v240q1 15 16 16q15 -1 16 -16v-240q-2 -81 -56 -136q-55 -54 -136 -56v0z" />
    <glyph glyph-name="v" unicode="v" horiz-adv-x="384" 
d="M192 -32q-10 0 -15 10l-176 416q-4 14 9 21q14 4 21 -9l161 -381l161 381q7 13 21 9q13 -7 9 -21l-175 -415q-6 -11 -16 -11v0z" />
    <glyph glyph-name="v" unicode="V" horiz-adv-x="384" 
d="M192 -32q-10 0 -15 10l-176 416q-4 14 9 21q14 4 21 -9l161 -381l161 381q7 13 21 9q13 -7 9 -21l-175 -415q-6 -11 -16 -11v0z" />
    <glyph glyph-name="w" unicode="w" horiz-adv-x="576" 
d="M406 -32v0q-12 1 -15 12l-103 362l-104 -362q-3 -11 -14 -12q-12 1 -16 10l-153 416q-4 15 9 21q15 4 21 -9l136 -370l106 368q4 11 15 11t15 -11l106 -368l136 370q6 13 21 9q13 -6 9 -21l-152 -416q-5 -9 -17 -10v0z" />
    <glyph glyph-name="w" unicode="W" horiz-adv-x="576" 
d="M406 -32v0q-12 1 -15 12l-103 362l-104 -362q-3 -11 -14 -12q-12 1 -16 10l-153 416q-4 15 9 21q15 4 21 -9l136 -370l106 368q4 11 15 11t15 -11l106 -368l136 370q6 13 21 9q13 -6 9 -21l-152 -416q-5 -9 -17 -10v0z" />
    <glyph glyph-name="x" unicode="x" horiz-adv-x="384" 
d="M380 -6q9 -12 -2 -22q-4 -4 -10 -4q-7 0 -12 6l-164 193l-164 -193q-5 -6 -12 -6q-6 0 -10 4q-11 10 -2 22l167 198l-167 198q-9 12 2 22q12 9 22 -2l164 -193l164 193q10 11 22 2q11 -10 2 -22l-167 -198l167 -198v0z" />
    <glyph glyph-name="x" unicode="X" horiz-adv-x="384" 
d="M380 -6q9 -12 -2 -22q-4 -4 -10 -4q-7 0 -12 6l-164 193l-164 -193q-5 -6 -12 -6q-6 0 -10 4q-11 10 -2 22l167 198l-167 198q-9 12 2 22q12 9 22 -2l164 -193l164 193q10 11 22 2q11 -10 2 -22l-167 -198l167 -198v0z" />
    <glyph glyph-name="y" unicode="y" horiz-adv-x="384" 
d="M381 391l-173 -236v-171q-2 -15 -15 -16q-14 1 -16 16v171l-174 236q-7 12 4 22q12 7 22 -4l163 -222l163 222q10 11 22 4q11 -10 4 -22v0z" />
    <glyph glyph-name="y" unicode="Y" horiz-adv-x="384" 
d="M381 391l-173 -236v-171q-2 -15 -15 -16q-14 1 -16 16v171l-174 236q-7 12 4 22q12 7 22 -4l163 -222l163 222q10 11 22 4q11 -10 4 -22v0z" />
    <glyph glyph-name="z" unicode="z" horiz-adv-x="384" 
d="M368 -32h-352q-10 0 -14 9t2 17l330 390h-318q-15 1 -16 16q1 15 16 16h352q10 0 15 -9q3 -9 -3 -17l-329 -390h317q15 -1 16 -16q-1 -15 -16 -16v0z" />
    <glyph glyph-name="z" unicode="Z" horiz-adv-x="384" 
d="M368 -32h-352q-10 0 -14 9t2 17l330 390h-318q-15 1 -16 16q1 15 16 16h352q10 0 15 -9q3 -9 -3 -17l-329 -390h317q15 -1 16 -16q-1 -15 -16 -16v0z" />
    <glyph glyph-name="bracket-square" unicode="[" horiz-adv-x="192" 
d="M48 384h96q15 1 16 16q-1 15 -16 16h-96q-20 -1 -34 -14q-13 -14 -14 -34v-352q1 -20 14 -34q14 -13 34 -14h96q15 1 16 16q-1 15 -16 16h-96q-15 1 -16 16v352q1 15 16 16v0z" />
    <glyph glyph-name="slash-back" unicode="\" horiz-adv-x="320" 
d="M30 440q-9 12 -22 6q-12 -9 -6 -22l288 -480q5 -8 14 -8q4 0 8 2q12 9 6 22l-288 480v0z" />
    <glyph glyph-name="bracket-square-right" unicode="]" horiz-adv-x="192" 
d="M160 368v-352q-1 -15 -16 -16h-96q-15 -1 -16 -16q1 -15 16 -16h96q20 1 34 14q13 14 14 34v352q-1 20 -14 34q-14 13 -34 14h-96q-15 -1 -16 -16q1 -15 16 -16h96q15 -1 16 -16v0z" />
    <glyph glyph-name="accent-grave" unicode="`" horiz-adv-x="192" 
d="M40 357l68 -115q11 -18 32 -18q6 0 12 2q26 12 23 40l-22 132q-5 28 -30 42q-13 8 -28 8v0v0q-20 0 -36 -11q-16 -10 -22 -28q-11 -27 3 -52v0zM66 398q7 17 29 18q7 0 12 -3q12 -7 14 -20l23 -132q0 -3 -3 -5h-1q-3 0 -4 2l-68 116q-7 11 -2 24v0z" />
    <glyph glyph-name="bracket-curly" unicode="{" horiz-adv-x="256" 
d="M96 295v41q1 20 14 34q14 13 34 14h64q15 1 16 16q-1 15 -16 16h-64q-34 -1 -57 -23q-22 -23 -23 -57v-40q0 -29 -15 -53q-14 -24 -40 -37q-9 -4 -9 -14t9 -14q26 -13 40 -37q15 -24 15 -53v-40q1 -34 23 -57q23 -22 57 -23h64q15 1 16 16q-1 15 -16 16h-64q-20 1 -34 14
q-13 14 -14 34v40q-1 64 -50 104q49 40 50 103v0z" />
    <glyph glyph-name="pipe" unicode="|" horiz-adv-x="64" 
d="M48 432v-480q-1 -15 -16 -16q-15 1 -16 16v480q1 15 16 16q15 -1 16 -16v0z" />
    <glyph glyph-name="bracket-curly-right" unicode="}" horiz-adv-x="256" 
d="M210 192q-49 -40 -50 -104v-40q-1 -20 -14 -34q-14 -13 -34 -14h-64q-15 -1 -16 -16q1 -15 16 -16h64q34 1 57 23q22 23 23 57v40q0 29 15 53q14 24 40 37q9 4 9 14t-9 14q-26 13 -40 37q-15 24 -15 52v41q-1 34 -23 57q-23 22 -57 23h-64q-15 -1 -16 -16q1 -15 16 -16
h64q20 -1 34 -14q13 -14 14 -34v-40q1 -64 50 -104v0z" />
    <glyph glyph-name="tilde" unicode="&#xf69f;" horiz-adv-x="448" 
d="M448 272v-83q-1 -46 -32 -77q-30 -31 -76 -32q-28 0 -52 14q-25 13 -41 36l-75 109q-14 20 -36 28t-47 3q-26 -8 -41 -29q-16 -22 -16 -49v-80q-1 -15 -16 -16q-15 1 -16 16v83q1 46 32 77q30 31 76 32q28 0 53 -14q24 -13 40 -36l75 -109q14 -20 36 -28q21 -8 45 -3
q27 7 43 29q16 21 16 49v80q1 15 16 16q15 -1 16 -16v0z" />
    <glyph glyph-name="tilde" unicode="~" horiz-adv-x="448" 
d="M448 272v-83q-1 -46 -32 -77q-30 -31 -76 -32q-28 0 -52 14q-25 13 -41 36l-75 109q-14 20 -36 28t-47 3q-26 -8 -41 -29q-16 -22 -16 -49v-80q-1 -15 -16 -16q-15 1 -16 16v83q1 46 32 77q30 31 76 32q28 0 53 -14q24 -13 40 -36l75 -109q14 -20 36 -28q21 -8 45 -3
q27 7 43 29q16 21 16 49v80q1 15 16 16q15 -1 16 -16v0z" />
    <glyph glyph-name="cent-sign" unicode="&#xa2;" horiz-adv-x="320" 
d="M316 66q9 -13 -2 -23q-55 -43 -122 -43v0v0v-48q-2 -15 -15 -16q-14 1 -16 16v51q-58 10 -104 53q-56 57 -57 136q1 79 56 136q46 43 104 53v51q1 15 16 16q14 -1 15 -16v-48q67 0 122 -43q11 -10 2 -23q-10 -10 -22 -2q-50 39 -110 36q-59 -3 -105 -47q-45 -47 -46 -113
q1 -66 46 -113q46 -44 105 -47q60 -3 110 36q13 8 23 -2v0z" />
    <glyph glyph-name="sterling-sign" unicode="&#xf154;" horiz-adv-x="320" 
d="M320 -16q-1 -15 -16 -16h-288q-9 0 -14 8q-4 7 0 15q39 80 44 169h-30q-15 1 -16 16q1 15 16 16h32v96q1 54 38 90q36 37 90 38q36 0 67 -19l53 -31q12 -9 6 -22q-9 -12 -22 -6l-53 32q-23 14 -51 14q-41 -1 -68 -28t-28 -68v-96h160q15 -1 16 -16q-1 -15 -16 -16h-161
q-5 -83 -38 -160h263q15 -1 16 -16v0z" />
    <glyph glyph-name="sterling-sign" unicode="&#xa3;" horiz-adv-x="320" 
d="M320 -16q-1 -15 -16 -16h-288q-9 0 -14 8q-4 7 0 15q39 80 44 169h-30q-15 1 -16 16q1 15 16 16h32v96q1 54 38 90q36 37 90 38q36 0 67 -19l53 -31q12 -9 6 -22q-9 -12 -22 -6l-53 32q-23 14 -51 14q-41 -1 -68 -28t-28 -68v-96h160q15 -1 16 -16q-1 -15 -16 -16h-161
q-5 -83 -38 -160h263q15 -1 16 -16v0z" />
    <glyph glyph-name="yen-sign" unicode="&#xf157;" horiz-adv-x="320" 
d="M320 112q-1 -15 -16 -16h-128v-112q-1 -15 -16 -16q-15 1 -16 16v112h-128q-15 1 -16 16q1 15 16 16h128v64h-128q-15 1 -16 16q1 15 16 16h114l-111 167q-7 13 4 22q13 7 22 -4l116 -173l130 174q10 10 23 3q10 -10 3 -23l-126 -166h113q15 -1 16 -16q-1 -15 -16 -16
h-128v-64h128q15 -1 16 -16v0z" />
    <glyph glyph-name="yen-sign" unicode="&#xa5;" horiz-adv-x="320" 
d="M320 112q-1 -15 -16 -16h-128v-112q-1 -15 -16 -16q-15 1 -16 16v112h-128q-15 1 -16 16q1 15 16 16h128v64h-128q-15 1 -16 16q1 15 16 16h114l-111 167q-7 13 4 22q13 7 22 -4l116 -173l130 174q10 10 23 3q10 -10 3 -23l-126 -166h113q15 -1 16 -16q-1 -15 -16 -16
h-128v-64h128q15 -1 16 -16v0z" />
    <glyph glyph-name="section" unicode="&#xa7;" horiz-adv-x="256" 
d="M204 105q42 20 50 62q6 40 -12 62q-18 23 -48 35q-31 13 -62 21l-14 4q-48 12 -69 29q-21 16 -16 47q9 35 45 45t75 3q21 -3 53 -14q14 -3 20 10q4 15 -10 21q-35 11 -58 15q-65 9 -107 -10q-42 -20 -50 -64q-6 -37 9 -59q16 -22 41 -33q-41 -20 -49 -62q-6 -39 11 -62
q18 -22 45 -34q27 -11 51 -17l15 -4q51 -13 78 -30q27 -16 21 -51q-9 -35 -45 -45t-76 -3q-35 6 -70 20l-11 3q-14 4 -20 -10q-4 -14 10 -20l11 -4q36 -14 75 -21q20 -3 39 -3q49 0 80 20t38 57q6 36 -9 58t-41 34v0zM33 212q10 40 67 48q3 -1 12 -3q9 -3 11 -3v0
q51 -13 78 -29q27 -17 21 -52q-9 -42 -67 -49q-8 2 -22 6q-15 4 -16 4q-46 13 -68 30q-21 16 -16 48v0z" />
    <glyph glyph-name="copyright" unicode="&#xf1f9;" 
d="M256 448q-72 -1 -129 -35v0q-58 -34 -92 -92v0q-34 -57 -35 -129q1 -72 35 -129q34 -58 92 -92q57 -34 129 -35q72 1 129 35q58 34 92 92q34 57 35 129q-1 72 -35 129q-34 58 -92 92q-57 34 -129 35v0zM256 -32q-62 1 -113 31v0q-50 30 -80 80v0q-30 51 -31 113
q1 62 31 113q30 50 80 80q51 30 113 31q62 -1 113 -31q50 -30 80 -80q30 -51 31 -113q-1 -62 -31 -113q-30 -50 -80 -80q-51 -30 -113 -31v0zM324 260q11 -9 23 0q9 11 0 23q-39 36 -91 36t-90 -36q-37 -38 -38 -91q1 -53 38 -91q37 -36 90 -37q53 1 91 37q9 12 0 23
q-12 9 -23 0q-29 -27 -68 -27t-68 27q-28 28 -28 68t28 68q29 27 68 27t68 -27v0z" />
    <glyph glyph-name="copyright" unicode="&#xa9;" 
d="M256 448q-72 -1 -129 -35v0q-58 -34 -92 -92v0q-34 -57 -35 -129q1 -72 35 -129q34 -58 92 -92q57 -34 129 -35q72 1 129 35q58 34 92 92q34 57 35 129q-1 72 -35 129q-34 58 -92 92q-57 34 -129 35v0zM256 -32q-62 1 -113 31v0q-50 30 -80 80v0q-30 51 -31 113
q1 62 31 113q30 50 80 80q51 30 113 31q62 -1 113 -31q50 -30 80 -80q30 -51 31 -113q-1 -62 -31 -113q-30 -50 -80 -80q-51 -30 -113 -31v0zM324 260q11 -9 23 0q9 11 0 23q-39 36 -91 36t-90 -36q-37 -38 -38 -91q1 -53 38 -91q37 -36 90 -37q53 1 91 37q9 12 0 23
q-12 9 -23 0q-29 -27 -68 -27t-68 27q-28 28 -28 68t28 68q29 27 68 27t68 -27v0z" />
    <glyph glyph-name="angles-left" unicode="&#xf100;" horiz-adv-x="448" 
d="M203 364q-12 9 -23 -1l-144 -160q-8 -11 0 -22l144 -159q11 -10 23 -1q10 11 1 23l-134 148l134 149q9 12 -1 23v0zM262 192l134 149q9 12 -1 23q-12 9 -23 -1l-144 -159q-8 -11 0 -22l144 -159q11 -10 23 -1q10 11 1 23l-134 147v0z" />
    <glyph glyph-name="angles-left" unicode="&#xab;" horiz-adv-x="448" 
d="M203 364q-12 9 -23 -1l-144 -160q-8 -11 0 -22l144 -159q11 -10 23 -1q10 11 1 23l-134 148l134 149q9 12 -1 23v0zM262 192l134 149q9 12 -1 23q-12 9 -23 -1l-144 -159q-8 -11 0 -22l144 -159q11 -10 23 -1q10 11 1 23l-134 147v0z" />
    <glyph glyph-name="corner" unicode="&#xac;" horiz-adv-x="448" 
d="M432 64q-15 1 -16 16v176h-400q-15 1 -16 16q1 15 16 16h416q15 -1 16 -16v-192q-1 -15 -16 -16v0z" />
    <glyph glyph-name="registered" unicode="&#xf25d;" 
d="M256 448q-72 -1 -129 -35v0q-58 -34 -92 -92v0q-34 -57 -35 -129q1 -72 35 -129q34 -58 92 -92q57 -34 129 -35q72 1 129 35q58 34 92 92q34 57 35 129q-1 72 -35 129q-34 58 -92 92q-57 34 -129 35v0zM256 -32q-62 1 -113 31v0q-50 30 -80 80v0q-30 51 -31 113
q1 62 31 113q30 50 80 80q51 30 113 31q62 -1 113 -31q50 -30 80 -80q30 -51 31 -113q-1 -62 -31 -113q-30 -50 -80 -80q-51 -30 -113 -31v0zM368 232q-1 37 -26 62v0q-25 25 -62 26h-72q-20 -1 -34 -14q-13 -14 -14 -34v-192q1 -15 16 -16q15 1 16 16v64h87l43 -72
q5 -8 14 -8q4 0 8 2q12 9 6 22l-38 62q25 10 40 32q16 22 16 50v0zM280 176h-88v96q1 15 16 16h72q24 -1 40 -16q15 -16 16 -40q-1 -24 -16 -40q-16 -15 -40 -16v0z" />
    <glyph glyph-name="registered" unicode="&#xae;" 
d="M256 448q-72 -1 -129 -35v0q-58 -34 -92 -92v0q-34 -57 -35 -129q1 -72 35 -129q34 -58 92 -92q57 -34 129 -35q72 1 129 35q58 34 92 92q34 57 35 129q-1 72 -35 129q-34 58 -92 92q-57 34 -129 35v0zM256 -32q-62 1 -113 31v0q-50 30 -80 80v0q-30 51 -31 113
q1 62 31 113q30 50 80 80q51 30 113 31q62 -1 113 -31q50 -30 80 -80q30 -51 31 -113q-1 -62 -31 -113q-30 -50 -80 -80q-51 -30 -113 -31v0zM368 232q-1 37 -26 62v0q-25 25 -62 26h-72q-20 -1 -34 -14q-13 -14 -14 -34v-192q1 -15 16 -16q15 1 16 16v64h87l43 -72
q5 -8 14 -8q4 0 8 2q12 9 6 22l-38 62q25 10 40 32q16 22 16 50v0zM280 176h-88v96q1 15 16 16h72q24 -1 40 -16q15 -16 16 -40q-1 -24 -16 -40q-16 -15 -40 -16v0z" />
    <glyph glyph-name="plus-minus" unicode="&#xb1;" horiz-adv-x="384" 
d="M16 240h160v-160q1 -15 16 -16q15 1 16 16v160h160q15 1 16 16q-1 15 -16 16h-160v160q-1 15 -16 16q-15 -1 -16 -16v-160h-160q-15 -1 -16 -16q1 -15 16 -16v0zM368 -32h-352q-15 -1 -16 -16q1 -15 16 -16h352q15 1 16 16q-1 15 -16 16v0z" />
    <glyph glyph-name="paragraph" unicode="&#xf1dd;" horiz-adv-x="448" 
d="M432 416h-241q-68 -1 -116 -51q-46 -51 -43 -120q6 -65 53 -106q47 -42 113 -43h58v-112q1 -15 16 -16q15 1 16 16v400h64v-400q1 -15 16 -16q15 1 16 16v400h48q15 1 16 16q-1 15 -16 16v0zM255 128h-64q-54 1 -90 37q-37 37 -38 91q1 54 38 91q36 36 90 37h64v-256v0z
" />
    <glyph glyph-name="paragraph" unicode="&#xb6;" horiz-adv-x="448" 
d="M432 416h-241q-68 -1 -116 -51q-46 -51 -43 -120q6 -65 53 -106q47 -42 113 -43h58v-112q1 -15 16 -16q15 1 16 16v400h64v-400q1 -15 16 -16q15 1 16 16v400h48q15 1 16 16q-1 15 -16 16v0zM255 128h-64q-54 1 -90 37q-37 37 -38 91q1 54 38 91q36 36 90 37h64v-256v0z
" />
    <glyph glyph-name="angles-right" unicode="&#xf101;" horiz-adv-x="448" 
d="M76 363q-11 10 -23 1q-10 -11 -1 -23l135 -149l-135 -149q-9 -12 1 -23q12 -9 23 1l144 159q8 11 0 22l-144 161v0zM412 203l-144 160q-11 10 -23 1q-10 -11 -1 -23l135 -149l-135 -149q-9 -12 1 -23q12 -9 23 1l144 159q8 12 0 23v0z" />
    <glyph glyph-name="angles-right" unicode="&#xbb;" horiz-adv-x="448" 
d="M76 363q-11 10 -23 1q-10 -11 -1 -23l135 -149l-135 -149q-9 -12 1 -23q12 -9 23 1l144 159q8 11 0 22l-144 161v0zM412 203l-144 160q-11 10 -23 1q-10 -11 -1 -23l135 -149l-135 -149q-9 -12 1 -23q12 -9 23 1l144 159q8 12 0 23v0z" />
    <glyph glyph-name="xmark" unicode="&#x1f5d9;" horiz-adv-x="320" 
d="M315 37q-11 -10 -22 0l-133 132l-133 -132q-11 -10 -22 0q-10 11 0 22l132 133l-132 133q-10 11 0 22q11 10 22 0l133 -132l133 132q11 10 22 0q10 -11 0 -22l-132 -133l132 -133q10 -11 0 -22v0z" />
    <glyph glyph-name="xmark" unicode="&#xf00d;" horiz-adv-x="320" 
d="M315 37q-11 -10 -22 0l-133 132l-133 -132q-11 -10 -22 0q-10 11 0 22l132 133l-132 133q-10 11 0 22q11 10 22 0l133 -132l133 132q11 10 22 0q10 -11 0 -22l-132 -133l132 -133q10 -11 0 -22v0z" />
    <glyph glyph-name="xmark" unicode="&#x274c;" horiz-adv-x="320" 
d="M315 37q-11 -10 -22 0l-133 132l-133 -132q-11 -10 -22 0q-10 11 0 22l132 133l-132 133q-10 11 0 22q11 10 22 0l133 -132l133 132q11 10 22 0q10 -11 0 -22l-132 -133l132 -133q10 -11 0 -22v0z" />
    <glyph glyph-name="xmark" unicode="&#x2716;" horiz-adv-x="320" 
d="M315 37q-11 -10 -22 0l-133 132l-133 -132q-11 -10 -22 0q-10 11 0 22l132 133l-132 133q-10 11 0 22q11 10 22 0l133 -132l133 132q11 10 22 0q10 -11 0 -22l-132 -133l132 -133q10 -11 0 -22v0z" />
    <glyph glyph-name="xmark" unicode="&#x2715;" horiz-adv-x="320" 
d="M315 37q-11 -10 -22 0l-133 132l-133 -132q-11 -10 -22 0q-10 11 0 22l132 133l-132 133q-10 11 0 22q11 10 22 0l133 -132l133 132q11 10 22 0q10 -11 0 -22l-132 -133l132 -133q10 -11 0 -22v0z" />
    <glyph glyph-name="xmark" unicode="&#xd7;" horiz-adv-x="320" 
d="M315 37q-11 -10 -22 0l-133 132l-133 -132q-11 -10 -22 0q-10 11 0 22l132 133l-132 133q-10 11 0 22q11 10 22 0l133 -132l133 132q11 10 22 0q10 -11 0 -22l-132 -133l132 -133q10 -11 0 -22v0z" />
    <glyph glyph-name="empty-set" unicode="&#xf656;" 
d="M491 427q-11 10 -22 0l-78 -77q-56 48 -135 50q-88 -2 -147 -61t-61 -147q2 -79 50 -135l-77 -78q-10 -11 0 -22q5 -5 11 -5t11 5l78 77q56 -48 135 -50q88 2 147 61t61 147q-2 79 -50 135l77 78q10 11 0 22v0zM80 192q2 75 52 124v0q49 50 124 52q65 -1 113 -41
l-248 -248q-40 48 -41 113v0zM432 192q-2 -75 -52 -124v0q-49 -50 -124 -52q-65 1 -112 41l247 248q40 -47 41 -113v0z" />
    <glyph glyph-name="empty-set" unicode="&#x2205;" 
d="M491 427q-11 10 -22 0l-78 -77q-56 48 -135 50q-88 -2 -147 -61t-61 -147q2 -79 50 -135l-77 -78q-10 -11 0 -22q5 -5 11 -5t11 5l78 77q56 -48 135 -50q88 2 147 61t61 147q-2 79 -50 135l77 78q10 11 0 22v0zM80 192q2 75 52 124v0q49 50 124 52q65 -1 113 -41
l-248 -248q-40 48 -41 113v0zM432 192q-2 -75 -52 -124v0q-49 -50 -124 -52q-65 1 -112 41l247 248q40 -47 41 -113v0z" />
    <glyph glyph-name="empty-set" unicode="&#xd8;" 
d="M491 427q-11 10 -22 0l-78 -77q-56 48 -135 50q-88 -2 -147 -61t-61 -147q2 -79 50 -135l-77 -78q-10 -11 0 -22q5 -5 11 -5t11 5l78 77q56 -48 135 -50q88 2 147 61t61 147q-2 79 -50 135l77 78q10 11 0 22v0zM80 192q2 75 52 124v0q49 50 124 52q65 -1 113 -41
l-248 -248q-40 48 -41 113v0zM432 192q-2 -75 -52 -124v0q-49 -50 -124 -52q-65 1 -112 41l247 248q40 -47 41 -113v0z" />
    <glyph glyph-name="divide" unicode="&#xf529;" horiz-adv-x="448" 
d="M432 208h-416q-15 -1 -16 -16q1 -15 16 -16h416q15 1 16 16q-1 15 -16 16v0zM224 256q27 1 45 19v0q18 18 19 45q-1 27 -19 45t-45 19q-27 -1 -45 -19t-19 -45q1 -27 19 -45t45 -19v0zM224 352q14 0 23 -9v0q9 -9 9 -23t-9 -23t-23 -9t-23 9t-9 23t9 23t23 9v0zM224 128
q-27 -1 -45 -19v0q-18 -18 -19 -45q1 -27 19 -45t45 -19q27 1 45 19t19 45q-1 27 -19 45t-45 19v0zM224 32q-14 0 -23 9v0q-9 9 -9 23t9 23t23 9t23 -9t9 -23t-9 -23t-23 -9v0z" />
    <glyph glyph-name="divide" unicode="&#x2797;" horiz-adv-x="448" 
d="M432 208h-416q-15 -1 -16 -16q1 -15 16 -16h416q15 1 16 16q-1 15 -16 16v0zM224 256q27 1 45 19v0q18 18 19 45q-1 27 -19 45t-45 19q-27 -1 -45 -19t-19 -45q1 -27 19 -45t45 -19v0zM224 352q14 0 23 -9v0q9 -9 9 -23t-9 -23t-23 -9t-23 9t-9 23t9 23t23 9v0zM224 128
q-27 -1 -45 -19v0q-18 -18 -19 -45q1 -27 19 -45t45 -19q27 1 45 19t19 45q-1 27 -19 45t-45 19v0zM224 32q-14 0 -23 9v0q-9 9 -9 23t9 23t23 9t23 -9t9 -23t-9 -23t-23 -9v0z" />
    <glyph glyph-name="divide" unicode="&#xf7;" horiz-adv-x="448" 
d="M432 208h-416q-15 -1 -16 -16q1 -15 16 -16h416q15 1 16 16q-1 15 -16 16v0zM224 256q27 1 45 19v0q18 18 19 45q-1 27 -19 45t-45 19q-27 -1 -45 -19t-19 -45q1 -27 19 -45t45 -19v0zM224 352q14 0 23 -9v0q9 -9 9 -23t-9 -23t-23 -9t-23 9t-9 23t9 23t23 9v0zM224 128
q-27 -1 -45 -19v0q-18 -18 -19 -45q1 -27 19 -45t45 -19q27 1 45 19t19 45q-1 27 -19 45t-45 19v0zM224 32q-14 0 -23 9v0q-9 9 -9 23t9 23t23 9t23 -9t9 -23t-9 -23t-23 -9v0z" />
    <glyph glyph-name="minus" unicode="&#xf068;" horiz-adv-x="448" 
d="M432 192q-1 -15 -16 -16h-384q-15 1 -16 16q1 15 16 16h384q15 -1 16 -16v0z" />
    <glyph glyph-name="minus" unicode="&#x2796;" horiz-adv-x="448" 
d="M432 192q-1 -15 -16 -16h-384q-15 1 -16 16q1 15 16 16h384q15 -1 16 -16v0z" />
    <glyph glyph-name="minus" unicode="&#x2212;" horiz-adv-x="448" 
d="M432 192q-1 -15 -16 -16h-384q-15 1 -16 16q1 15 16 16h384q15 -1 16 -16v0z" />
    <glyph glyph-name="minus" unicode="&#x2013;" horiz-adv-x="448" 
d="M432 192q-1 -15 -16 -16h-384q-15 1 -16 16q1 15 16 16h384q15 -1 16 -16v0z" />
    <glyph glyph-name="dash" unicode="&#x2014;" 
d="M512 192q-1 -15 -16 -16h-480q-15 1 -16 16q1 15 16 16h480q15 -1 16 -16v0z" />
    <glyph glyph-name="horizontal-rule" unicode="&#xf86c;" horiz-adv-x="640" 
d="M624 176h-608q-15 1 -16 16q1 15 16 16h608q15 -1 16 -16q-1 -15 -16 -16v0z" />
    <glyph glyph-name="horizontal-rule" unicode="&#x2015;" horiz-adv-x="640" 
d="M624 176h-608q-15 1 -16 16q1 15 16 16h608q15 -1 16 -16q-1 -15 -16 -16v0z" />
    <glyph glyph-name="quote-left" unicode="&#xf10d;" horiz-adv-x="448" 
d="M96 223q-38 -1 -64 -25v25q1 41 28 68t68 28h16q15 2 16 16q-1 15 -16 16h-16q-54 -1 -90 -37q-37 -36 -38 -91v-96v0v0q1 -40 28 -68q27 -27 68 -28q41 1 68 28q27 28 28 68q-1 41 -28 68t-68 28v0zM96 63q-27 1 -45 19v0q-18 18 -19 45q1 27 19 46q18 18 45 18t45 -18
q18 -19 19 -46q-1 -26 -19 -45q-18 -18 -45 -19v0zM352 223q-38 -1 -64 -25v25q1 41 28 68t68 28h16q15 2 16 16q-1 15 -16 16h-16q-54 -1 -90 -37q-37 -36 -38 -91v-96v0v0q1 -40 28 -68q27 -27 68 -28q41 1 68 28q27 28 28 68q-1 41 -28 68t-68 28v0zM352 63q-27 1 -45 19
v0q-18 18 -19 45q1 27 19 46q18 18 45 18t45 -18q18 -19 19 -46q-1 -26 -19 -45q-18 -18 -45 -19v0z" />
    <glyph glyph-name="quote-left" unicode="&#x201c;" horiz-adv-x="448" 
d="M96 223q-38 -1 -64 -25v25q1 41 28 68t68 28h16q15 2 16 16q-1 15 -16 16h-16q-54 -1 -90 -37q-37 -36 -38 -91v-96v0v0q1 -40 28 -68q27 -27 68 -28q41 1 68 28q27 28 28 68q-1 41 -28 68t-68 28v0zM96 63q-27 1 -45 19v0q-18 18 -19 45q1 27 19 46q18 18 45 18t45 -18
q18 -19 19 -46q-1 -26 -19 -45q-18 -18 -45 -19v0zM352 223q-38 -1 -64 -25v25q1 41 28 68t68 28h16q15 2 16 16q-1 15 -16 16h-16q-54 -1 -90 -37q-37 -36 -38 -91v-96v0v0q1 -40 28 -68q27 -27 68 -28q41 1 68 28q27 28 28 68q-1 41 -28 68t-68 28v0zM352 63q-27 1 -45 19
v0q-18 18 -19 45q1 27 19 46q18 18 45 18t45 -18q18 -19 19 -46q-1 -26 -19 -45q-18 -18 -45 -19v0z" />
    <glyph glyph-name="quote-right" unicode="&#xf10e;" horiz-adv-x="448" 
d="M352 352q-41 -1 -68 -28v0q-27 -27 -28 -68q1 -41 28 -68t68 -28q38 1 64 25v-25q-1 -41 -28 -68t-68 -28h-16q-15 -1 -16 -16q1 -15 16 -16h16q54 1 90 38q37 36 38 90v96q-1 41 -28 68t-68 28v0zM352 192q-27 1 -45 19v0q-18 18 -19 45q1 27 19 45t45 19q27 -1 45 -19
t19 -45q-1 -27 -19 -45t-45 -19v0zM96 352q-41 -1 -68 -28v0q-27 -27 -28 -68q1 -41 28 -68t68 -28q38 1 64 25v-25q-1 -41 -28 -68t-68 -28h-16q-15 -1 -16 -16q1 -15 16 -16h16q54 1 90 38q37 36 38 90v96q-1 41 -28 68t-68 28v0zM96 192q-27 1 -45 19v0q-18 18 -19 45
q1 27 19 45t45 19q27 -1 45 -19t19 -45q-1 -27 -19 -45t-45 -19v0z" />
    <glyph glyph-name="quote-right" unicode="&#x201d;" horiz-adv-x="448" 
d="M352 352q-41 -1 -68 -28v0q-27 -27 -28 -68q1 -41 28 -68t68 -28q38 1 64 25v-25q-1 -41 -28 -68t-68 -28h-16q-15 -1 -16 -16q1 -15 16 -16h16q54 1 90 38q37 36 38 90v96q-1 41 -28 68t-68 28v0zM352 192q-27 1 -45 19v0q-18 18 -19 45q1 27 19 45t45 19q27 -1 45 -19
t19 -45q-1 -27 -19 -45t-45 -19v0zM96 352q-41 -1 -68 -28v0q-27 -27 -28 -68q1 -41 28 -68t68 -28q38 1 64 25v-25q-1 -41 -28 -68t-68 -28h-16q-15 -1 -16 -16q1 -15 16 -16h16q54 1 90 38q37 36 38 90v96q-1 41 -28 68t-68 28v0zM96 192q-27 1 -45 19v0q-18 18 -19 45
q1 27 19 45t45 19q27 -1 45 -19t19 -45q-1 -27 -19 -45t-45 -19v0z" />
    <glyph glyph-name="angle-left" unicode="&#xf104;" horiz-adv-x="256" 
d="M204 43q9 -12 -1 -23q-12 -9 -23 1l-144 160q-8 11 0 22l144 159q11 10 23 1q10 -11 1 -23l-134 -148l134 -149v0z" />
    <glyph glyph-name="angle-left" unicode="&#x2039;" horiz-adv-x="256" 
d="M204 43q9 -12 -1 -23q-12 -9 -23 1l-144 160q-8 11 0 22l144 159q11 10 23 1q10 -11 1 -23l-134 -148l134 -149v0z" />
    <glyph glyph-name="angle-right" unicode="&#xf105;" horiz-adv-x="256" 
d="M220 181l-144 -160q-11 -10 -23 -1q-10 11 -1 23l135 149l-135 149q-9 12 1 23q12 9 23 -1l144 -159q8 -12 0 -23v0z" />
    <glyph glyph-name="angle-right" unicode="&#x203a;" horiz-adv-x="256" 
d="M220 181l-144 -160q-11 -10 -23 -1q-10 11 -1 23l135 149l-135 149q-9 12 1 23q12 9 23 -1l144 -159q8 -12 0 -23v0z" />
    <glyph glyph-name="lira-sign" unicode="&#xf195;" horiz-adv-x="320" 
d="M320 -16q-1 -15 -16 -16h-288q-9 0 -14 8q-4 7 0 15q24 50 36 105h-22q-15 1 -16 16q1 15 16 16h28q4 30 4 59v5h-32q-15 1 -16 16q1 15 16 16h32v64q1 54 38 90q36 37 90 38q36 0 67 -19l53 -31q12 -9 6 -22q-9 -12 -22 -6l-53 32q-23 14 -51 14q-41 -1 -68 -28t-28 -68
v-64h160q15 -1 16 -16q-1 -15 -16 -16h-160v-5q0 -29 -4 -59h164q15 -1 16 -16q-1 -15 -16 -16h-169q-10 -50 -30 -96h263q15 -1 16 -16v0z" />
    <glyph glyph-name="lira-sign" unicode="&#x20a4;" horiz-adv-x="320" 
d="M320 -16q-1 -15 -16 -16h-288q-9 0 -14 8q-4 7 0 15q24 50 36 105h-22q-15 1 -16 16q1 15 16 16h28q4 30 4 59v5h-32q-15 1 -16 16q1 15 16 16h32v64q1 54 38 90q36 37 90 38q36 0 67 -19l53 -31q12 -9 6 -22q-9 -12 -22 -6l-53 32q-23 14 -51 14q-41 -1 -68 -28t-28 -68
v-64h160q15 -1 16 -16q-1 -15 -16 -16h-160v-5q0 -29 -4 -59h164q15 -1 16 -16q-1 -15 -16 -16h-169q-10 -50 -30 -96h263q15 -1 16 -16v0z" />
    <glyph glyph-name="rupee-sign" unicode="&#xf156;" 
d="M144 416h-64q-20 0 -34 -14t-14 -34v-90v-140v-103v-51q2 -15 16 -16q15 2 16 16v52v89v3h80h3q1 0 2 1l60 -151q5 -10 15 -10q3 0 6 1q13 7 9 21l-58 144q47 13 77 50q29 37 30 88q-2 61 -42 102q-41 40 -102 42v0zM144 160h-80v116v92q0 7 5 11q4 5 11 5h64
q48 -1 79 -33q32 -32 33 -79q-1 -47 -33 -79q-31 -32 -79 -33v0zM397 127l-9 3q-30 10 -42 22q-13 12 -9 35q2 18 15 27q20 14 55 8q18 -3 33 -10q14 -5 21 8q4 14 -9 21q-16 7 -39 13q-48 8 -79 -14q-24 -16 -29 -48q-4 -45 20 -64q25 -20 49 -27q2 0 3 -1l10 -3
q32 -10 48 -22t12 -38q-2 -18 -15 -27q-21 -14 -56 -8q-20 5 -42 15h-1l-7 3q-14 4 -21 -8q-4 -14 9 -21l7 -3v0q24 -11 50 -17q13 -3 25 -3q32 0 54 16q24 16 29 48q5 47 -23 67t-59 28v0z" />
    <glyph glyph-name="rupee-sign" unicode="&#x20a8;" 
d="M144 416h-64q-20 0 -34 -14t-14 -34v-90v-140v-103v-51q2 -15 16 -16q15 2 16 16v52v89v3h80h3q1 0 2 1l60 -151q5 -10 15 -10q3 0 6 1q13 7 9 21l-58 144q47 13 77 50q29 37 30 88q-2 61 -42 102q-41 40 -102 42v0zM144 160h-80v116v92q0 7 5 11q4 5 11 5h64
q48 -1 79 -33q32 -32 33 -79q-1 -47 -33 -79q-31 -32 -79 -33v0zM397 127l-9 3q-30 10 -42 22q-13 12 -9 35q2 18 15 27q20 14 55 8q18 -3 33 -10q14 -5 21 8q4 14 -9 21q-16 7 -39 13q-48 8 -79 -14q-24 -16 -29 -48q-4 -45 20 -64q25 -20 49 -27q2 0 3 -1l10 -3
q32 -10 48 -22t12 -38q-2 -18 -15 -27q-21 -14 -56 -8q-20 5 -42 15h-1l-7 3q-14 4 -21 -8q-4 -14 9 -21l7 -3v0q24 -11 50 -17q13 -3 25 -3q32 0 54 16q24 16 29 48q5 47 -23 67t-59 28v0z" />
    <glyph glyph-name="won-sign" unicode="&#xf159;" 
d="M496 176h-52l67 219q3 15 -10 19q-15 3 -20 -10l-71 -229h-77l-61 228q-5 10 -16 10t-15 -10l-62 -227h-78l-70 229q-5 13 -20 10q-13 -5 -10 -20l67 -219h-52q-15 -2 -16 -15q1 -14 16 -16h62l51 -165q4 -12 16 -12q11 1 15 12l44 164h104l44 -164q3 -11 15 -12
q12 1 16 11l51 165h62q15 1 16 16q-1 15 -16 16v0zM144 42l-32 102h59l-27 -102v0zM213 176l43 162l43 -162h-86v0zM369 42l-28 102h59l-31 -102v0z" />
    <glyph glyph-name="won-sign" unicode="&#x20a9;" 
d="M496 176h-52l67 219q3 15 -10 19q-15 3 -20 -10l-71 -229h-77l-61 228q-5 10 -16 10t-15 -10l-62 -227h-78l-70 229q-5 13 -20 10q-13 -5 -10 -20l67 -219h-52q-15 -2 -16 -15q1 -14 16 -16h62l51 -165q4 -12 16 -12q11 1 15 12l44 164h104l44 -164q3 -11 15 -12
q12 1 16 11l51 165h62q15 1 16 16q-1 15 -16 16v0zM144 42l-32 102h59l-27 -102v0zM213 176l43 162l43 -162h-86v0zM369 42l-28 102h59l-31 -102v0z" />
    <glyph glyph-name="shekel-sign" unicode="&#xf20b;" horiz-adv-x="448" 
d="M272 304v-192q1 -15 16 -16q15 1 16 16v192q-1 48 -33 79q-31 32 -79 33h-112q-20 -1 -34 -14q-13 -14 -14 -34v-384q1 -15 16 -16q15 1 16 16v384q1 15 16 16h112q34 -1 57 -23q22 -23 23 -57v0zM400 416q-15 -1 -16 -16v-320q-1 -34 -23 -57q-23 -22 -57 -23h-112
q-15 1 -16 16v256q-1 15 -16 16q-15 -1 -16 -16v-256q1 -20 14 -34q14 -13 34 -14h112q48 1 79 33q32 31 33 79v320q-1 15 -16 16v0z" />
    <glyph glyph-name="shekel-sign" unicode="&#x20aa;" horiz-adv-x="448" 
d="M272 304v-192q1 -15 16 -16q15 1 16 16v192q-1 48 -33 79q-31 32 -79 33h-112q-20 -1 -34 -14q-13 -14 -14 -34v-384q1 -15 16 -16q15 1 16 16v384q1 15 16 16h112q34 -1 57 -23q22 -23 23 -57v0zM400 416q-15 -1 -16 -16v-320q-1 -34 -23 -57q-23 -22 -57 -23h-112
q-15 1 -16 16v256q-1 15 -16 16q-15 -1 -16 -16v-256q1 -20 14 -34q14 -13 34 -14h112q48 1 79 33q32 31 33 79v320q-1 15 -16 16v0z" />
    <glyph glyph-name="euro-sign" unicode="&#xf153;" horiz-adv-x="384" 
d="M336 -8q1 -14 -13 -19q-25 -5 -49 -5q-92 1 -160 66q-40 40 -57 94l-25 1q-15 1 -16 16q1 15 16 16h19q-1 1 -1 3q-2 13 -3 28q0 16 3 32h-18q-15 1 -16 16q1 15 16 16h25q17 54 57 94q42 41 97 57t112 4q14 -5 13 -19q-5 -14 -19 -13q-50 11 -97 -3q-47 -13 -83 -48
q-31 -32 -46 -72h181q14 -1 15 -16q-1 -15 -15 -16h-189q-3 -16 -3 -32t3 -32h189q14 -1 15 -16q-2 -15 -15 -16h-181q15 -40 46 -72q36 -35 83 -48q47 -14 97 -3q14 2 19 -13v0z" />
    <glyph glyph-name="euro-sign" unicode="&#x20ac;" horiz-adv-x="384" 
d="M336 -8q1 -14 -13 -19q-25 -5 -49 -5q-92 1 -160 66q-40 40 -57 94l-25 1q-15 1 -16 16q1 15 16 16h19q-1 1 -1 3q-2 13 -3 28q0 16 3 32h-18q-15 1 -16 16q1 15 16 16h25q17 54 57 94q42 41 97 57t112 4q14 -5 13 -19q-5 -14 -19 -13q-50 11 -97 -3q-47 -13 -83 -48
q-31 -32 -46 -72h181q14 -1 15 -16q-1 -15 -15 -16h-189q-3 -16 -3 -32t3 -32h189q14 -1 15 -16q-2 -15 -15 -16h-181q15 -40 46 -72q36 -35 83 -48q47 -14 97 -3q14 2 19 -13v0z" />
    <glyph glyph-name="hryvnia-sign" unicode="&#xf6f2;" horiz-adv-x="384" 
d="M384 144q-1 -15 -16 -16h-255q-32 -22 -33 -56q1 -31 23 -51t56 -21h46q49 1 85 32q11 9 22 -1q9 -12 -1 -23q-44 -39 -106 -40h-46q-47 1 -79 30q-31 30 -32 74q0 30 19 56h-51q-15 1 -16 16q1 15 16 16h87l113 64h-200q-15 1 -16 16q1 15 16 16h255q32 21 33 57
q-1 30 -23 50t-56 21h-46q-49 -1 -84 -32q-12 -9 -23 1q-9 12 1 23q44 39 106 40h46q47 -1 79 -30q31 -29 32 -73q0 -31 -19 -57h51q15 -1 16 -16q-1 -15 -16 -16h-87l-113 -64h200q15 -1 16 -16v0z" />
    <glyph glyph-name="hryvnia-sign" unicode="&#x20b4;" horiz-adv-x="384" 
d="M384 144q-1 -15 -16 -16h-255q-32 -22 -33 -56q1 -31 23 -51t56 -21h46q49 1 85 32q11 9 22 -1q9 -12 -1 -23q-44 -39 -106 -40h-46q-47 1 -79 30q-31 30 -32 74q0 30 19 56h-51q-15 1 -16 16q1 15 16 16h87l113 64h-200q-15 1 -16 16q1 15 16 16h255q32 21 33 57
q-1 30 -23 50t-56 21h-46q-49 -1 -84 -32q-12 -9 -23 1q-9 12 1 23q44 39 106 40h46q47 -1 79 -30q31 -29 32 -73q0 -31 -19 -57h51q15 -1 16 -16q-1 -15 -16 -16h-87l-113 -64h200q15 -1 16 -16v0z" />
    <glyph glyph-name="tenge-sign" unicode="&#xf7d7;" horiz-adv-x="384" 
d="M16 384h352q15 1 16 16q-1 15 -16 16h-352q-15 -1 -16 -16q1 -15 16 -16v0zM368 288h-352q-15 -1 -16 -16q1 -15 16 -16h160v-272q1 -15 16 -16q15 1 16 16v272h160q15 1 16 16q-1 15 -16 16v0z" />
    <glyph glyph-name="tenge-sign" unicode="&#x20b8;" horiz-adv-x="384" 
d="M16 384h352q15 1 16 16q-1 15 -16 16h-352q-15 -1 -16 -16q1 -15 16 -16v0zM368 288h-352q-15 -1 -16 -16q1 -15 16 -16h160v-272q1 -15 16 -16q15 1 16 16v272h160q15 1 16 16q-1 15 -16 16v0z" />
    <glyph glyph-name="ruble-sign" unicode="&#xf158;" horiz-adv-x="384" 
d="M240 128q61 2 102 42v0q40 41 42 102q-2 61 -42 102q-41 40 -102 42h-128q-20 -1 -34 -14q-13 -14 -14 -34v-208h-48q-15 -1 -16 -16q1 -15 16 -16h48v-64h-48q-15 -1 -16 -16q1 -15 16 -16h48v-48q1 -15 16 -16q15 1 16 16v48h208q15 1 16 16q-1 15 -16 16h-208v64h144
v0zM96 368q1 15 16 16h128q48 -1 79 -33q32 -32 33 -79q-1 -47 -33 -79q-31 -32 -79 -33h-144v208v0z" />
    <glyph glyph-name="ruble-sign" unicode="&#x20bd;" horiz-adv-x="384" 
d="M240 128q61 2 102 42v0q40 41 42 102q-2 61 -42 102q-41 40 -102 42h-128q-20 -1 -34 -14q-13 -14 -14 -34v-208h-48q-15 -1 -16 -16q1 -15 16 -16h48v-64h-48q-15 -1 -16 -16q1 -15 16 -16h48v-48q1 -15 16 -16q15 1 16 16v48h208q15 1 16 16q-1 15 -16 16h-208v64h144
v0zM96 368q1 15 16 16h128q48 -1 79 -33q32 -32 33 -79q-1 -47 -33 -79q-31 -32 -79 -33h-144v208v0z" />
    <glyph glyph-name="trademark" unicode="&#xf25c;" horiz-adv-x="640" 
d="M240 352h-224q-15 -2 -16 -15q1 -16 16 -17h96v-271q1 -15 16 -16q15 1 16 16v271h96q15 2 16 15q-1 16 -16 17v0zM629 351q-10 3 -17 -5l-148 -177l-148 177q-8 8 -17 5q-10 -4 -11 -15v-287q1 -16 16 -17q15 2 16 15v245l132 -158q12 -11 24 0l132 158v-244
q1 -15 16 -16q15 2 16 15v289q-1 11 -11 15v0z" />
    <glyph glyph-name="trademark" unicode="&#x2122;" horiz-adv-x="640" 
d="M240 352h-224q-15 -2 -16 -15q1 -16 16 -17h96v-271q1 -15 16 -16q15 1 16 16v271h96q15 2 16 15q-1 16 -16 17v0zM629 351q-10 3 -17 -5l-148 -177l-148 177q-8 8 -17 5q-10 -4 -11 -15v-287q1 -16 16 -17q15 2 16 15v245l132 -158q12 -11 24 0l132 158v-244
q1 -15 16 -16q15 2 16 15v289q-1 11 -11 15v0z" />
    <glyph glyph-name="square-info" unicode="&#xf30f;" horiz-adv-x="448" 
d="M224 264q22 2 24 24q-2 22 -24 24q-22 -2 -24 -24q2 -22 24 -24v0zM384 416h-320q-27 -1 -45 -19t-19 -45v-320q1 -27 19 -45t45 -19h320q27 1 45 19t19 45v320q-1 27 -19 45t-45 19v0zM416 32q0 -14 -9 -23v0q-9 -9 -23 -9h-320q-14 0 -23 9t-9 23v320q0 14 9 23t23 9
h320q14 0 23 -9t9 -23v-320v0zM272 96h-32v112q-1 15 -16 16h-32q-15 -1 -16 -16q1 -15 16 -16h16v-96h-32q-15 -1 -16 -16q1 -15 16 -16h96q15 1 16 16q-1 15 -16 16v0z" />
    <glyph glyph-name="square-info" unicode="&#x2139;" horiz-adv-x="448" 
d="M224 264q22 2 24 24q-2 22 -24 24q-22 -2 -24 -24q2 -22 24 -24v0zM384 416h-320q-27 -1 -45 -19t-19 -45v-320q1 -27 19 -45t45 -19h320q27 1 45 19t19 45v320q-1 27 -19 45t-45 19v0zM416 32q0 -14 -9 -23v0q-9 -9 -23 -9h-320q-14 0 -23 9t-9 23v320q0 14 9 23t23 9
h320q14 0 23 -9t9 -23v-320v0zM272 96h-32v112q-1 15 -16 16h-32q-15 -1 -16 -16q1 -15 16 -16h16v-96h-32q-15 -1 -16 -16q1 -15 16 -16h96q15 1 16 16q-1 15 -16 16v0z" />
    <glyph glyph-name="arrow-left" unicode="&#xf060;" horiz-adv-x="448" 
d="M447 192q-1 -15 -15 -16h-364l136 -149q9 -12 -1 -23q-5 -4 -11 -4q-7 0 -12 5l-160 176q-8 11 0 22l160 176q11 10 23 1q10 -11 1 -23l-136 -149h364q14 -1 15 -16v0z" />
    <glyph glyph-name="arrow-left" unicode="&#x2190;" horiz-adv-x="448" 
d="M447 192q-1 -15 -15 -16h-364l136 -149q9 -12 -1 -23q-5 -4 -11 -4q-7 0 -12 5l-160 176q-8 11 0 22l160 176q11 10 23 1q10 -11 1 -23l-136 -149h364q14 -1 15 -16v0z" />
    <glyph glyph-name="arrow-up" unicode="&#xf062;" horiz-adv-x="384" 
d="M380 213q-5 -5 -12 -5q-6 0 -11 4l-149 136v-364q-2 -14 -15 -15q-15 1 -17 15v364l-149 -136q-12 -9 -23 1q-9 12 1 23l176 160q11 8 22 0l176 -160q10 -11 1 -23v0z" />
    <glyph glyph-name="arrow-up" unicode="&#x2191;" horiz-adv-x="384" 
d="M380 213q-5 -5 -12 -5q-6 0 -11 4l-149 136v-364q-2 -14 -15 -15q-15 1 -17 15v364l-149 -136q-12 -9 -23 1q-9 12 1 23l176 160q11 8 22 0l176 -160q10 -11 1 -23v0z" />
    <glyph glyph-name="arrow-right" unicode="&#xf061;" horiz-adv-x="448" 
d="M428 181l-160 -176q-5 -5 -12 -5q-6 0 -11 4q-10 11 -1 23l136 149h-364q-14 2 -15 15q1 15 15 17h364l-136 149q-9 12 1 23q12 9 23 -1l160 -176q8 -11 0 -22v0z" />
    <glyph glyph-name="arrow-right" unicode="&#x2192;" horiz-adv-x="448" 
d="M428 181l-160 -176q-5 -5 -12 -5q-6 0 -11 4q-10 11 -1 23l136 149h-364q-14 2 -15 15q1 15 15 17h364l-136 149q-9 12 1 23q12 9 23 -1l160 -176q8 -11 0 -22v0z" />
    <glyph glyph-name="arrow-down" unicode="&#xf063;" horiz-adv-x="384" 
d="M379 148l-176 -160q-5 -4 -11 -4t-11 4l-176 160q-10 11 -1 23q11 10 23 1l149 -136v364q2 14 15 15q15 -1 17 -15v-364l149 136q12 9 23 -1q9 -12 -1 -23v0z" />
    <glyph glyph-name="arrow-down" unicode="&#x2193;" horiz-adv-x="384" 
d="M379 148l-176 -160q-5 -4 -11 -4t-11 4l-176 160q-10 11 -1 23q11 10 23 1l149 -136v364q2 14 15 15q15 -1 17 -15v-364l149 136q12 9 23 -1q9 -12 -1 -23v0z" />
    <glyph glyph-name="left-right" unicode="&#xf337;" 
d="M504 210l-112 104q-11 10 -26 4q-13 -7 -14 -22v-88h-192v88q-1 15 -14 22q-15 6 -26 -4l-112 -104q-8 -8 -8 -17t8 -18l112 -104q11 -10 26 -4q13 7 14 22v87h192v-88q1 -15 14 -22q15 -6 26 4l112 104q8 8 8 19q0 10 -8 17v0zM128 106l-92 86l92 86v-172v0zM384 106
v172l92 -86l-92 -86v0z" />
    <glyph glyph-name="left-right" unicode="&#x2194;" 
d="M504 210l-112 104q-11 10 -26 4q-13 -7 -14 -22v-88h-192v88q-1 15 -14 22q-15 6 -26 -4l-112 -104q-8 -8 -8 -17t8 -18l112 -104q11 -10 26 -4q13 7 14 22v87h192v-88q1 -15 14 -22q15 -6 26 4l112 104q8 8 8 19q0 10 -8 17v0zM128 106l-92 86l92 86v-172v0zM384 106
v172l92 -86l-92 -86v0z" />
    <glyph glyph-name="up-down" unicode="&#xf338;" horiz-adv-x="256" 
d="M232 96h-88v192h87q16 1 21 14q5 15 -4 26l-104 112q-5 8 -17 8q-10 0 -17 -8l-104 -112q-10 -11 -4 -26q7 -13 22 -14h88l-1 -192h-87q-15 -1 -22 -14q-6 -15 4 -26l104 -112q7 -8 17 -8t18 8l104 112q10 11 4 26q-6 13 -21 14v0zM42 320l86 92l86 -92h-172v0zM128 -28
l-86 92h172l-86 -92v0z" />
    <glyph glyph-name="up-down" unicode="&#x2b0d;" horiz-adv-x="256" 
d="M232 96h-88v192h87q16 1 21 14q5 15 -4 26l-104 112q-5 8 -17 8q-10 0 -17 -8l-104 -112q-10 -11 -4 -26q7 -13 22 -14h88l-1 -192h-87q-15 -1 -22 -14q-6 -15 4 -26l104 -112q7 -8 17 -8t18 8l104 112q10 11 4 26q-6 13 -21 14v0zM42 320l86 92l86 -92h-172v0zM128 -28
l-86 92h172l-86 -92v0z" />
    <glyph glyph-name="up-down" unicode="&#x2195;" horiz-adv-x="256" 
d="M232 96h-88v192h87q16 1 21 14q5 15 -4 26l-104 112q-5 8 -17 8q-10 0 -17 -8l-104 -112q-10 -11 -4 -26q7 -13 22 -14h88l-1 -192h-87q-15 -1 -22 -14q-6 -15 4 -26l104 -112q7 -8 17 -8t18 8l104 112q10 11 4 26q-6 13 -21 14v0zM42 320l86 92l86 -92h-172v0zM128 -28
l-86 92h172l-86 -92v0z" />
    <glyph glyph-name="square-up-right" unicode="&#xf360;" horiz-adv-x="448" 
d="M384 416h-320q-27 -1 -45 -19t-19 -45v-320q1 -27 19 -45t45 -19h320q27 1 45 19t19 45v320q-1 27 -19 45t-45 19v0zM384 384q14 0 23 -9v0q9 -9 9 -23v-320q0 -14 -9 -23t-23 -9h-320q-14 0 -23 9t-9 23v320q0 14 9 23t23 9h320v0zM163 303q-26 -1 -37 -24q-9 -25 9 -44
l20 -20l-50 -51q-12 -13 -11 -29q0 -16 11 -28l34 -34q12 -12 28 -12t29 12l51 51l20 -20q19 -18 44 -9q23 11 24 37l3 133q-1 17 -12 29q-12 11 -28 11l-135 -2v0zM164 271l134 3q5 0 8 -8l-3 -134q0 -6 -5 -7q-5 -2 -8 2l-43 42l-74 -73q-6 -5 -11 0l-34 34q-5 5 0 11
l73 74l-42 42q-4 5 -2 9q2 5 7 5v0z" />
    <glyph glyph-name="square-up-right" unicode="&#x2197;" horiz-adv-x="448" 
d="M384 416h-320q-27 -1 -45 -19t-19 -45v-320q1 -27 19 -45t45 -19h320q27 1 45 19t19 45v320q-1 27 -19 45t-45 19v0zM384 384q14 0 23 -9v0q9 -9 9 -23v-320q0 -14 -9 -23t-23 -9h-320q-14 0 -23 9t-9 23v320q0 14 9 23t23 9h320v0zM163 303q-26 -1 -37 -24q-9 -25 9 -44
l20 -20l-50 -51q-12 -13 -11 -29q0 -16 11 -28l34 -34q12 -12 28 -12t29 12l51 51l20 -20q19 -18 44 -9q23 11 24 37l3 133q-1 17 -12 29q-12 11 -28 11l-135 -2v0zM164 271l134 3q5 0 8 -8l-3 -134q0 -6 -5 -7q-5 -2 -8 2l-43 42l-74 -73q-6 -5 -11 0l-34 34q-5 5 0 11
l73 74l-42 42q-4 5 -2 9q2 5 7 5v0z" />
    <glyph glyph-name="arrow-left-from-line" unicode="&#xf344;" horiz-adv-x="448" 
d="M352 208h-297l116 117q10 11 0 22q-11 10 -22 0l-144 -144q-5 -5 -5 -11t5 -11l144 -144q11 -10 22 0q10 11 0 22l-116 117h297q15 1 16 16q-1 15 -16 16v0zM432 384q-15 -1 -16 -16v-352q1 -15 16 -16q15 1 16 16v352q-1 15 -16 16v0z" />
    <glyph glyph-name="arrow-left-from-line" unicode="&#x21a4;" horiz-adv-x="448" 
d="M352 208h-297l116 117q10 11 0 22q-11 10 -22 0l-144 -144q-5 -5 -5 -11t5 -11l144 -144q11 -10 22 0q10 11 0 22l-116 117h297q15 1 16 16q-1 15 -16 16v0zM432 384q-15 -1 -16 -16v-352q1 -15 16 -16q15 1 16 16v352q-1 15 -16 16v0z" />
    <glyph glyph-name="arrow-up-from-line" unicode="&#xf342;" horiz-adv-x="384" 
d="M59 245l117 116v-297q1 -15 16 -16q15 1 16 16v297l117 -116q11 -10 22 0q10 11 0 22l-144 144q-5 5 -11 5t-11 -5l-144 -144q-10 -11 0 -22q11 -10 22 0v0zM368 0h-352q-15 -1 -16 -16q1 -15 16 -16h352q15 1 16 16q-1 15 -16 16v0z" />
    <glyph glyph-name="arrow-up-from-line" unicode="&#x21a5;" horiz-adv-x="384" 
d="M59 245l117 116v-297q1 -15 16 -16q15 1 16 16v297l117 -116q11 -10 22 0q10 11 0 22l-144 144q-5 5 -11 5t-11 -5l-144 -144q-10 -11 0 -22q11 -10 22 0v0zM368 0h-352q-15 -1 -16 -16q1 -15 16 -16h352q15 1 16 16q-1 15 -16 16v0z" />
    <glyph glyph-name="arrow-right-from-line" unicode="&#xf343;" horiz-adv-x="448" 
d="M443 203l-144 144q-11 10 -22 0q-10 -11 0 -22l116 -117h-297q-15 -1 -16 -16q1 -15 16 -16h297l-116 -117q-10 -11 0 -22q11 -10 22 0l144 144q5 5 5 11t-5 11v0zM16 384q-15 -1 -16 -16v-352q1 -15 16 -16q15 1 16 16v352q-1 15 -16 16v0z" />
    <glyph glyph-name="arrow-right-from-line" unicode="&#x21a6;" horiz-adv-x="448" 
d="M443 203l-144 144q-11 10 -22 0q-10 -11 0 -22l116 -117h-297q-15 -1 -16 -16q1 -15 16 -16h297l-116 -117q-10 -11 0 -22q11 -10 22 0l144 144q5 5 5 11t-5 11v0zM16 384q-15 -1 -16 -16v-352q1 -15 16 -16q15 1 16 16v352q-1 15 -16 16v0z" />
    <glyph glyph-name="arrow-down-from-line" unicode="&#xf345;" horiz-adv-x="384" 
d="M325 139l-117 -116v297q-1 15 -16 16q-15 -1 -16 -16v-297l-117 116q-11 10 -22 0q-10 -11 0 -22l144 -144q5 -5 11 -5t11 5l144 144q10 11 0 22q-11 10 -22 0v0zM368 416h-352q-15 -1 -16 -16q1 -15 16 -16h352q15 1 16 16q-1 15 -16 16v0z" />
    <glyph glyph-name="arrow-down-from-line" unicode="&#x21a7;" horiz-adv-x="384" 
d="M325 139l-117 -116v297q-1 15 -16 16q-15 -1 -16 -16v-297l-117 116q-11 10 -22 0q-10 -11 0 -22l144 -144q5 -5 11 -5t11 5l144 144q10 11 0 22q-11 10 -22 0v0zM368 416h-352q-15 -1 -16 -16q1 -15 16 -16h352q15 1 16 16q-1 15 -16 16v0z" />
    <glyph glyph-name="arrow-rotate-left" unicode="&#xf0e2;" 
d="M480 192q-1 -62 -31 -113v0q-29 -50 -80 -80v0q-50 -30 -113 -31q-52 0 -98 23q-46 22 -79 63q-8 12 3 23q13 8 23 -3q28 -36 67 -55t84 -19q81 2 136 56q54 55 56 136q-2 81 -56 136q-55 54 -136 56q-52 0 -96 -26q-43 -25 -70 -70h86q15 -1 16 -16q-1 -15 -16 -16h-128
q-15 1 -16 16v128q1 15 16 16q15 -1 16 -16v-94q31 52 81 81q51 28 111 29q63 -1 113 -31q51 -30 80 -80q30 -51 31 -113v0z" />
    <glyph glyph-name="arrow-rotate-left" unicode="&#x21ba;" 
d="M480 192q-1 -62 -31 -113v0q-29 -50 -80 -80v0q-50 -30 -113 -31q-52 0 -98 23q-46 22 -79 63q-8 12 3 23q13 8 23 -3q28 -36 67 -55t84 -19q81 2 136 56q54 55 56 136q-2 81 -56 136q-55 54 -136 56q-52 0 -96 -26q-43 -25 -70 -70h86q15 -1 16 -16q-1 -15 -16 -16h-128
q-15 1 -16 16v128q1 15 16 16q15 -1 16 -16v-94q31 52 81 81q51 28 111 29q63 -1 113 -31q51 -30 80 -80q30 -51 31 -113v0z" />
    <glyph glyph-name="arrow-rotate-right" unicode="&#xf01e;" 
d="M256 416q60 -1 111 -29v0q50 -29 81 -81v94q1 15 16 16q15 -1 16 -16v-128q-1 -15 -16 -16h-128q-15 1 -16 16q1 15 16 16h86q-27 45 -70 70q-44 26 -96 26q-81 -2 -136 -56q-54 -55 -56 -136q2 -81 56 -136q55 -54 136 -56q45 0 84 19t67 55q10 11 23 3q10 -11 3 -23
q-33 -41 -79 -63q-46 -23 -98 -23q-63 1 -113 31q-51 30 -80 80q-30 51 -31 113q1 62 31 113q29 50 80 80q50 30 113 31v0z" />
    <glyph glyph-name="arrow-rotate-right" unicode="&#x21bb;" 
d="M256 416q60 -1 111 -29v0q50 -29 81 -81v94q1 15 16 16q15 -1 16 -16v-128q-1 -15 -16 -16h-128q-15 1 -16 16q1 15 16 16h86q-27 45 -70 70q-44 26 -96 26q-81 -2 -136 -56q-54 -55 -56 -136q2 -81 56 -136q55 -54 136 -56q45 0 84 19t67 55q10 11 23 3q10 -11 3 -23
q-33 -41 -79 -63q-46 -23 -98 -23q-63 1 -113 31q-51 30 -80 80q-30 51 -31 113q1 62 31 113q29 50 80 80q50 30 113 31v0z" />
    <glyph glyph-name="arrow-right-arrow-left" unicode="&#xf0ec;" 
d="M16 288h441l-100 -101q-10 -11 0 -22q11 -10 22 0l128 128q5 5 5 11t-5 11l-128 128q-11 10 -22 0q-10 -11 0 -22l100 -101h-441q-15 -1 -16 -16q1 -15 16 -16v0zM496 96h-441l100 101q10 11 0 22q-11 10 -22 0l-128 -128q-5 -5 -5 -11t5 -11l128 -128q11 -10 22 0
q10 11 0 22l-100 101h441q15 1 16 16q-1 15 -16 16v0z" />
    <glyph glyph-name="arrow-right-arrow-left" unicode="&#x21c4;" 
d="M16 288h441l-100 -101q-10 -11 0 -22q11 -10 22 0l128 128q5 5 5 11t-5 11l-128 128q-11 10 -22 0q-10 -11 0 -22l100 -101h-441q-15 -1 -16 -16q1 -15 16 -16v0zM496 96h-441l100 101q10 11 0 22q-11 10 -22 0l-128 -128q-5 -5 -5 -11t5 -11l128 -128q11 -10 22 0
q10 11 0 22l-100 101h441q15 1 16 16q-1 15 -16 16v0z" />
    <glyph glyph-name="arrow-left-to-line" unicode="&#xf33e;" horiz-adv-x="448" 
d="M432 208h-297l116 117q10 11 0 22q-11 10 -22 0l-144 -144q-5 -5 -5 -11t5 -11l144 -144q11 -10 22 0q10 11 0 22l-116 117h297q15 1 16 16q-1 15 -16 16v0zM16 384q-15 -1 -16 -16v-352q1 -15 16 -16q15 1 16 16v352q-1 15 -16 16v0z" />
    <glyph glyph-name="arrow-left-to-line" unicode="&#x21e4;" horiz-adv-x="448" 
d="M432 208h-297l116 117q10 11 0 22q-11 10 -22 0l-144 -144q-5 -5 -5 -11t5 -11l144 -144q11 -10 22 0q10 11 0 22l-116 117h297q15 1 16 16q-1 15 -16 16v0zM16 384q-15 -1 -16 -16v-352q1 -15 16 -16q15 1 16 16v352q-1 15 -16 16v0z" />
    <glyph glyph-name="arrow-right-to-line" unicode="&#xf340;" horiz-adv-x="448" 
d="M432 384q-15 -1 -16 -16v-352q1 -15 16 -16q15 1 16 16v352q-1 15 -16 16v0zM219 347q-11 10 -22 0q-10 -11 0 -22l116 -117h-297q-15 -1 -16 -16q1 -15 16 -16h297l-116 -117q-10 -11 0 -22q11 -10 22 0l144 144q5 5 5 11t-5 11l-144 144v0z" />
    <glyph glyph-name="arrow-right-to-line" unicode="&#x21e5;" horiz-adv-x="448" 
d="M432 384q-15 -1 -16 -16v-352q1 -15 16 -16q15 1 16 16v352q-1 15 -16 16v0zM219 347q-11 10 -22 0q-10 -11 0 -22l116 -117h-297q-15 -1 -16 -16q1 -15 16 -16h297l-116 -117q-10 -11 0 -22q11 -10 22 0l144 144q5 5 5 11t-5 11l-144 144v0z" />
    <glyph glyph-name="sigma" unicode="&#xf68b;" horiz-adv-x="384" 
d="M335 304v64h-269l153 -166q8 -10 0 -20l-152 -166h269v64q1 15 16 16q15 -1 16 -16v-80q-1 -15 -16 -16h-321q-10 0 -14 9t2 17l168 182l-167 182q-6 8 -3 17q5 9 14 9h320q16 -1 17 -16v-80q-1 -15 -16 -16q-15 1 -17 16v0z" />
    <glyph glyph-name="sigma" unicode="&#x2211;" horiz-adv-x="384" 
d="M335 304v64h-269l153 -166q8 -10 0 -20l-152 -166h269v64q1 15 16 16q15 -1 16 -16v-80q-1 -15 -16 -16h-321q-10 0 -14 9t2 17l168 182l-167 182q-6 8 -3 17q5 9 14 9h320q16 -1 17 -16v-80q-1 -15 -16 -16q-15 1 -17 16v0z" />
    <glyph glyph-name="square-root" unicode="&#xf697;" horiz-adv-x="576" 
d="M192 -29q-14 6 -21 20l-82 176q-3 9 -13 9h-60q-15 1 -16 16q1 15 16 16h60q29 -1 43 -28l81 -176q3 -4 7 -4q4 1 6 5l101 375q5 16 17 26q13 10 30 10h199q15 -1 16 -16q-1 -15 -16 -16h-199q-12 -1 -16 -12l-101 -375q-5 -17 -20 -25q-14 -7 -32 -1v0z" />
    <glyph glyph-name="square-root" unicode="&#x221a;" horiz-adv-x="576" 
d="M192 -29q-14 6 -21 20l-82 176q-3 9 -13 9h-60q-15 1 -16 16q1 15 16 16h60q29 -1 43 -28l81 -176q3 -4 7 -4q4 1 6 5l101 375q5 16 17 26q13 10 30 10h199q15 -1 16 -16q-1 -15 -16 -16h-199q-12 -1 -16 -12l-101 -375q-5 -17 -20 -25q-14 -7 -32 -1v0z" />
    <glyph glyph-name="infinity" unicode="&#xf534;" horiz-adv-x="640" 
d="M489 352q-42 -1 -75 -23v0q-33 -22 -57 -51v0q-24 -29 -37 -53q-13 24 -37 53t-57 51t-75 23q-64 -2 -107 -47q-42 -45 -44 -113q2 -68 44 -113q43 -45 107 -47q41 1 75 23q33 22 57 51t37 52q13 -23 37 -52t57 -51t75 -23q64 2 107 47q42 45 44 113q-2 68 -44 113
q-43 45 -107 47v0zM151 64q-50 1 -84 38v0q-34 36 -35 90q1 54 35 90q34 37 84 38q39 -2 71 -27q31 -26 52 -56t28 -45q-7 -15 -28 -45t-52 -56q-32 -25 -71 -27v0zM489 64q-39 2 -71 27v0q-31 26 -52 56v0q-21 30 -28 45q7 15 28 45t52 56q32 25 71 27q50 -1 84 -38
q34 -36 35 -90q-1 -54 -35 -90q-34 -37 -84 -38v0z" />
    <glyph glyph-name="infinity" unicode="&#x267e;" horiz-adv-x="640" 
d="M489 352q-42 -1 -75 -23v0q-33 -22 -57 -51v0q-24 -29 -37 -53q-13 24 -37 53t-57 51t-75 23q-64 -2 -107 -47q-42 -45 -44 -113q2 -68 44 -113q43 -45 107 -47q41 1 75 23q33 22 57 51t37 52q13 -23 37 -52t57 -51t75 -23q64 2 107 47q42 45 44 113q-2 68 -44 113
q-43 45 -107 47v0zM151 64q-50 1 -84 38v0q-34 36 -35 90q1 54 35 90q34 37 84 38q39 -2 71 -27q31 -26 52 -56t28 -45q-7 -15 -28 -45t-52 -56q-32 -25 -71 -27v0zM489 64q-39 2 -71 27v0q-31 26 -52 56v0q-21 30 -28 45q7 15 28 45t52 56q32 25 71 27q50 -1 84 -38
q34 -36 35 -90q-1 -54 -35 -90q-34 -37 -84 -38v0z" />
    <glyph glyph-name="infinity" unicode="&#x221e;" horiz-adv-x="640" 
d="M489 352q-42 -1 -75 -23v0q-33 -22 -57 -51v0q-24 -29 -37 -53q-13 24 -37 53t-57 51t-75 23q-64 -2 -107 -47q-42 -45 -44 -113q2 -68 44 -113q43 -45 107 -47q41 1 75 23q33 22 57 51t37 52q13 -23 37 -52t57 -51t75 -23q64 2 107 47q42 45 44 113q-2 68 -44 113
q-43 45 -107 47v0zM151 64q-50 1 -84 38v0q-34 36 -35 90q1 54 35 90q34 37 84 38q39 -2 71 -27q31 -26 52 -56t28 -45q-7 -15 -28 -45t-52 -56q-32 -25 -71 -27v0zM489 64q-39 2 -71 27v0q-31 26 -52 56v0q-21 30 -28 45q7 15 28 45t52 56q32 25 71 27q50 -1 84 -38
q34 -36 35 -90q-1 -54 -35 -90q-34 -37 -84 -38v0z" />
    <glyph glyph-name="wave-sine" unicode="&#xf899;" horiz-adv-x="640" 
d="M623 171q-3 -12 -21 -57v0q-19 -44 -54 -86v0q-34 -41 -85 -44q-43 1 -72 31q-29 31 -50 77q-20 46 -36 95q-15 43 -32 84q-18 42 -41 69t-55 28q-32 -1 -58 -30q-26 -28 -44 -66t-28 -69q-3 -8 -9 -10t-10 0q-14 5 -11 20q3 12 21 57q19 44 54 86q34 41 85 44
q43 -1 72 -31q29 -31 50 -77q20 -46 36 -95q15 -43 32 -84q18 -42 41 -69t55 -28q32 1 58 30q26 28 44 66t28 68q3 9 9 11t10 0q14 -5 11 -20v0z" />
    <glyph glyph-name="wave-sine" unicode="&#x223f;" horiz-adv-x="640" 
d="M623 171q-3 -12 -21 -57v0q-19 -44 -54 -86v0q-34 -41 -85 -44q-43 1 -72 31q-29 31 -50 77q-20 46 -36 95q-15 43 -32 84q-18 42 -41 69t-55 28q-32 -1 -58 -30q-26 -28 -44 -66t-28 -69q-3 -8 -9 -10t-10 0q-14 5 -11 20q3 12 21 57q19 44 54 86q34 41 85 44
q43 -1 72 -31q29 -31 50 -77q20 -46 36 -95q15 -43 32 -84q18 -42 41 -69t55 -28q32 1 58 30q26 28 44 66t28 68q3 9 9 11t10 0q14 -5 11 -20v0z" />
    <glyph glyph-name="intersection" unicode="&#xf668;" horiz-adv-x="384" 
d="M384 224v-240q-1 -15 -16 -16q-15 1 -16 16v240q-2 68 -47 113t-113 47q-68 -2 -113 -47t-47 -113v-240q-1 -15 -16 -16q-15 1 -16 16v240q2 81 56 136q55 54 136 56q81 -2 136 -56q54 -55 56 -136v0z" />
    <glyph glyph-name="intersection" unicode="&#x22c2;" horiz-adv-x="384" 
d="M384 224v-240q-1 -15 -16 -16q-15 1 -16 16v240q-2 68 -47 113t-113 47q-68 -2 -113 -47t-47 -113v-240q-1 -15 -16 -16q-15 1 -16 16v240q2 81 56 136q55 54 136 56q81 -2 136 -56q54 -55 56 -136v0z" />
    <glyph glyph-name="union" unicode="&#xf6a2;" horiz-adv-x="384" 
d="M0 160v240q1 15 16 16q15 -1 16 -16v-240q2 -68 47 -113t113 -47q68 2 113 47t47 113v240q1 15 16 16q15 -1 16 -16v-240q-2 -81 -56 -135q-55 -54 -136 -56q-81 2 -136 56q-54 54 -56 135v0z" />
    <glyph glyph-name="union" unicode="&#x22c3;" horiz-adv-x="384" 
d="M0 160v240q1 15 16 16q15 -1 16 -16v-240q2 -68 47 -113t113 -47q68 2 113 47t47 113v240q1 15 16 16q15 -1 16 -16v-240q-2 -81 -56 -135q-55 -54 -136 -56q-81 2 -136 56q-54 54 -56 135v0z" />
    <glyph glyph-name="angle-up" unicode="&#xf106;" horiz-adv-x="384" 
d="M364 117q-11 -10 -23 -1l-149 134l-149 -134q-12 -9 -23 1q-9 12 1 23l159 144q11 8 22 0l159 -144q12 -11 3 -23v0z" />
    <glyph glyph-name="angle-up" unicode="&#x2303;" horiz-adv-x="384" 
d="M364 117q-11 -10 -23 -1l-149 134l-149 -134q-12 -9 -23 1q-9 12 1 23l159 144q11 8 22 0l159 -144q12 -11 3 -23v0z" />
    <glyph glyph-name="angle-down" unicode="&#xf107;" horiz-adv-x="384" 
d="M363 244l-159 -144q-11 -8 -22 0l-161 144q-10 12 -1 23q11 10 23 1l149 -135l149 135q12 9 23 -1q9 -11 -1 -23v0z" />
    <glyph glyph-name="angle-down" unicode="&#x2304;" horiz-adv-x="384" 
d="M363 244l-159 -144q-11 -8 -22 0l-161 144q-10 12 -1 23q11 10 23 1l149 -135l149 135q12 9 23 -1q9 -11 -1 -23v0z" />
    <glyph glyph-name="watch" unicode="&#xf2e1;" horiz-adv-x="384" 
d="M320 335v49q-1 27 -19 45t-45 19h-128q-27 -1 -45 -19t-19 -45v-49q-30 -27 -47 -63q-17 -37 -17 -80t17 -80q17 -36 47 -63v-49q1 -27 19 -45t45 -19h128q27 1 45 19t19 45v49q30 27 47 63q17 37 17 80t-17 80q-17 36 -47 63v0zM96 384q0 14 9 23v0q9 9 23 9h128
q14 0 23 -9t9 -23v-26q-43 25 -96 26q-53 -1 -96 -26v26v0zM288 0q0 -14 -9 -23v0q-9 -9 -23 -9h-128q-14 0 -23 9t-9 23v26q42 -25 96 -26q54 1 96 26v-26v0zM192 32q-68 2 -113 47v0q-45 45 -47 113q2 68 47 113t113 47q68 -2 113 -47t47 -113q-2 -68 -47 -113t-113 -47v0
zM208 201v71q-1 15 -16 16q-15 -1 -16 -16v-80q0 -8 7 -13l48 -32q4 -3 9 -3q8 0 13 7q7 13 -4 22l-41 28v0z" />
    <glyph glyph-name="watch" unicode="&#x231a;" horiz-adv-x="384" 
d="M320 335v49q-1 27 -19 45t-45 19h-128q-27 -1 -45 -19t-19 -45v-49q-30 -27 -47 -63q-17 -37 -17 -80t17 -80q17 -36 47 -63v-49q1 -27 19 -45t45 -19h128q27 1 45 19t19 45v49q30 27 47 63q17 37 17 80t-17 80q-17 36 -47 63v0zM96 384q0 14 9 23v0q9 9 23 9h128
q14 0 23 -9t9 -23v-26q-43 25 -96 26q-53 -1 -96 -26v26v0zM288 0q0 -14 -9 -23v0q-9 -9 -23 -9h-128q-14 0 -23 9t-9 23v26q42 -25 96 -26q54 1 96 26v-26v0zM192 32q-68 2 -113 47v0q-45 45 -47 113q2 68 47 113t113 47q68 -2 113 -47t47 -113q-2 -68 -47 -113t-113 -47v0
zM208 201v71q-1 15 -16 16q-15 -1 -16 -16v-80q0 -8 7 -13l48 -32q4 -3 9 -3q8 0 13 7q7 13 -4 22l-41 28v0z" />
    <glyph glyph-name="hourglass-end" unicode="&#xf253;" horiz-adv-x="384" 
d="M32 16q1 -15 16 -16q15 1 16 16q0 43 26 77l67 89q6 10 0 20l-67 89q-26 34 -26 77q-1 15 -16 16q-15 -1 -16 -16q1 -53 32 -96l60 -80l-60 -80q-31 -43 -32 -96v0zM16 416h352q15 1 16 16q-1 15 -16 16h-352q-15 -1 -16 -16q1 -15 16 -16v0zM352 368q-1 15 -16 16
q-15 -1 -16 -16q0 -43 -26 -77l-67 -89q-6 -10 0 -20l67 -89q26 -34 26 -77q1 -15 16 -16q15 1 16 16q-1 53 -32 96l-60 80l60 80q31 43 32 96v0zM368 -32h-352q-15 -1 -16 -16q1 -15 16 -16h352q15 1 16 16q-1 15 -16 16v0zM112 0h160q15 1 16 16q-1 54 -34 95l-50 59
q-12 11 -24 0l-50 -59q-33 -41 -34 -95q1 -15 16 -16v0zM155 91l37 44l37 -44q21 -26 26 -59h-126q5 33 26 59v0z" />
    <glyph glyph-name="hourglass-end" unicode="&#x231b;" horiz-adv-x="384" 
d="M32 16q1 -15 16 -16q15 1 16 16q0 43 26 77l67 89q6 10 0 20l-67 89q-26 34 -26 77q-1 15 -16 16q-15 -1 -16 -16q1 -53 32 -96l60 -80l-60 -80q-31 -43 -32 -96v0zM16 416h352q15 1 16 16q-1 15 -16 16h-352q-15 -1 -16 -16q1 -15 16 -16v0zM352 368q-1 15 -16 16
q-15 -1 -16 -16q0 -43 -26 -77l-67 -89q-6 -10 0 -20l67 -89q26 -34 26 -77q1 -15 16 -16q15 1 16 16q-1 53 -32 96l-60 80l60 80q31 43 32 96v0zM368 -32h-352q-15 -1 -16 -16q1 -15 16 -16h352q15 1 16 16q-1 15 -16 16v0zM112 0h160q15 1 16 16q-1 54 -34 95l-50 59
q-12 11 -24 0l-50 -59q-33 -41 -34 -95q1 -15 16 -16v0zM155 91l37 44l37 -44q21 -26 26 -59h-126q5 33 26 59v0z" />
    <glyph glyph-name="keyboard" unicode="&#xf11c;" horiz-adv-x="576" 
d="M180 264h24q11 1 12 12v24q-1 11 -12 12h-24q-11 -1 -12 -12v-24q1 -11 12 -12v0zM276 168h24q11 1 12 12v24q-1 11 -12 12h-24q-11 -1 -12 -12v-24q1 -11 12 -12v0zM180 168h24q11 1 12 12v24q-1 11 -12 12h-24q-11 -1 -12 -12v-24q1 -11 12 -12v0zM372 264h24
q11 1 12 12v24q-1 11 -12 12h-24q-11 -1 -12 -12v-24q1 -11 12 -12v0zM276 264h24q11 1 12 12v24q-1 11 -12 12h-24q-11 -1 -12 -12v-24q1 -11 12 -12v0zM108 120h-24q-11 -1 -12 -12v-24q1 -11 12 -12h24q11 1 12 12v24q-1 11 -12 12v0zM372 168h24q11 1 12 12v24
q-1 11 -12 12h-24q-11 -1 -12 -12v-24q1 -11 12 -12v0zM108 312h-24q-11 -1 -12 -12v-24q1 -11 12 -12h24q11 1 12 12v24q-1 11 -12 12v0zM492 216h-24q-11 -1 -12 -12v-24q1 -11 12 -12h24q11 1 12 12v24q-1 11 -12 12v0zM108 216h-24q-11 -1 -12 -12v-24q1 -11 12 -12h24
q11 1 12 12v24q-1 11 -12 12v0zM512 384h-448q-27 -1 -45 -19t-19 -45v-256q1 -27 19 -45t45 -19h448q27 1 45 19t19 45v256q-1 27 -19 45t-45 19v0zM544 64q0 -14 -9 -23v0q-9 -9 -23 -9h-448q-14 0 -23 9t-9 23v256q0 14 9 23t23 9h448q14 0 23 -9t9 -23v-256v0zM492 312
h-24q-11 -1 -12 -12v-24q1 -11 12 -12h24q11 1 12 12v24q-1 11 -12 12v0zM400 112h-224q-15 -1 -16 -16q1 -15 16 -16h224q15 1 16 16q-1 15 -16 16v0zM492 120h-24q-11 -1 -12 -12v-24q1 -11 12 -12h24q11 1 12 12v24q-1 11 -12 12v0z" />
    <glyph glyph-name="keyboard" unicode="&#x2328;" horiz-adv-x="576" 
d="M180 264h24q11 1 12 12v24q-1 11 -12 12h-24q-11 -1 -12 -12v-24q1 -11 12 -12v0zM276 168h24q11 1 12 12v24q-1 11 -12 12h-24q-11 -1 -12 -12v-24q1 -11 12 -12v0zM180 168h24q11 1 12 12v24q-1 11 -12 12h-24q-11 -1 -12 -12v-24q1 -11 12 -12v0zM372 264h24
q11 1 12 12v24q-1 11 -12 12h-24q-11 -1 -12 -12v-24q1 -11 12 -12v0zM276 264h24q11 1 12 12v24q-1 11 -12 12h-24q-11 -1 -12 -12v-24q1 -11 12 -12v0zM108 120h-24q-11 -1 -12 -12v-24q1 -11 12 -12h24q11 1 12 12v24q-1 11 -12 12v0zM372 168h24q11 1 12 12v24
q-1 11 -12 12h-24q-11 -1 -12 -12v-24q1 -11 12 -12v0zM108 312h-24q-11 -1 -12 -12v-24q1 -11 12 -12h24q11 1 12 12v24q-1 11 -12 12v0zM492 216h-24q-11 -1 -12 -12v-24q1 -11 12 -12h24q11 1 12 12v24q-1 11 -12 12v0zM108 216h-24q-11 -1 -12 -12v-24q1 -11 12 -12h24
q11 1 12 12v24q-1 11 -12 12v0zM512 384h-448q-27 -1 -45 -19t-19 -45v-256q1 -27 19 -45t45 -19h448q27 1 45 19t19 45v256q-1 27 -19 45t-45 19v0zM544 64q0 -14 -9 -23v0q-9 -9 -23 -9h-448q-14 0 -23 9t-9 23v256q0 14 9 23t23 9h448q14 0 23 -9t9 -23v-256v0zM492 312
h-24q-11 -1 -12 -12v-24q1 -11 12 -12h24q11 1 12 12v24q-1 11 -12 12v0zM400 112h-224q-15 -1 -16 -16q1 -15 16 -16h224q15 1 16 16q-1 15 -16 16v0zM492 120h-24q-11 -1 -12 -12v-24q1 -11 12 -12h24q11 1 12 12v24q-1 11 -12 12v0z" />
    <glyph glyph-name="chevron-left" unicode="&#xf053;" horiz-adv-x="320" 
d="M235 412q5 -5 5 -12q0 -6 -4 -11l-182 -197l181 -197q9 -12 -1 -23q-12 -9 -23 1l-192 208q-8 11 0 22l192 208q12 10 24 1v0z" />
    <glyph glyph-name="chevron-left" unicode="&#x2329;" horiz-adv-x="320" 
d="M235 412q5 -5 5 -12q0 -6 -4 -11l-182 -197l181 -197q9 -12 -1 -23q-12 -9 -23 1l-192 208q-8 11 0 22l192 208q12 10 24 1v0z" />
    <glyph glyph-name="chevron-right" unicode="&#xf054;" horiz-adv-x="320" 
d="M85 -28q-5 5 -5 12q0 6 4 11l181 197l-181 197q-9 12 1 23q12 9 23 -1l192 -208q8 -11 0 -22l-192 -208q-11 -10 -23 -1v0z" />
    <glyph glyph-name="chevron-right" unicode="&#x232a;" horiz-adv-x="320" 
d="M85 -28q-5 5 -5 12q0 6 4 11l181 197l-181 197q-9 12 1 23q12 9 23 -1l192 -208q8 -11 0 -22l-192 -208q-11 -10 -23 -1v0z" />
    <glyph glyph-name="delete-left" unicode="&#xf55a;" horiz-adv-x="576" 
d="M512 384h-307q-26 0 -45 -19l-151 -150q-9 -10 -9 -23t9 -23l151 -150q19 -19 45 -19h307q27 1 45 19t19 45v256q-1 27 -19 45t-45 19v0zM544 64q0 -14 -9 -23v0q-9 -9 -23 -9h-307q-13 0 -22 9l-151 151l151 151q9 9 22 9h307q14 0 23 -9t9 -23v-256v0zM427 267
q-11 10 -22 0l-53 -52l-53 52q-11 10 -22 0q-10 -11 0 -22l52 -53l-52 -53q-10 -11 0 -22q11 -10 22 0l53 52l53 -52q11 -10 22 0q10 11 0 22l-52 53l52 53q10 11 0 22v0z" />
    <glyph glyph-name="delete-left" unicode="&#x232b;" horiz-adv-x="576" 
d="M512 384h-307q-26 0 -45 -19l-151 -150q-9 -10 -9 -23t9 -23l151 -150q19 -19 45 -19h307q27 1 45 19t19 45v256q-1 27 -19 45t-45 19v0zM544 64q0 -14 -9 -23v0q-9 -9 -23 -9h-307q-13 0 -22 9l-151 151l151 151q9 9 22 9h307q14 0 23 -9t9 -23v-256v0zM427 267
q-11 10 -22 0l-53 -52l-53 52q-11 10 -22 0q-10 -11 0 -22l52 -53l-52 -53q-10 -11 0 -22q11 -10 22 0l53 52l53 -52q11 -10 22 0q10 11 0 22l-52 53l52 53q10 11 0 22v0z" />
    <glyph glyph-name="print" unicode="&#x1f5b6;" 
d="M416 128h-320q-14 0 -23 -9t-9 -23v-128q0 -14 9 -23t23 -9h320q14 0 23 9t9 23v128q0 14 -9 23t-23 9v0zM416 -32h-320v128h320v-128v0zM448 256v121q0 14 -9 23l-39 39q-10 9 -23 9h-249q-27 -1 -45 -19t-19 -45v-128q-27 -1 -45 -19t-19 -45v-112q1 -15 16 -16
q15 1 16 16v112q0 14 9 23t23 9h384q14 0 23 -9t9 -23v-112q1 -15 16 -16q15 1 16 16v112q-1 27 -19 45t-45 19v0zM416 256h-320v128q0 14 9 23t23 9h249l39 -39v-121v0zM432 200q-22 -2 -24 -24q2 -22 24 -24q22 2 24 24q-2 22 -24 24v0z" />
    <glyph glyph-name="print" unicode="&#x1f5a8;" 
d="M416 128h-320q-14 0 -23 -9t-9 -23v-128q0 -14 9 -23t23 -9h320q14 0 23 9t9 23v128q0 14 -9 23t-23 9v0zM416 -32h-320v128h320v-128v0zM448 256v121q0 14 -9 23l-39 39q-10 9 -23 9h-249q-27 -1 -45 -19t-19 -45v-128q-27 -1 -45 -19t-19 -45v-112q1 -15 16 -16
q15 1 16 16v112q0 14 9 23t23 9h384q14 0 23 -9t9 -23v-112q1 -15 16 -16q15 1 16 16v112q-1 27 -19 45t-45 19v0zM416 256h-320v128q0 14 9 23t23 9h249l39 -39v-121v0zM432 200q-22 -2 -24 -24q2 -22 24 -24q22 2 24 24q-2 22 -24 24v0z" />
    <glyph glyph-name="print" unicode="&#xf02f;" 
d="M416 128h-320q-14 0 -23 -9t-9 -23v-128q0 -14 9 -23t23 -9h320q14 0 23 9t9 23v128q0 14 -9 23t-23 9v0zM416 -32h-320v128h320v-128v0zM448 256v121q0 14 -9 23l-39 39q-10 9 -23 9h-249q-27 -1 -45 -19t-19 -45v-128q-27 -1 -45 -19t-19 -45v-112q1 -15 16 -16
q15 1 16 16v112q0 14 9 23t23 9h384q14 0 23 -9t9 -23v-112q1 -15 16 -16q15 1 16 16v112q-1 27 -19 45t-45 19v0zM416 256h-320v128q0 14 9 23t23 9h249l39 -39v-121v0zM432 200q-22 -2 -24 -24q2 -22 24 -24q22 2 24 24q-2 22 -24 24v0z" />
    <glyph glyph-name="print" unicode="&#x2399;" 
d="M416 128h-320q-14 0 -23 -9t-9 -23v-128q0 -14 9 -23t23 -9h320q14 0 23 9t9 23v128q0 14 -9 23t-23 9v0zM416 -32h-320v128h320v-128v0zM448 256v121q0 14 -9 23l-39 39q-10 9 -23 9h-249q-27 -1 -45 -19t-19 -45v-128q-27 -1 -45 -19t-19 -45v-112q1 -15 16 -16
q15 1 16 16v112q0 14 9 23t23 9h384q14 0 23 -9t9 -23v-112q1 -15 16 -16q15 1 16 16v112q-1 27 -19 45t-45 19v0zM416 256h-320v128q0 14 9 23t23 9h249l39 -39v-121v0zM432 200q-22 -2 -24 -24q2 -22 24 -24q22 2 24 24q-2 22 -24 24v0z" />
    <glyph glyph-name="eject" unicode="&#xf052;" horiz-adv-x="448" 
d="M48 97h351q32 2 44 29q12 26 -9 51l-175 192q-15 15 -35 15t-35 -15l-176 -193q-21 -25 -9 -51t44 -28v0zM36 155l176 192q7 6 12 5q5 1 12 -5l175 -192q7 -12 3 -17q-2 -7 -15 -10h-351q-13 3 -15 10q-4 5 3 17v0zM432 32h-416q-15 -1 -16 -16q1 -15 16 -16h416
q15 1 16 16q-1 15 -16 16v0z" />
    <glyph glyph-name="eject" unicode="&#x23cf;" horiz-adv-x="448" 
d="M48 97h351q32 2 44 29q12 26 -9 51l-175 192q-15 15 -35 15t-35 -15l-176 -193q-21 -25 -9 -51t44 -28v0zM36 155l176 192q7 6 12 5q5 1 12 -5l175 -192q7 -12 3 -17q-2 -7 -15 -10h-351q-13 3 -15 10q-4 5 3 17v0zM432 32h-416q-15 -1 -16 -16q1 -15 16 -16h416
q15 1 16 16q-1 15 -16 16v0z" />
    <glyph glyph-name="forward" unicode="&#xf04e;" 
d="M182 227q12 -8 22 2q9 12 -2 23l-152 125q-9 7 -19 7q-13 0 -22 -9t-9 -23v-320q0 -14 9 -23t22 -9q10 0 19 7l152 125q11 11 2 23q-10 10 -22 2l-150 -125v320l150 -125v0zM500 217l-194 159q-9 8 -19 8q-9 0 -20 -7q-10 -7 -11 -25v-320q1 -18 11 -25q11 -7 20 -7
q10 0 19 7l194 159q12 11 12 26t-12 25v0zM288 32v320l192 -160l-192 -160v0z" />
    <glyph glyph-name="forward" unicode="&#x23e9;" 
d="M182 227q12 -8 22 2q9 12 -2 23l-152 125q-9 7 -19 7q-13 0 -22 -9t-9 -23v-320q0 -14 9 -23t22 -9q10 0 19 7l152 125q11 11 2 23q-10 10 -22 2l-150 -125v320l150 -125v0zM500 217l-194 159q-9 8 -19 8q-9 0 -20 -7q-10 -7 -11 -25v-320q1 -18 11 -25q11 -7 20 -7
q10 0 19 7l194 159q12 11 12 26t-12 25v0zM288 32v320l192 -160l-192 -160v0z" />
    <glyph glyph-name="backward" unicode="&#xf04a;" 
d="M481 384q-10 0 -19 -7l-152 -125q-11 -11 -2 -23q10 -10 22 -2l150 125v-320l-150 125q-12 8 -22 -2q-9 -12 2 -23l152 -125q8 -7 19 -7q13 0 22 9t9 24v319q0 14 -9 23t-22 9v0zM225 384q-11 0 -18 -7l-195 -160q-12 -10 -12 -25t12 -25l194 -159q8 -8 19 -8q9 0 20 7
q10 7 11 25v320q-2 18 -12 25t-19 7v0zM224 32l-191 160l191 160v-320v0z" />
    <glyph glyph-name="backward" unicode="&#x23ea;" 
d="M481 384q-10 0 -19 -7l-152 -125q-11 -11 -2 -23q10 -10 22 -2l150 125v-320l-150 125q-12 8 -22 -2q-9 -12 2 -23l152 -125q8 -7 19 -7q13 0 22 9t9 24v319q0 14 -9 23t-22 9v0zM225 384q-11 0 -18 -7l-195 -160q-12 -10 -12 -25t12 -25l194 -159q8 -8 19 -8q9 0 20 7
q10 7 11 25v320q-2 18 -12 25t-19 7v0zM224 32l-191 160l191 160v-320v0z" />
    <glyph glyph-name="forward-fast" unicode="&#xf050;" 
d="M182 227q12 -8 22 2q9 12 -2 23l-152 125q-9 7 -19 7q-13 0 -22 -9t-9 -23v-320q0 -14 9 -23t22 -9q10 0 19 7l152 125q11 11 2 23q-10 10 -22 2l-150 -125v320l150 -125v0zM496 384q-15 -1 -16 -16v-134l-174 143q-9 7 -19 7q-9 0 -20 -7q-10 -7 -11 -25v-320
q1 -18 11 -25q11 -7 20 -7q10 0 19 7l174 143v-134q1 -15 16 -16q15 1 16 16v352q-1 15 -16 16v0zM288 32v320l192 -160l-192 -160v0z" />
    <glyph glyph-name="forward-fast" unicode="&#x23ed;" 
d="M182 227q12 -8 22 2q9 12 -2 23l-152 125q-9 7 -19 7q-13 0 -22 -9t-9 -23v-320q0 -14 9 -23t22 -9q10 0 19 7l152 125q11 11 2 23q-10 10 -22 2l-150 -125v320l150 -125v0zM496 384q-15 -1 -16 -16v-134l-174 143q-9 7 -19 7q-9 0 -20 -7q-10 -7 -11 -25v-320
q1 -18 11 -25q11 -7 20 -7q10 0 19 7l174 143v-134q1 -15 16 -16q15 1 16 16v352q-1 15 -16 16v0zM288 32v320l192 -160l-192 -160v0z" />
    <glyph glyph-name="backward-fast" unicode="&#xf049;" 
d="M225 384q-11 0 -18 -7l-175 -143v134q-1 15 -16 16q-15 -1 -16 -16v-352q1 -15 16 -16q15 1 16 16v134l175 -143q7 -7 18 -7q9 0 20 7q10 8 11 26v319q-1 18 -11 25q-11 7 -20 7v0zM224 32l-191 160l191 160v-320v0zM481 384q-10 0 -19 -7l-152 -125q-11 -11 -2 -23
q10 -10 22 -2l150 125v-320l-150 125q-12 8 -22 -2q-9 -12 2 -23l152 -125q8 -7 19 -7q13 0 22 9t9 24v319q0 14 -9 23t-22 9v0z" />
    <glyph glyph-name="backward-fast" unicode="&#x23ee;" 
d="M225 384q-11 0 -18 -7l-175 -143v134q-1 15 -16 16q-15 -1 -16 -16v-352q1 -15 16 -16q15 1 16 16v134l175 -143q7 -7 18 -7q9 0 20 7q10 8 11 26v319q-1 18 -11 25q-11 7 -20 7v0zM224 32l-191 160l191 160v-320v0zM481 384q-10 0 -19 -7l-152 -125q-11 -11 -2 -23
q10 -10 22 -2l150 125v-320l-150 125q-12 8 -22 -2q-9 -12 2 -23l152 -125q8 -7 19 -7q13 0 22 9t9 24v319q0 14 -9 23t-22 9v0z" />
    <glyph glyph-name="alarm-clock" unicode="&#xf34e;" 
d="M272 152v120q-2 15 -15 16q-15 -1 -17 -16v-128q0 -8 6 -13l64 -48q1 0 2 -1q4 -2 7 -2q8 0 13 6q3 5 3 10q0 8 -6 13l-57 43v0zM42 291q10 10 3 23q-13 17 -13 38q1 27 19 45t45 19q21 0 38 -13q13 -7 23 3q7 13 -3 23q-26 19 -59 19q-41 -1 -68 -28t-28 -68
q0 -32 19 -58q7 -6 14 -6q4 0 8 3h2v0zM256 384q-63 -1 -113 -31v0q-51 -29 -80 -80v0q-30 -50 -31 -113q2 -86 55 -147l-50 -50q-10 -11 0 -22q5 -5 11 -5t11 5l50 50q61 -53 147 -55q86 2 147 55l50 -50q5 -5 11 -5t11 5q10 11 0 22l-50 50q53 61 55 147q-1 63 -31 113
q-30 51 -80 80q-50 30 -113 31v0zM256 -32q-81 2 -136 56v0q-54 55 -56 136q2 81 56 136q55 54 136 56q81 -2 136 -56q54 -55 56 -136q-2 -81 -56 -136q-55 -54 -136 -56v0zM415 448q-32 0 -58 -19q-10 -10 -3 -23q10 -11 23 -3q18 13 39 13q27 -1 45 -19t19 -45
q0 -21 -13 -38q-7 -13 3 -23q1 0 2 -1q4 -2 7 -2q8 0 13 6q20 27 19 58q-1 41 -28 68t-68 28v0z" />
    <glyph glyph-name="alarm-clock" unicode="&#x23f0;" 
d="M272 152v120q-2 15 -15 16q-15 -1 -17 -16v-128q0 -8 6 -13l64 -48q1 0 2 -1q4 -2 7 -2q8 0 13 6q3 5 3 10q0 8 -6 13l-57 43v0zM42 291q10 10 3 23q-13 17 -13 38q1 27 19 45t45 19q21 0 38 -13q13 -7 23 3q7 13 -3 23q-26 19 -59 19q-41 -1 -68 -28t-28 -68
q0 -32 19 -58q7 -6 14 -6q4 0 8 3h2v0zM256 384q-63 -1 -113 -31v0q-51 -29 -80 -80v0q-30 -50 -31 -113q2 -86 55 -147l-50 -50q-10 -11 0 -22q5 -5 11 -5t11 5l50 50q61 -53 147 -55q86 2 147 55l50 -50q5 -5 11 -5t11 5q10 11 0 22l-50 50q53 61 55 147q-1 63 -31 113
q-30 51 -80 80q-50 30 -113 31v0zM256 -32q-81 2 -136 56v0q-54 55 -56 136q2 81 56 136q55 54 136 56q81 -2 136 -56q54 -55 56 -136q-2 -81 -56 -136q-55 -54 -136 -56v0zM415 448q-32 0 -58 -19q-10 -10 -3 -23q10 -11 23 -3q18 13 39 13q27 -1 45 -19t19 -45
q0 -21 -13 -38q-7 -13 3 -23q1 0 2 -1q4 -2 7 -2q8 0 13 6q20 27 19 58q-1 41 -28 68t-68 28v0z" />
    <glyph glyph-name="stopwatch" unicode="&#xf2f2;" horiz-adv-x="448" 
d="M224 272q-15 -1 -16 -16v-144q1 -15 16 -16q15 1 16 16v144q-1 15 -16 16v0zM427 309q10 11 0 22q-11 10 -22 0l-37 -37q-52 50 -128 57v65h64q15 1 16 16q-1 15 -16 16h-160q-15 -1 -16 -16q1 -15 16 -16h64v-65q-82 -8 -136 -65q-54 -58 -56 -142q2 -88 61 -147
t147 -61q88 2 147 61t61 147q-1 73 -43 126l38 39v0zM400 144q-2 -75 -52 -124v0q-49 -50 -124 -52q-75 2 -124 52q-50 49 -52 124q2 75 51 124q50 50 125 52q75 -2 125 -51q49 -50 51 -125v0z" />
    <glyph glyph-name="stopwatch" unicode="&#x23f1;" horiz-adv-x="448" 
d="M224 272q-15 -1 -16 -16v-144q1 -15 16 -16q15 1 16 16v144q-1 15 -16 16v0zM427 309q10 11 0 22q-11 10 -22 0l-37 -37q-52 50 -128 57v65h64q15 1 16 16q-1 15 -16 16h-160q-15 -1 -16 -16q1 -15 16 -16h64v-65q-82 -8 -136 -65q-54 -58 -56 -142q2 -88 61 -147
t147 -61q88 2 147 61t61 147q-1 73 -43 126l38 39v0zM400 144q-2 -75 -52 -124v0q-49 -50 -124 -52q-75 2 -124 52q-50 49 -52 124q2 75 51 124q50 50 125 52q75 -2 125 -51q49 -50 51 -125v0z" />
    <glyph glyph-name="hourglass" unicode="&#xf254;" horiz-adv-x="384" 
d="M352 368q-1 15 -16 16q-15 -1 -16 -16q0 -43 -26 -77l-67 -89q-6 -10 0 -20l67 -89q26 -34 26 -77q1 -15 16 -16q15 1 16 16q-1 53 -32 96l-60 80l60 80q31 43 32 96v0zM32 16q1 -15 16 -16q15 1 16 16q0 43 26 77l67 89q6 10 0 20l-67 89q-26 34 -26 77q-1 15 -16 16
q-15 -1 -16 -16q1 -53 32 -96l60 -80l-60 -80q-31 -43 -32 -96v0zM368 -32h-352q-15 -1 -16 -16q1 -15 16 -16h352q15 1 16 16q-1 15 -16 16v0zM16 416h352q15 1 16 16q-1 15 -16 16h-352q-15 -1 -16 -16q1 -15 16 -16v0zM112 0h160q15 1 16 16q0 38 -19 72q-4 8 -14 8h-126
q-10 0 -14 -8q-19 -34 -19 -72q1 -15 16 -16v0zM139 64h106q7 -15 9 -32h-125q3 17 10 32v0zM180 214q5 -6 12 -6t12 6l50 59q8 10 15 23q4 8 0 16q-5 8 -14 8h-126q-10 0 -14 -8t0 -16q7 -13 15 -23l50 -59v0zM225 288l-33 -39l-32 39h65v0z" />
    <glyph glyph-name="hourglass" unicode="&#xf250;" horiz-adv-x="384" 
d="M352 368q-1 15 -16 16q-15 -1 -16 -16q0 -43 -26 -77l-67 -89q-6 -10 0 -20l67 -89q26 -34 26 -77q1 -15 16 -16q15 1 16 16q-1 53 -32 96l-60 80l60 80q31 43 32 96v0zM32 16q1 -15 16 -16q15 1 16 16q0 43 26 77l67 89q6 10 0 20l-67 89q-26 34 -26 77q-1 15 -16 16
q-15 -1 -16 -16q1 -53 32 -96l60 -80l-60 -80q-31 -43 -32 -96v0zM368 -32h-352q-15 -1 -16 -16q1 -15 16 -16h352q15 1 16 16q-1 15 -16 16v0zM16 416h352q15 1 16 16q-1 15 -16 16h-352q-15 -1 -16 -16q1 -15 16 -16v0zM112 0h160q15 1 16 16q0 38 -19 72q-4 8 -14 8h-126
q-10 0 -14 -8q-19 -34 -19 -72q1 -15 16 -16v0zM139 64h106q7 -15 9 -32h-125q3 17 10 32v0zM180 214q5 -6 12 -6t12 6l50 59q8 10 15 23q4 8 0 16q-5 8 -14 8h-126q-10 0 -14 -8t0 -16q7 -13 15 -23l50 -59v0zM225 288l-33 -39l-32 39h65v0z" />
    <glyph glyph-name="hourglass" unicode="&#x23f3;" horiz-adv-x="384" 
d="M352 368q-1 15 -16 16q-15 -1 -16 -16q0 -43 -26 -77l-67 -89q-6 -10 0 -20l67 -89q26 -34 26 -77q1 -15 16 -16q15 1 16 16q-1 53 -32 96l-60 80l60 80q31 43 32 96v0zM32 16q1 -15 16 -16q15 1 16 16q0 43 26 77l67 89q6 10 0 20l-67 89q-26 34 -26 77q-1 15 -16 16
q-15 -1 -16 -16q1 -53 32 -96l60 -80l-60 -80q-31 -43 -32 -96v0zM368 -32h-352q-15 -1 -16 -16q1 -15 16 -16h352q15 1 16 16q-1 15 -16 16v0zM16 416h352q15 1 16 16q-1 15 -16 16h-352q-15 -1 -16 -16q1 -15 16 -16v0zM112 0h160q15 1 16 16q0 38 -19 72q-4 8 -14 8h-126
q-10 0 -14 -8q-19 -34 -19 -72q1 -15 16 -16v0zM139 64h106q7 -15 9 -32h-125q3 17 10 32v0zM180 214q5 -6 12 -6t12 6l50 59q8 10 15 23q4 8 0 16q-5 8 -14 8h-126q-10 0 -14 -8t0 -16q7 -13 15 -23l50 -59v0zM225 288l-33 -39l-32 39h65v0z" />
    <glyph glyph-name="pause" unicode="&#xf04c;" horiz-adv-x="320" 
d="M48 385q-15 -2 -16 -17v-352q1 -15 16 -16q15 1 16 16v352q-1 15 -16 17v0zM272 385q-15 -1 -16 -16v-352q1 -15 16 -16q15 1 16 16v352q-1 14 -16 16v0z" />
    <glyph glyph-name="pause" unicode="&#x23f8;" horiz-adv-x="320" 
d="M48 385q-15 -2 -16 -17v-352q1 -15 16 -16q15 1 16 16v352q-1 15 -16 17v0zM272 385q-15 -1 -16 -16v-352q1 -15 16 -16q15 1 16 16v352q-1 14 -16 16v0z" />
    <glyph glyph-name="stop" unicode="&#xf04d;" horiz-adv-x="384" 
d="M320 384h-256q-27 -1 -45 -19t-19 -45v-255q1 -27 19 -45t45 -19h256q27 1 45 19t19 45v255q-1 27 -19 45t-45 19v0zM352 64q0 -14 -9 -23v0q-9 -9 -23 -9h-256q-14 0 -23 9t-9 23v256q0 14 9 23t23 9h256q14 0 23 -9t9 -23v-256v0z" />
    <glyph glyph-name="stop" unicode="&#x23f9;" horiz-adv-x="384" 
d="M320 384h-256q-27 -1 -45 -19t-19 -45v-255q1 -27 19 -45t45 -19h256q27 1 45 19t19 45v255q-1 27 -19 45t-45 19v0zM352 64q0 -14 -9 -23v0q-9 -9 -23 -9h-256q-14 0 -23 9t-9 23v256q0 14 9 23t23 9h256q14 0 23 -9t9 -23v-256v0z" />
    <glyph glyph-name="power-off" unicode="&#xf011;" 
d="M359 391q-13 5 -21 -7q-6 -14 7 -22q48 -25 75 -70q28 -45 28 -100q-2 -81 -56 -136q-55 -54 -136 -56q-81 2 -136 56q-54 55 -56 136q0 55 28 100q27 45 75 70q13 8 7 22q-8 12 -21 7q-57 -30 -89 -83q-31 -52 -32 -116q1 -62 31 -113q30 -50 80 -80q51 -30 113 -31
q62 1 113 31q50 30 80 80q30 51 31 113q-1 64 -32 116q-32 53 -89 83v0zM255 160q16 1 17 16v256q-2 15 -15 16q-15 -1 -17 -16v-256q2 -15 15 -16v0z" />
    <glyph glyph-name="power-off" unicode="&#x23fb;" 
d="M359 391q-13 5 -21 -7q-6 -14 7 -22q48 -25 75 -70q28 -45 28 -100q-2 -81 -56 -136q-55 -54 -136 -56q-81 2 -136 56q-54 55 -56 136q0 55 28 100q27 45 75 70q13 8 7 22q-8 12 -21 7q-57 -30 -89 -83q-31 -52 -32 -116q1 -62 31 -113q30 -50 80 -80q51 -30 113 -31
q62 1 113 31q50 30 80 80q30 51 31 113q-1 64 -32 116q-32 53 -89 83v0zM255 160q16 1 17 16v256q-2 15 -15 16q-15 -1 -17 -16v-256q2 -15 15 -16v0z" />
    <glyph glyph-name="moon" unicode="&#x1f319;" 
d="M428 80q-9 15 -26 12q-67 -11 -120 31q-52 45 -53 114q0 40 20 74q19 33 53 53q15 10 13 27q-4 17 -21 21q-20 4 -40 4q-62 -1 -112 -31t-80 -80q-29 -51 -30 -113q1 -62 30 -113q30 -50 80 -80t112 -31q51 0 95 22q45 21 77 61q11 14 2 29v0zM254 0q-81 2 -134 56v0
q-54 55 -56 136q2 81 56 136q53 54 134 56q8 0 18 -1q-35 -26 -55 -64t-20 -82q0 -41 17 -77t48 -62q57 -45 128 -39q-56 -58 -136 -59v0z" />
    <glyph glyph-name="moon" unicode="&#xf186;" 
d="M428 80q-9 15 -26 12q-67 -11 -120 31q-52 45 -53 114q0 40 20 74q19 33 53 53q15 10 13 27q-4 17 -21 21q-20 4 -40 4q-62 -1 -112 -31t-80 -80q-29 -51 -30 -113q1 -62 30 -113q30 -50 80 -80t112 -31q51 0 95 22q45 21 77 61q11 14 2 29v0zM254 0q-81 2 -134 56v0
q-54 55 -56 136q2 81 56 136q53 54 134 56q8 0 18 -1q-35 -26 -55 -64t-20 -82q0 -41 17 -77t48 -62q57 -45 128 -39q-56 -58 -136 -59v0z" />
    <glyph glyph-name="moon" unicode="&#x23fe;" 
d="M428 80q-9 15 -26 12q-67 -11 -120 31q-52 45 -53 114q0 40 20 74q19 33 53 53q15 10 13 27q-4 17 -21 21q-20 4 -40 4q-62 -1 -112 -31t-80 -80q-29 -51 -30 -113q1 -62 30 -113q30 -50 80 -80t112 -31q51 0 95 22q45 21 77 61q11 14 2 29v0zM254 0q-81 2 -134 56v0
q-54 55 -56 136q2 81 56 136q53 54 134 56q8 0 18 -1q-35 -26 -55 -64t-20 -82q0 -41 17 -77t48 -62q57 -45 128 -39q-56 -58 -136 -59v0z" />
    <glyph glyph-name="circle-h" unicode="&#xf47e;" 
d="M256 448q-72 -1 -129 -35v0q-58 -34 -92 -92v0q-34 -57 -35 -129q1 -72 35 -129q34 -58 92 -92q57 -34 129 -35q72 1 129 35q58 34 92 92q34 57 35 129q-1 72 -35 129q-34 58 -92 92q-57 34 -129 35v0zM256 -32q-62 1 -113 31v0q-50 30 -80 80v0q-30 51 -31 113
q1 62 31 113q30 50 80 80q51 30 113 31q62 -1 113 -31q50 -30 80 -80q30 -51 31 -113q-1 -62 -31 -113q-30 -50 -80 -80q-51 -30 -113 -31v0zM336 320q-15 -1 -16 -16v-96h-128v96q-1 15 -16 16q-15 -1 -16 -16v-224q1 -15 16 -16q15 1 16 16v96h128v-96q1 -15 16 -16
q15 1 16 16v224q-1 15 -16 16v0z" />
    <glyph glyph-name="circle-h" unicode="&#x24bd;" 
d="M256 448q-72 -1 -129 -35v0q-58 -34 -92 -92v0q-34 -57 -35 -129q1 -72 35 -129q34 -58 92 -92q57 -34 129 -35q72 1 129 35q58 34 92 92q34 57 35 129q-1 72 -35 129q-34 58 -92 92q-57 34 -129 35v0zM256 -32q-62 1 -113 31v0q-50 30 -80 80v0q-30 51 -31 113
q1 62 31 113q30 50 80 80q51 30 113 31q62 -1 113 -31q50 -30 80 -80q30 -51 31 -113q-1 -62 -31 -113q-30 -50 -80 -80q-51 -30 -113 -31v0zM336 320q-15 -1 -16 -16v-96h-128v96q-1 15 -16 16q-15 -1 -16 -16v-224q1 -15 16 -16q15 1 16 16v96h128v-96q1 -15 16 -16
q15 1 16 16v224q-1 15 -16 16v0z" />
    <glyph glyph-name="square" unicode="&#xf0c8;" horiz-adv-x="448" 
d="M384 417h-320q-27 -1 -45 -19t-19 -44v-320q1 -27 19 -45q18 -19 45 -19h320q27 0 45 19q18 18 19 45v320q-1 26 -19 44t-45 19v0zM416 32q0 -14 -9 -23v0q-9 -9 -23 -9h-320q-14 0 -23 9t-9 23v320q0 14 9 23t23 9h320q14 0 23 -9t9 -23v-320v0z" />
    <glyph glyph-name="square" unicode="&#xf096;" horiz-adv-x="448" 
d="M384 417h-320q-27 -1 -45 -19t-19 -44v-320q1 -27 19 -45q18 -19 45 -19h320q27 0 45 19q18 18 19 45v320q-1 26 -19 44t-45 19v0zM416 32q0 -14 -9 -23v0q-9 -9 -23 -9h-320q-14 0 -23 9t-9 23v320q0 14 9 23t23 9h320q14 0 23 -9t9 -23v-320v0z" />
    <glyph glyph-name="square" unicode="&#x25fc;" horiz-adv-x="448" 
d="M384 417h-320q-27 -1 -45 -19t-19 -44v-320q1 -27 19 -45q18 -19 45 -19h320q27 0 45 19q18 18 19 45v320q-1 26 -19 44t-45 19v0zM416 32q0 -14 -9 -23v0q-9 -9 -23 -9h-320q-14 0 -23 9t-9 23v320q0 14 9 23t23 9h320q14 0 23 -9t9 -23v-320v0z" />
    <glyph glyph-name="square" unicode="&#x25fb;" horiz-adv-x="448" 
d="M384 417h-320q-27 -1 -45 -19t-19 -44v-320q1 -27 19 -45q18 -19 45 -19h320q27 0 45 19q18 18 19 45v320q-1 26 -19 44t-45 19v0zM416 32q0 -14 -9 -23v0q-9 -9 -23 -9h-320q-14 0 -23 9t-9 23v320q0 14 9 23t23 9h320q14 0 23 -9t9 -23v-320v0z" />
    <glyph glyph-name="square" unicode="&#x25a0;" horiz-adv-x="448" 
d="M384 417h-320q-27 -1 -45 -19t-19 -44v-320q1 -27 19 -45q18 -19 45 -19h320q27 0 45 19q18 18 19 45v320q-1 26 -19 44t-45 19v0zM416 32q0 -14 -9 -23v0q-9 -9 -23 -9h-320q-14 0 -23 9t-9 23v320q0 14 9 23t23 9h320q14 0 23 -9t9 -23v-320v0z" />
    <glyph glyph-name="rectangle" unicode="&#xf2fa;" 
d="M448 385h-384q-27 -1 -45 -19t-19 -44v-256q1 -27 19 -45q18 -19 45 -19h384q27 0 45 19q18 18 19 45v256q-1 26 -19 44t-45 19v0zM480 64q0 -14 -9 -23v0q-9 -9 -23 -9h-384q-14 0 -23 9t-9 23v256q0 14 9 23t23 9h384q14 0 23 -9t9 -23v-256v0z" />
    <glyph glyph-name="rectangle" unicode="&#x25ac;" 
d="M448 385h-384q-27 -1 -45 -19t-19 -44v-256q1 -27 19 -45q18 -19 45 -19h384q27 0 45 19q18 18 19 45v256q-1 26 -19 44t-45 19v0zM480 64q0 -14 -9 -23v0q-9 -9 -23 -9h-384q-14 0 -23 9t-9 23v256q0 14 9 23t23 9h384q14 0 23 -9t9 -23v-256v0z" />
    <glyph glyph-name="triangle" unicode="&#xf2ec;" 
d="M506 31l-213 364q-14 21 -38 21q-23 0 -37 -21l-213 -364q-12 -22 0 -42q11 -20 36 -21h428q26 1 37 21q12 20 0 42v0zM479 5q-2 -4 -10 -5h-426q-8 1 -10 5t0 10l214 364q5 6 8 5q5 1 9 -5l214 -364q3 -6 1 -10v0z" />
    <glyph glyph-name="triangle" unicode="&#x25b2;" 
d="M506 31l-213 364q-14 21 -38 21q-23 0 -37 -21l-213 -364q-12 -22 0 -42q11 -20 36 -21h428q26 1 37 21q12 20 0 42v0zM479 5q-2 -4 -10 -5h-426q-8 1 -10 5t0 10l214 364q5 6 8 5q5 1 9 -5l214 -364q3 -6 1 -10v0z" />
    <glyph glyph-name="play" unicode="&#xf04b;" 
d="M489 233l-288 176q-12 7 -25 7q-21 -1 -34 -14q-14 -14 -14 -34v-352q0 -20 14 -34q13 -13 34 -14q13 0 25 7l288 176q22 15 23 41q-1 26 -23 41v0zM472 178l-287 -175q-5 -3 -9 -3q-15 2 -16 16v352q1 14 16 16q5 0 8 -2l287 -176q9 -5 9 -14t-8 -14v0z" />
    <glyph glyph-name="play" unicode="&#x25b6;" 
d="M489 233l-288 176q-12 7 -25 7q-21 -1 -34 -14q-14 -14 -14 -34v-352q0 -20 14 -34q13 -13 34 -14q13 0 25 7l288 176q22 15 23 41q-1 26 -23 41v0zM472 178l-287 -175q-5 -3 -9 -3q-15 2 -16 16v352q1 14 16 16q5 0 8 -2l287 -176q9 -5 9 -14t-8 -14v0z" />
    <glyph glyph-name="circle" unicode="&#x1f7e4;" 
d="M256 448q-72 -1 -129 -35v0q-58 -34 -92 -92v0q-34 -57 -35 -129q1 -72 35 -129q34 -58 92 -92q57 -34 129 -35q72 1 129 35q58 34 92 92q34 57 35 129q-1 72 -35 129q-34 58 -92 92q-57 34 -129 35v0zM256 -32q-62 1 -113 31v0q-50 30 -80 80v0q-30 51 -31 113
q1 62 31 113q30 50 80 80q51 30 113 31q62 -1 113 -31q50 -30 80 -80q30 -51 31 -113q-1 -62 -31 -113q-30 -50 -80 -80q-51 -30 -113 -31v0z" />
    <glyph glyph-name="circle" unicode="&#x1f7e3;" 
d="M256 448q-72 -1 -129 -35v0q-58 -34 -92 -92v0q-34 -57 -35 -129q1 -72 35 -129q34 -58 92 -92q57 -34 129 -35q72 1 129 35q58 34 92 92q34 57 35 129q-1 72 -35 129q-34 58 -92 92q-57 34 -129 35v0zM256 -32q-62 1 -113 31v0q-50 30 -80 80v0q-30 51 -31 113
q1 62 31 113q30 50 80 80q51 30 113 31q62 -1 113 -31q50 -30 80 -80q30 -51 31 -113q-1 -62 -31 -113q-30 -50 -80 -80q-51 -30 -113 -31v0z" />
    <glyph glyph-name="circle" unicode="&#x1f7e2;" 
d="M256 448q-72 -1 -129 -35v0q-58 -34 -92 -92v0q-34 -57 -35 -129q1 -72 35 -129q34 -58 92 -92q57 -34 129 -35q72 1 129 35q58 34 92 92q34 57 35 129q-1 72 -35 129q-34 58 -92 92q-57 34 -129 35v0zM256 -32q-62 1 -113 31v0q-50 30 -80 80v0q-30 51 -31 113
q1 62 31 113q30 50 80 80q51 30 113 31q62 -1 113 -31q50 -30 80 -80q30 -51 31 -113q-1 -62 -31 -113q-30 -50 -80 -80q-51 -30 -113 -31v0z" />
    <glyph glyph-name="circle" unicode="&#x1f7e1;" 
d="M256 448q-72 -1 -129 -35v0q-58 -34 -92 -92v0q-34 -57 -35 -129q1 -72 35 -129q34 -58 92 -92q57 -34 129 -35q72 1 129 35q58 34 92 92q34 57 35 129q-1 72 -35 129q-34 58 -92 92q-57 34 -129 35v0zM256 -32q-62 1 -113 31v0q-50 30 -80 80v0q-30 51 -31 113
q1 62 31 113q30 50 80 80q51 30 113 31q62 -1 113 -31q50 -30 80 -80q30 -51 31 -113q-1 -62 -31 -113q-30 -50 -80 -80q-51 -30 -113 -31v0z" />
    <glyph glyph-name="circle" unicode="&#x1f7e0;" 
d="M256 448q-72 -1 -129 -35v0q-58 -34 -92 -92v0q-34 -57 -35 -129q1 -72 35 -129q34 -58 92 -92q57 -34 129 -35q72 1 129 35q58 34 92 92q34 57 35 129q-1 72 -35 129q-34 58 -92 92q-57 34 -129 35v0zM256 -32q-62 1 -113 31v0q-50 30 -80 80v0q-30 51 -31 113
q1 62 31 113q30 50 80 80q51 30 113 31q62 -1 113 -31q50 -30 80 -80q30 -51 31 -113q-1 -62 -31 -113q-30 -50 -80 -80q-51 -30 -113 -31v0z" />
    <glyph glyph-name="circle" unicode="&#x1f535;" 
d="M256 448q-72 -1 -129 -35v0q-58 -34 -92 -92v0q-34 -57 -35 -129q1 -72 35 -129q34 -58 92 -92q57 -34 129 -35q72 1 129 35q58 34 92 92q34 57 35 129q-1 72 -35 129q-34 58 -92 92q-57 34 -129 35v0zM256 -32q-62 1 -113 31v0q-50 30 -80 80v0q-30 51 -31 113
q1 62 31 113q30 50 80 80q51 30 113 31q62 -1 113 -31q50 -30 80 -80q30 -51 31 -113q-1 -62 -31 -113q-30 -50 -80 -80q-51 -30 -113 -31v0z" />
    <glyph glyph-name="circle" unicode="&#x1f534;" 
d="M256 448q-72 -1 -129 -35v0q-58 -34 -92 -92v0q-34 -57 -35 -129q1 -72 35 -129q34 -58 92 -92q57 -34 129 -35q72 1 129 35q58 34 92 92q34 57 35 129q-1 72 -35 129q-34 58 -92 92q-57 34 -129 35v0zM256 -32q-62 1 -113 31v0q-50 30 -80 80v0q-30 51 -31 113
q1 62 31 113q30 50 80 80q51 30 113 31q62 -1 113 -31q50 -30 80 -80q30 -51 31 -113q-1 -62 -31 -113q-30 -50 -80 -80q-51 -30 -113 -31v0z" />
    <glyph glyph-name="circle" unicode="&#xf1db;" 
d="M256 448q-72 -1 -129 -35v0q-58 -34 -92 -92v0q-34 -57 -35 -129q1 -72 35 -129q34 -58 92 -92q57 -34 129 -35q72 1 129 35q58 34 92 92q34 57 35 129q-1 72 -35 129q-34 58 -92 92q-57 34 -129 35v0zM256 -32q-62 1 -113 31v0q-50 30 -80 80v0q-30 51 -31 113
q1 62 31 113q30 50 80 80q51 30 113 31q62 -1 113 -31q50 -30 80 -80q30 -51 31 -113q-1 -62 -31 -113q-30 -50 -80 -80q-51 -30 -113 -31v0z" />
    <glyph glyph-name="circle" unicode="&#xf111;" 
d="M256 448q-72 -1 -129 -35v0q-58 -34 -92 -92v0q-34 -57 -35 -129q1 -72 35 -129q34 -58 92 -92q57 -34 129 -35q72 1 129 35q58 34 92 92q34 57 35 129q-1 72 -35 129q-34 58 -92 92q-57 34 -129 35v0zM256 -32q-62 1 -113 31v0q-50 30 -80 80v0q-30 51 -31 113
q1 62 31 113q30 50 80 80q51 30 113 31q62 -1 113 -31q50 -30 80 -80q30 -51 31 -113q-1 -62 -31 -113q-30 -50 -80 -80q-51 -30 -113 -31v0z" />
    <glyph glyph-name="circle" unicode="&#xf10c;" 
d="M256 448q-72 -1 -129 -35v0q-58 -34 -92 -92v0q-34 -57 -35 -129q1 -72 35 -129q34 -58 92 -92q57 -34 129 -35q72 1 129 35q58 34 92 92q34 57 35 129q-1 72 -35 129q-34 58 -92 92q-57 34 -129 35v0zM256 -32q-62 1 -113 31v0q-50 30 -80 80v0q-30 51 -31 113
q1 62 31 113q30 50 80 80q51 30 113 31q62 -1 113 -31q50 -30 80 -80q30 -51 31 -113q-1 -62 -31 -113q-30 -50 -80 -80q-51 -30 -113 -31v0z" />
    <glyph glyph-name="circle" unicode="&#x2b24;" 
d="M256 448q-72 -1 -129 -35v0q-58 -34 -92 -92v0q-34 -57 -35 -129q1 -72 35 -129q34 -58 92 -92q57 -34 129 -35q72 1 129 35q58 34 92 92q34 57 35 129q-1 72 -35 129q-34 58 -92 92q-57 34 -129 35v0zM256 -32q-62 1 -113 31v0q-50 30 -80 80v0q-30 51 -31 113
q1 62 31 113q30 50 80 80q51 30 113 31q62 -1 113 -31q50 -30 80 -80q30 -51 31 -113q-1 -62 -31 -113q-30 -50 -80 -80q-51 -30 -113 -31v0z" />
    <glyph glyph-name="circle" unicode="&#x26ab;" 
d="M256 448q-72 -1 -129 -35v0q-58 -34 -92 -92v0q-34 -57 -35 -129q1 -72 35 -129q34 -58 92 -92q57 -34 129 -35q72 1 129 35q58 34 92 92q34 57 35 129q-1 72 -35 129q-34 58 -92 92q-57 34 -129 35v0zM256 -32q-62 1 -113 31v0q-50 30 -80 80v0q-30 51 -31 113
q1 62 31 113q30 50 80 80q51 30 113 31q62 -1 113 -31q50 -30 80 -80q30 -51 31 -113q-1 -62 -31 -113q-30 -50 -80 -80q-51 -30 -113 -31v0z" />
    <glyph glyph-name="circle" unicode="&#x26aa;" 
d="M256 448q-72 -1 -129 -35v0q-58 -34 -92 -92v0q-34 -57 -35 -129q1 -72 35 -129q34 -58 92 -92q57 -34 129 -35q72 1 129 35q58 34 92 92q34 57 35 129q-1 72 -35 129q-34 58 -92 92q-57 34 -129 35v0zM256 -32q-62 1 -113 31v0q-50 30 -80 80v0q-30 51 -31 113
q1 62 31 113q30 50 80 80q51 30 113 31q62 -1 113 -31q50 -30 80 -80q30 -51 31 -113q-1 -62 -31 -113q-30 -50 -80 -80q-51 -30 -113 -31v0z" />
    <glyph glyph-name="circle" unicode="&#x25cf;" 
d="M256 448q-72 -1 -129 -35v0q-58 -34 -92 -92v0q-34 -57 -35 -129q1 -72 35 -129q34 -58 92 -92q57 -34 129 -35q72 1 129 35q58 34 92 92q34 57 35 129q-1 72 -35 129q-34 58 -92 92q-57 34 -129 35v0zM256 -32q-62 1 -113 31v0q-50 30 -80 80v0q-30 51 -31 113
q1 62 31 113q30 50 80 80q51 30 113 31q62 -1 113 -31q50 -30 80 -80q30 -51 31 -113q-1 -62 -31 -113q-30 -50 -80 -80q-51 -30 -113 -31v0z" />
    <glyph glyph-name="circle-half-stroke" unicode="&#xf042;" 
d="M256 448q-72 -1 -129 -35v0q-58 -34 -92 -92v0q-34 -57 -35 -129q1 -72 35 -129q34 -58 92 -92q57 -34 129 -35q72 1 129 35q58 34 92 92q34 57 35 129q-1 72 -35 129q-34 58 -92 92q-57 34 -129 35v0zM32 192q2 91 60 153v0q59 62 148 70v-446q-90 8 -148 70t-60 153v0z
M272 -31v446q89 -8 148 -70q58 -62 60 -153q-2 -91 -60 -153q-59 -62 -148 -70v0z" />
    <glyph glyph-name="circle-half-stroke" unicode="&#x25d0;" 
d="M256 448q-72 -1 -129 -35v0q-58 -34 -92 -92v0q-34 -57 -35 -129q1 -72 35 -129q34 -58 92 -92q57 -34 129 -35q72 1 129 35q58 34 92 92q34 57 35 129q-1 72 -35 129q-34 58 -92 92q-57 34 -129 35v0zM32 192q2 91 60 153v0q59 62 148 70v-446q-90 8 -148 70t-60 153v0z
M272 -31v446q89 -8 148 -70q58 -62 60 -153q-2 -91 -60 -153q-59 -62 -148 -70v0z" />
    <glyph glyph-name="sun" unicode="&#xf185;" 
d="M256 320q-54 -1 -90 -37v0q-36 -36 -37 -90q1 -54 37 -90q36 -37 90 -38q54 1 90 37t37 90q-1 54 -37 90q-36 37 -90 38v0zM256 97q-41 1 -67 28v0q-27 27 -28 67q0 41 27 69q27 27 68 28q41 -1 68 -28q26 -27 27 -67q-1 -42 -28 -69q-26 -27 -67 -28v0zM454 192l53 76
q9 14 3 29q-7 15 -23 18l-91 17l-17 91q-3 16 -18 23q-15 5 -29 -3l-76 -53l-76 53q-14 9 -29 3q-15 -7 -18 -23l-17 -91l-91 -17q-16 -3 -23 -18q-6 -15 3 -29l53 -76l-53 -76q-9 -14 -3 -29q7 -15 23 -18l91 -17l17 -91q3 -16 18 -23q6 -2 12 -2q9 0 17 5l76 53l76 -53
q14 -9 29 -3q15 7 18 23l17 91l91 17q16 3 23 18q6 15 -3 29l-53 76v0zM379 82q-10 -3 -13 -13l-16 -101l-85 59q-9 6 -18 0l-83 -60l-18 102q-3 10 -13 13l-101 16l59 85q6 9 0 18l-60 83l102 18q10 3 13 13l16 101l85 -59q9 -6 18 0l83 60l18 -102q3 -10 13 -13l101 -16
l-59 -85q-6 -9 0 -18l58 -83l-100 -18v0z" />
    <glyph glyph-name="sun" unicode="&#x2600;" 
d="M256 320q-54 -1 -90 -37v0q-36 -36 -37 -90q1 -54 37 -90q36 -37 90 -38q54 1 90 37t37 90q-1 54 -37 90q-36 37 -90 38v0zM256 97q-41 1 -67 28v0q-27 27 -28 67q0 41 27 69q27 27 68 28q41 -1 68 -28q26 -27 27 -67q-1 -42 -28 -69q-26 -27 -67 -28v0zM454 192l53 76
q9 14 3 29q-7 15 -23 18l-91 17l-17 91q-3 16 -18 23q-15 5 -29 -3l-76 -53l-76 53q-14 9 -29 3q-15 -7 -18 -23l-17 -91l-91 -17q-16 -3 -23 -18q-6 -15 3 -29l53 -76l-53 -76q-9 -14 -3 -29q7 -15 23 -18l91 -17l17 -91q3 -16 18 -23q6 -2 12 -2q9 0 17 5l76 53l76 -53
q14 -9 29 -3q15 7 18 23l17 91l91 17q16 3 23 18q6 15 -3 29l-53 76v0zM379 82q-10 -3 -13 -13l-16 -101l-85 59q-9 6 -18 0l-83 -60l-18 102q-3 10 -13 13l-101 16l59 85q6 9 0 18l-60 83l102 18q10 3 13 13l16 101l85 -59q9 -6 18 0l83 60l18 -102q3 -10 13 -13l101 -16
l-59 -85q-6 -9 0 -18l58 -83l-100 -18v0z" />
    <glyph glyph-name="cloud" unicode="&#xf0c2;" horiz-adv-x="640" 
d="M572 209q4 15 4 31q-1 48 -33 79q-31 32 -79 33q-25 0 -48 -11q-24 34 -61 54q-38 21 -83 21q-73 -2 -122 -49t-54 -119q-43 -16 -69 -52q-26 -37 -27 -84q2 -61 42 -102q41 -40 102 -42h368q54 1 91 37q36 37 37 91q0 36 -18 66t-50 47v0zM508 0h-358q-46 1 -79 28
q-33 28 -38 72q-4 44 19 76q23 33 62 45q13 3 14 18l-1 1q1 47 26 83q26 37 70 53q54 17 100 -1t72 -60q11 -15 28 -6q26 16 60 9q43 -11 57 -54q9 -30 -2 -55q-5 -17 12 -24q28 -12 44 -39q17 -26 13 -60q-5 -38 -33 -62q-28 -23 -66 -24v0z" />
    <glyph glyph-name="cloud" unicode="&#x2601;" horiz-adv-x="640" 
d="M572 209q4 15 4 31q-1 48 -33 79q-31 32 -79 33q-25 0 -48 -11q-24 34 -61 54q-38 21 -83 21q-73 -2 -122 -49t-54 -119q-43 -16 -69 -52q-26 -37 -27 -84q2 -61 42 -102q41 -40 102 -42h368q54 1 91 37q36 37 37 91q0 36 -18 66t-50 47v0zM508 0h-358q-46 1 -79 28
q-33 28 -38 72q-4 44 19 76q23 33 62 45q13 3 14 18l-1 1q1 47 26 83q26 37 70 53q54 17 100 -1t72 -60q11 -15 28 -6q26 16 60 9q43 -11 57 -54q9 -30 -2 -55q-5 -17 12 -24q28 -12 44 -39q17 -26 13 -60q-5 -38 -33 -62q-28 -23 -66 -24v0z" />
    <glyph glyph-name="snowman" unicode="&#xf7d0;" 
d="M256 88q-21 -2 -23 -24q2 -22 23 -24q21 2 23 24q-2 22 -23 24v0zM256 168q-21 -2 -23 -24q2 -22 23 -24q21 2 23 24q-2 22 -23 24v0zM256 248q-22 -2 -24 -24q2 -22 24 -24q21 2 23 24q-2 22 -23 24v0zM240 369q-2 14 -15 15q-14 -2 -15 -15q0 -14 14 -16q15 1 16 16v0z
M287 385q-14 -2 -15 -15q2 -14 15 -15q14 1 15 15q0 13 -15 15v0zM510 294q-6 13 -21 9l-42 -16v49q-1 15 -15 16q-14 -1 -15 -16v-61l-47 -18q-8 20 -22 37q11 23 11 50q-1 44 -30 74q-30 29 -74 30q-44 -1 -73 -30q-29 -30 -30 -74q0 -27 13 -50q-14 -17 -22 -37l-47 18
v61q-2 15 -15 16q-15 -1 -17 -16v-49l-42 16q-15 4 -21 -9q-4 -15 9 -21l127 -47v-4q-1 -3 -1 -6q0 -17 5 -34q-44 -46 -45 -110q0 -41 19 -76t53 -57q13 -7 22 4q7 13 -5 22q-27 19 -42 46q-15 28 -15 61q1 56 42 94q8 8 4 18q-6 16 -6 32q1 38 28 64q9 10 2 21
q-14 20 -14 43q1 31 21 51t51 21q30 -1 50 -21t21 -51q0 -23 -14 -43q-7 -11 2 -21q28 -26 28 -64q0 -16 -6 -32q-4 -10 4 -18q41 -38 42 -94q0 -33 -15 -61q-15 -27 -42 -46q-12 -9 -5 -22q7 -7 15 -7q4 0 8 3q34 23 53 57q19 35 19 76q-1 64 -45 110q5 17 4 34v6
q-1 2 -1 4l127 47q14 6 9 21v0zM256 296q14 1 15 16v16q-1 15 -15 16q-14 -1 -15 -16v-16q0 -15 15 -16v0z" />
    <glyph glyph-name="snowman" unicode="&#x26c4;" 
d="M256 88q-21 -2 -23 -24q2 -22 23 -24q21 2 23 24q-2 22 -23 24v0zM256 168q-21 -2 -23 -24q2 -22 23 -24q21 2 23 24q-2 22 -23 24v0zM256 248q-22 -2 -24 -24q2 -22 24 -24q21 2 23 24q-2 22 -23 24v0zM240 369q-2 14 -15 15q-14 -2 -15 -15q0 -14 14 -16q15 1 16 16v0z
M287 385q-14 -2 -15 -15q2 -14 15 -15q14 1 15 15q0 13 -15 15v0zM510 294q-6 13 -21 9l-42 -16v49q-1 15 -15 16q-14 -1 -15 -16v-61l-47 -18q-8 20 -22 37q11 23 11 50q-1 44 -30 74q-30 29 -74 30q-44 -1 -73 -30q-29 -30 -30 -74q0 -27 13 -50q-14 -17 -22 -37l-47 18
v61q-2 15 -15 16q-15 -1 -17 -16v-49l-42 16q-15 4 -21 -9q-4 -15 9 -21l127 -47v-4q-1 -3 -1 -6q0 -17 5 -34q-44 -46 -45 -110q0 -41 19 -76t53 -57q13 -7 22 4q7 13 -5 22q-27 19 -42 46q-15 28 -15 61q1 56 42 94q8 8 4 18q-6 16 -6 32q1 38 28 64q9 10 2 21
q-14 20 -14 43q1 31 21 51t51 21q30 -1 50 -21t21 -51q0 -23 -14 -43q-7 -11 2 -21q28 -26 28 -64q0 -16 -6 -32q-4 -10 4 -18q41 -38 42 -94q0 -33 -15 -61q-15 -27 -42 -46q-12 -9 -5 -22q7 -7 15 -7q4 0 8 3q34 23 53 57q19 35 19 76q-1 64 -45 110q5 17 4 34v6
q-1 2 -1 4l127 47q14 6 9 21v0zM256 296q14 1 15 16v16q-1 15 -15 16q-14 -1 -15 -16v-16q0 -15 15 -16v0z" />
    <glyph glyph-name="snowman" unicode="&#x2603;" 
d="M256 88q-21 -2 -23 -24q2 -22 23 -24q21 2 23 24q-2 22 -23 24v0zM256 168q-21 -2 -23 -24q2 -22 23 -24q21 2 23 24q-2 22 -23 24v0zM256 248q-22 -2 -24 -24q2 -22 24 -24q21 2 23 24q-2 22 -23 24v0zM240 369q-2 14 -15 15q-14 -2 -15 -15q0 -14 14 -16q15 1 16 16v0z
M287 385q-14 -2 -15 -15q2 -14 15 -15q14 1 15 15q0 13 -15 15v0zM510 294q-6 13 -21 9l-42 -16v49q-1 15 -15 16q-14 -1 -15 -16v-61l-47 -18q-8 20 -22 37q11 23 11 50q-1 44 -30 74q-30 29 -74 30q-44 -1 -73 -30q-29 -30 -30 -74q0 -27 13 -50q-14 -17 -22 -37l-47 18
v61q-2 15 -15 16q-15 -1 -17 -16v-49l-42 16q-15 4 -21 -9q-4 -15 9 -21l127 -47v-4q-1 -3 -1 -6q0 -17 5 -34q-44 -46 -45 -110q0 -41 19 -76t53 -57q13 -7 22 4q7 13 -5 22q-27 19 -42 46q-15 28 -15 61q1 56 42 94q8 8 4 18q-6 16 -6 32q1 38 28 64q9 10 2 21
q-14 20 -14 43q1 31 21 51t51 21q30 -1 50 -21t21 -51q0 -23 -14 -43q-7 -11 2 -21q28 -26 28 -64q0 -16 -6 -32q-4 -10 4 -18q41 -38 42 -94q0 -33 -15 -61q-15 -27 -42 -46q-12 -9 -5 -22q7 -7 15 -7q4 0 8 3q34 23 53 57q19 35 19 76q-1 64 -45 110q5 17 4 34v6
q-1 2 -1 4l127 47q14 6 9 21v0zM256 296q14 1 15 16v16q-1 15 -15 16q-14 -1 -15 -16v-16q0 -15 15 -16v0z" />
    <glyph glyph-name="meteor" unicode="&#xf753;" 
d="M510 416q-8 -26 -24 -74v0q-16 -48 -35 -93l6 -2q1 0 2 -1q13 -4 20 -17q5 -14 -1 -27q-12 -22 -34 -60q-21 -38 -49 -78q-27 -40 -57 -70q-61 -58 -140 -58t-140 58q-58 61 -58 140q0 80 58 141q30 29 70 57t78 49q38 22 60 33q13 7 27 2q12 -6 17 -20q1 -2 2 -5
q0 -2 1 -3q46 19 93 35q48 16 74 24q14 3 25 -6q10 -11 5 -25v0zM476 412q-32 -10 -79 -26v0q-47 -16 -88 -35l-16 -8q-1 3 -6 20q-5 16 -7 23q-21 -11 -58 -32q-36 -21 -74 -47q-39 -27 -67 -55q-49 -51 -49 -117q0 -67 49 -118q51 -49 117 -49q67 0 118 49q28 28 55 67
q26 39 47 75t32 58q-8 2 -21 6h-3l-18 6l7 16q19 41 35 88t26 79v0zM328 137q-2 -54 -38 -90v0q-35 -37 -89 -38q-54 1 -90 37q-36 37 -37 91q1 54 37 90q36 37 90 38q53 -2 89 -38t38 -90v0zM296 137q-1 41 -28 68v0q-27 27 -68 28q-41 -1 -68 -28t-28 -68q1 -41 28 -68
t68 -28q41 1 67 28q27 27 29 68v0zM208 169q-2 -22 -23 -24q-22 2 -23 24q2 22 23 24q10 0 16 -7q7 -9 7 -17v0zM240 97q-1 -15 -16 -16q-14 1 -15 16q1 14 16 16q13 -3 15 -16v0z" />
    <glyph glyph-name="meteor" unicode="&#x2604;" 
d="M510 416q-8 -26 -24 -74v0q-16 -48 -35 -93l6 -2q1 0 2 -1q13 -4 20 -17q5 -14 -1 -27q-12 -22 -34 -60q-21 -38 -49 -78q-27 -40 -57 -70q-61 -58 -140 -58t-140 58q-58 61 -58 140q0 80 58 141q30 29 70 57t78 49q38 22 60 33q13 7 27 2q12 -6 17 -20q1 -2 2 -5
q0 -2 1 -3q46 19 93 35q48 16 74 24q14 3 25 -6q10 -11 5 -25v0zM476 412q-32 -10 -79 -26v0q-47 -16 -88 -35l-16 -8q-1 3 -6 20q-5 16 -7 23q-21 -11 -58 -32q-36 -21 -74 -47q-39 -27 -67 -55q-49 -51 -49 -117q0 -67 49 -118q51 -49 117 -49q67 0 118 49q28 28 55 67
q26 39 47 75t32 58q-8 2 -21 6h-3l-18 6l7 16q19 41 35 88t26 79v0zM328 137q-2 -54 -38 -90v0q-35 -37 -89 -38q-54 1 -90 37q-36 37 -37 91q1 54 37 90q36 37 90 38q53 -2 89 -38t38 -90v0zM296 137q-1 41 -28 68v0q-27 27 -68 28q-41 -1 -68 -28t-28 -68q1 -41 28 -68
t68 -28q41 1 67 28q27 27 29 68v0zM208 169q-2 -22 -23 -24q-22 2 -23 24q2 22 23 24q10 0 16 -7q7 -9 7 -17v0zM240 97q-1 -15 -16 -16q-14 1 -15 16q1 14 16 16q13 -3 15 -16v0z" />
    <glyph glyph-name="phone-rotary" unicode="&#xf8d3;" 
d="M256 208q-34 -1 -57 -23v0q-22 -23 -23 -57q1 -34 23 -57q23 -22 57 -23q34 1 57 23q22 23 23 57q-1 34 -23 57q-23 22 -57 23v0zM256 80q-20 1 -34 14v0q-13 14 -14 34q1 20 14 34q14 13 34 14q20 -1 34 -14q13 -14 14 -34q-1 -20 -14 -34q-14 -13 -34 -14v0zM500 330
q-52 41 -114 63v0q-63 23 -130 23t-130 -23q-62 -22 -114 -63q-12 -10 -12 -25v-65q1 -15 16 -16h64q15 1 16 16q-1 15 -16 16h-48v49q48 38 105 58q57 21 119 21t119 -20q57 -21 104 -59v-49h-47q-15 -1 -16 -16q1 -15 16 -16h63q15 1 16 16v65q1 15 -11 25v0zM370 256
q-17 28 -50 31v1v0v32q-1 15 -16 16q-15 -1 -16 -16v-32h-64v32q-1 15 -16 16q-15 -1 -16 -16v-32v0v-1q-33 -3 -50 -31l-102 -177q-8 -15 -8 -32v-15q1 -27 19 -45t45 -19h319q27 1 45 19t19 45v15q0 17 -8 32l-101 177v0zM447 32q0 -14 -9 -23v0q-9 -9 -23 -9h-319
q-14 0 -23 9t-9 23v15q0 8 4 16l101 176q10 17 28 17h118q18 -1 28 -16l101 -177q4 -7 4 -16v-15h-1z" />
    <glyph glyph-name="phone-rotary" unicode="&#x260e;" 
d="M256 208q-34 -1 -57 -23v0q-22 -23 -23 -57q1 -34 23 -57q23 -22 57 -23q34 1 57 23q22 23 23 57q-1 34 -23 57q-23 22 -57 23v0zM256 80q-20 1 -34 14v0q-13 14 -14 34q1 20 14 34q14 13 34 14q20 -1 34 -14q13 -14 14 -34q-1 -20 -14 -34q-14 -13 -34 -14v0zM500 330
q-52 41 -114 63v0q-63 23 -130 23t-130 -23q-62 -22 -114 -63q-12 -10 -12 -25v-65q1 -15 16 -16h64q15 1 16 16q-1 15 -16 16h-48v49q48 38 105 58q57 21 119 21t119 -20q57 -21 104 -59v-49h-47q-15 -1 -16 -16q1 -15 16 -16h63q15 1 16 16v65q1 15 -11 25v0zM370 256
q-17 28 -50 31v1v0v32q-1 15 -16 16q-15 -1 -16 -16v-32h-64v32q-1 15 -16 16q-15 -1 -16 -16v-32v0v-1q-33 -3 -50 -31l-102 -177q-8 -15 -8 -32v-15q1 -27 19 -45t45 -19h319q27 1 45 19t19 45v15q0 17 -8 32l-101 177v0zM447 32q0 -14 -9 -23v0q-9 -9 -23 -9h-319
q-14 0 -23 9t-9 23v15q0 8 4 16l101 176q10 17 28 17h118q18 -1 28 -16l101 -177q4 -7 4 -16v-15h-1z" />
    <glyph glyph-name="square-check" unicode="&#xf14a;" horiz-adv-x="448" 
d="M384 416h-320q-27 -1 -45 -19t-19 -45v-320q1 -27 19 -45t45 -19h320q27 1 45 19t19 45v320q-1 27 -19 45t-45 19v0zM416 32q0 -14 -9 -23v0q-9 -9 -23 -9h-320q-14 0 -23 9t-9 23v320q0 14 9 23t23 9h320q14 0 23 -9t9 -23v-320v0zM309 267l-117 -116l-53 52
q-11 10 -22 0q-10 -11 0 -22l64 -64q5 -5 11 -5t11 5l128 128q10 11 0 22q-11 10 -22 0v0z" />
    <glyph glyph-name="square-check" unicode="&#xf046;" horiz-adv-x="448" 
d="M384 416h-320q-27 -1 -45 -19t-19 -45v-320q1 -27 19 -45t45 -19h320q27 1 45 19t19 45v320q-1 27 -19 45t-45 19v0zM416 32q0 -14 -9 -23v0q-9 -9 -23 -9h-320q-14 0 -23 9t-9 23v320q0 14 9 23t23 9h320q14 0 23 -9t9 -23v-320v0zM309 267l-117 -116l-53 52
q-11 10 -22 0q-10 -11 0 -22l64 -64q5 -5 11 -5t11 5l128 128q10 11 0 22q-11 10 -22 0v0z" />
    <glyph glyph-name="square-check" unicode="&#x2705;" horiz-adv-x="448" 
d="M384 416h-320q-27 -1 -45 -19t-19 -45v-320q1 -27 19 -45t45 -19h320q27 1 45 19t19 45v320q-1 27 -19 45t-45 19v0zM416 32q0 -14 -9 -23v0q-9 -9 -23 -9h-320q-14 0 -23 9t-9 23v320q0 14 9 23t23 9h320q14 0 23 -9t9 -23v-320v0zM309 267l-117 -116l-53 52
q-11 10 -22 0q-10 -11 0 -22l64 -64q5 -5 11 -5t11 5l128 128q10 11 0 22q-11 10 -22 0v0z" />
    <glyph glyph-name="square-check" unicode="&#x2611;" horiz-adv-x="448" 
d="M384 416h-320q-27 -1 -45 -19t-19 -45v-320q1 -27 19 -45t45 -19h320q27 1 45 19t19 45v320q-1 27 -19 45t-45 19v0zM416 32q0 -14 -9 -23v0q-9 -9 -23 -9h-320q-14 0 -23 9t-9 23v320q0 14 9 23t23 9h320q14 0 23 -9t9 -23v-320v0zM309 267l-117 -116l-53 52
q-11 10 -22 0q-10 -11 0 -22l64 -64q5 -5 11 -5t11 5l128 128q10 11 0 22q-11 10 -22 0v0z" />
    <glyph glyph-name="mug-hot" unicode="&#xf7b6;" 
d="M400 256h-368q-14 0 -23 -9t-9 -23v-192q1 -41 28 -68t68 -28h192q41 1 68 28t28 68h16q48 1 79 33q32 31 33 79q-1 48 -33 79q-31 32 -79 33v0zM352 32q-1 -27 -19 -45v0q-18 -18 -45 -19h-192q-27 1 -45 19t-19 45v192h320v-192v0zM400 64h-16v160h16q34 -1 57 -23
q22 -23 23 -57q-1 -34 -23 -57q-23 -22 -57 -23v0zM105 354q22 -12 23 -38v-12q1 -15 16 -16q15 1 16 16v12q-2 45 -41 66q-22 12 -23 38v12q-1 15 -16 16q-15 -1 -16 -16v-12q2 -45 41 -66v0zM233 354q22 -12 23 -38v-12q1 -15 16 -16q15 1 16 16v12q-2 45 -41 66
q-22 12 -23 38v12q-1 15 -16 16q-15 -1 -16 -16v-12q2 -45 41 -66v0z" />
    <glyph glyph-name="mug-hot" unicode="&#x2615;" 
d="M400 256h-368q-14 0 -23 -9t-9 -23v-192q1 -41 28 -68t68 -28h192q41 1 68 28t28 68h16q48 1 79 33q32 31 33 79q-1 48 -33 79q-31 32 -79 33v0zM352 32q-1 -27 -19 -45v0q-18 -18 -45 -19h-192q-27 1 -45 19t-19 45v192h320v-192v0zM400 64h-16v160h16q34 -1 57 -23
q22 -23 23 -57q-1 -34 -23 -57q-23 -22 -57 -23v0zM105 354q22 -12 23 -38v-12q1 -15 16 -16q15 1 16 16v12q-2 45 -41 66q-22 12 -23 38v12q-1 15 -16 16q-15 -1 -16 -16v-12q2 -45 41 -66v0zM233 354q22 -12 23 -38v-12q1 -15 16 -16q15 1 16 16v12q-2 45 -41 66
q-22 12 -23 38v12q-1 15 -16 16q-15 -1 -16 -16v-12q2 -45 41 -66v0z" />
    <glyph glyph-name="hand-point-up" unicode="&#xf0a6;" horiz-adv-x="448" 
d="M360 256q-15 0 -27 -7q-5 17 -20 28q-14 11 -33 11q-15 0 -27 -7q-5 17 -20 28q-14 11 -33 11q-13 0 -24 -5v77q-1 24 -16 40q-16 15 -40 16q-24 -1 -40 -16q-15 -16 -16 -40v-216q-31 -23 -32 -64v-59q1 -44 39 -67l61 -33q30 -17 64 -17h87q56 1 94 37q37 36 39 90v137
q-1 24 -16 40q-16 15 -40 16v0zM256 232q2 22 24 24q22 -2 24 -24v-64q-2 -22 -24 -24q-22 2 -24 24v64v0zM176 264q2 22 24 24q22 -2 24 -24v-81q-14 9 -32 9h-16v72v0zM96 392q2 22 24 24q22 -2 24 -24v-200h-32q-8 0 -16 -2v202v0zM384 64q-1 -42 -31 -69v0
q-29 -26 -70 -27h-87q-26 0 -48 13l-61 33q-22 13 -23 39v59q1 20 14 34q14 13 34 14h80q14 0 23 -9t9 -23t-9 -23t-23 -9h-48q-15 -1 -16 -16q1 -15 16 -16h48q24 1 42 16q17 15 21 38q11 -6 25 -6q16 0 29 9q15 -31 51 -33q13 0 24 6v-30v0zM384 144q-2 -22 -24 -24
q-22 2 -24 24v56q2 22 24 24q22 -2 24 -24v-56v0z" />
    <glyph glyph-name="hand-point-up" unicode="&#x261d;" horiz-adv-x="448" 
d="M360 256q-15 0 -27 -7q-5 17 -20 28q-14 11 -33 11q-15 0 -27 -7q-5 17 -20 28q-14 11 -33 11q-13 0 -24 -5v77q-1 24 -16 40q-16 15 -40 16q-24 -1 -40 -16q-15 -16 -16 -40v-216q-31 -23 -32 -64v-59q1 -44 39 -67l61 -33q30 -17 64 -17h87q56 1 94 37q37 36 39 90v137
q-1 24 -16 40q-16 15 -40 16v0zM256 232q2 22 24 24q22 -2 24 -24v-64q-2 -22 -24 -24q-22 2 -24 24v64v0zM176 264q2 22 24 24q22 -2 24 -24v-81q-14 9 -32 9h-16v72v0zM96 392q2 22 24 24q22 -2 24 -24v-200h-32q-8 0 -16 -2v202v0zM384 64q-1 -42 -31 -69v0
q-29 -26 -70 -27h-87q-26 0 -48 13l-61 33q-22 13 -23 39v59q1 20 14 34q14 13 34 14h80q14 0 23 -9t9 -23t-9 -23t-23 -9h-48q-15 -1 -16 -16q1 -15 16 -16h48q24 1 42 16q17 15 21 38q11 -6 25 -6q16 0 29 9q15 -31 51 -33q13 0 24 6v-30v0zM384 144q-2 -22 -24 -24
q-22 2 -24 24v56q2 22 24 24q22 -2 24 -24v-56v0z" />
    <glyph glyph-name="skull-crossbones" unicode="&#x1f571;" horiz-adv-x="448" 
d="M184 289q21 2 23 23q-2 22 -23 24q-21 -2 -23 -24q1 -21 23 -23v0zM263 289q22 2 23 23q-2 22 -23 24q-21 -2 -23 -24q0 -10 7 -17q6 -6 16 -6v0zM135 220l-6 -30q-3 -12 3 -20q6 -9 16 -9h152q10 0 15 9q6 9 4 21l-6 30q52 37 55 100q-2 54 -42 90q-41 36 -102 37
q-61 -1 -102 -37q-40 -36 -42 -90q3 -64 55 -101v0zM224 417q47 -1 79 -28v0q31 -27 32 -68q-1 -44 -41 -74l-18 -12l9 -42h-123l9 42l-17 11q-41 30 -42 74q1 41 33 69q32 27 79 28v0zM431 -34l-170 82l170 82q12 7 7 21q-7 13 -21 7l-193 -92l-193 92q-14 5 -21 -7
q-6 -14 7 -21l170 -82l-170 -82q-12 -7 -7 -21q4 -9 14 -9q4 0 7 2l193 92l193 -92q4 -2 6 -2q10 0 15 9q6 15 -7 21v0z" />
    <glyph glyph-name="skull-crossbones" unicode="&#xf714;" horiz-adv-x="448" 
d="M184 289q21 2 23 23q-2 22 -23 24q-21 -2 -23 -24q1 -21 23 -23v0zM263 289q22 2 23 23q-2 22 -23 24q-21 -2 -23 -24q0 -10 7 -17q6 -6 16 -6v0zM135 220l-6 -30q-3 -12 3 -20q6 -9 16 -9h152q10 0 15 9q6 9 4 21l-6 30q52 37 55 100q-2 54 -42 90q-41 36 -102 37
q-61 -1 -102 -37q-40 -36 -42 -90q3 -64 55 -101v0zM224 417q47 -1 79 -28v0q31 -27 32 -68q-1 -44 -41 -74l-18 -12l9 -42h-123l9 42l-17 11q-41 30 -42 74q1 41 33 69q32 27 79 28v0zM431 -34l-170 82l170 82q12 7 7 21q-7 13 -21 7l-193 -92l-193 92q-14 5 -21 -7
q-6 -14 7 -21l170 -82l-170 -82q-12 -7 -7 -21q4 -9 14 -9q4 0 7 2l193 92l193 -92q4 -2 6 -2q10 0 15 9q6 15 -7 21v0z" />
    <glyph glyph-name="skull-crossbones" unicode="&#x2620;" horiz-adv-x="448" 
d="M184 289q21 2 23 23q-2 22 -23 24q-21 -2 -23 -24q1 -21 23 -23v0zM263 289q22 2 23 23q-2 22 -23 24q-21 -2 -23 -24q0 -10 7 -17q6 -6 16 -6v0zM135 220l-6 -30q-3 -12 3 -20q6 -9 16 -9h152q10 0 15 9q6 9 4 21l-6 30q52 37 55 100q-2 54 -42 90q-41 36 -102 37
q-61 -1 -102 -37q-40 -36 -42 -90q3 -64 55 -101v0zM224 417q47 -1 79 -28v0q31 -27 32 -68q-1 -44 -41 -74l-18 -12l9 -42h-123l9 42l-17 11q-41 30 -42 74q1 41 33 69q32 27 79 28v0zM431 -34l-170 82l170 82q12 7 7 21q-7 13 -21 7l-193 -92l-193 92q-14 5 -21 -7
q-6 -14 7 -21l170 -82l-170 -82q-12 -7 -7 -21q4 -9 14 -9q4 0 7 2l193 92l193 -92q4 -2 6 -2q10 0 15 9q6 15 -7 21v0z" />
    <glyph glyph-name="circle-radiation" unicode="&#xf7ba;" 
d="M306 152q-9 12 -22 5q-11 -8 -5 -22l42 -67q1 -3 -1 -3q-30 -17 -64 -17q-35 0 -64 17q-2 0 -1 3l42 68q6 13 -5 22q-13 6 -22 -6l-42 -67q-8 -12 -5 -26q4 -14 17 -22q37 -21 80 -21t80 21q12 7 17 22q3 13 -5 26l-42 67v0zM211 185q0 14 -16 15l-78 -3q-3 2 -3 3
q0 34 17 64q18 30 47 47q1 2 3 -1l38 -70q8 -12 21 -6q13 8 7 21l-37 71q-7 13 -21 17q-15 3 -27 -4q-37 -22 -58 -59q-22 -37 -22 -80q0 -14 10 -25q10 -9 25 -10l80 3q14 2 14 17v0zM409 280q-22 37 -59 59q-12 7 -27 3q-13 -4 -21 -17l-37 -70q-6 -13 7 -21q13 -6 21 6
l37 70q3 3 4 1q29 -17 47 -47q17 -30 17 -64v0q1 -2 -3 -2l-79 2q-14 -1 -16 -15q1 -15 15 -17h21q19 -1 39 -2h21q14 0 23 9q11 10 11 25q0 42 -21 80v0zM256 432q-67 -1 -121 -33v0q-54 -32 -86 -86v0q-32 -54 -33 -121q1 -67 33 -121t86 -86t121 -33q67 1 121 33t86 86
t33 121q-1 67 -33 121t-86 86t-121 33v0zM256 -16q-88 2 -147 61v0q-59 59 -61 147q2 88 61 147t147 61q88 -2 147 -61t61 -147q-2 -88 -61 -147t-147 -61v0zM232 192q2 -22 24 -24q22 2 24 24q-2 22 -24 24q-22 -2 -24 -24v0z" />
    <glyph glyph-name="circle-radiation" unicode="&#x2622;" 
d="M306 152q-9 12 -22 5q-11 -8 -5 -22l42 -67q1 -3 -1 -3q-30 -17 -64 -17q-35 0 -64 17q-2 0 -1 3l42 68q6 13 -5 22q-13 6 -22 -6l-42 -67q-8 -12 -5 -26q4 -14 17 -22q37 -21 80 -21t80 21q12 7 17 22q3 13 -5 26l-42 67v0zM211 185q0 14 -16 15l-78 -3q-3 2 -3 3
q0 34 17 64q18 30 47 47q1 2 3 -1l38 -70q8 -12 21 -6q13 8 7 21l-37 71q-7 13 -21 17q-15 3 -27 -4q-37 -22 -58 -59q-22 -37 -22 -80q0 -14 10 -25q10 -9 25 -10l80 3q14 2 14 17v0zM409 280q-22 37 -59 59q-12 7 -27 3q-13 -4 -21 -17l-37 -70q-6 -13 7 -21q13 -6 21 6
l37 70q3 3 4 1q29 -17 47 -47q17 -30 17 -64v0q1 -2 -3 -2l-79 2q-14 -1 -16 -15q1 -15 15 -17h21q19 -1 39 -2h21q14 0 23 9q11 10 11 25q0 42 -21 80v0zM256 432q-67 -1 -121 -33v0q-54 -32 -86 -86v0q-32 -54 -33 -121q1 -67 33 -121t86 -86t121 -33q67 1 121 33t86 86
t33 121q-1 67 -33 121t-86 86t-121 33v0zM256 -16q-88 2 -147 61v0q-59 59 -61 147q2 88 61 147t147 61q88 -2 147 -61t61 -147q-2 -88 -61 -147t-147 -61v0zM232 192q2 -22 24 -24q22 2 24 24q-2 22 -24 24q-22 -2 -24 -24v0z" />
    <glyph glyph-name="biohazard" unicode="&#xf780;" horiz-adv-x="576" 
d="M288 200q-22 -2 -24 -24q2 -22 24 -24q22 2 24 24q-2 22 -24 24v0zM288 352q27 0 51 -8q10 13 13 30q-30 10 -64 10t-64 -10q3 -16 13 -30q24 8 51 8v0zM407 47q9 -14 23 -23q50 47 63 118q-14 7 -30 8h-1v-1q-10 -61 -55 -102v0zM575 171q-22 62 -77 96q-19 10 -41 16
q6 21 6 41q-1 65 -43 116q-13 13 -29 5q-16 -10 -11 -28q6 -17 5 -31q-1 -42 -28 -70q-28 -28 -69 -29q-41 1 -69 29q-27 28 -28 70q0 14 5 31q5 18 -10 28q-17 8 -30 -5q-42 -51 -43 -116q0 -20 6 -41q-22 -6 -40 -16q-55 -33 -78 -96q-5 -17 11 -28q16 -8 29 5
q12 13 24 20q35 20 73 10q39 -11 60 -46q19 -37 9 -75q-10 -39 -45 -61q-12 -7 -29 -10q-17 -5 -19 -24q2 -18 19 -23q17 -3 33 -3q47 0 87 24q18 11 35 27q16 -16 35 -27q55 -33 120 -21q17 5 19 23q-1 19 -19 24q-17 3 -28 10q-36 22 -46 61q-10 38 10 75q20 35 60 46
q38 10 73 -10q12 -7 23 -20q14 -13 30 -5q14 11 10 28v0zM430 209q-52 -14 -79 -61q-27 -49 -13 -99q13 -51 60 -80v0v0q-31 2 -59 18q-21 13 -39 34l-12 16l-13 -16q-17 -21 -38 -34q-28 -16 -59 -18v0q47 29 60 79q14 51 -12 100q-28 47 -80 61q-16 5 -33 5q-34 0 -64 -18
q18 27 46 43q20 12 47 17l18 3l-6 18q-9 24 -9 47q1 32 14 61q1 -55 38 -92q36 -37 91 -38q55 1 91 38q37 37 38 92q13 -29 14 -61q0 -22 -9 -47l-6 -18l18 -3q26 -5 47 -17q28 -16 46 -43q-46 26 -97 13v0zM169 47q-44 41 -55 102v1h-1q-16 -1 -29 -8q13 -71 62 -118
q15 9 23 23v0z" />
    <glyph glyph-name="biohazard" unicode="&#x2623;" horiz-adv-x="576" 
d="M288 200q-22 -2 -24 -24q2 -22 24 -24q22 2 24 24q-2 22 -24 24v0zM288 352q27 0 51 -8q10 13 13 30q-30 10 -64 10t-64 -10q3 -16 13 -30q24 8 51 8v0zM407 47q9 -14 23 -23q50 47 63 118q-14 7 -30 8h-1v-1q-10 -61 -55 -102v0zM575 171q-22 62 -77 96q-19 10 -41 16
q6 21 6 41q-1 65 -43 116q-13 13 -29 5q-16 -10 -11 -28q6 -17 5 -31q-1 -42 -28 -70q-28 -28 -69 -29q-41 1 -69 29q-27 28 -28 70q0 14 5 31q5 18 -10 28q-17 8 -30 -5q-42 -51 -43 -116q0 -20 6 -41q-22 -6 -40 -16q-55 -33 -78 -96q-5 -17 11 -28q16 -8 29 5
q12 13 24 20q35 20 73 10q39 -11 60 -46q19 -37 9 -75q-10 -39 -45 -61q-12 -7 -29 -10q-17 -5 -19 -24q2 -18 19 -23q17 -3 33 -3q47 0 87 24q18 11 35 27q16 -16 35 -27q55 -33 120 -21q17 5 19 23q-1 19 -19 24q-17 3 -28 10q-36 22 -46 61q-10 38 10 75q20 35 60 46
q38 10 73 -10q12 -7 23 -20q14 -13 30 -5q14 11 10 28v0zM430 209q-52 -14 -79 -61q-27 -49 -13 -99q13 -51 60 -80v0v0q-31 2 -59 18q-21 13 -39 34l-12 16l-13 -16q-17 -21 -38 -34q-28 -16 -59 -18v0q47 29 60 79q14 51 -12 100q-28 47 -80 61q-16 5 -33 5q-34 0 -64 -18
q18 27 46 43q20 12 47 17l18 3l-6 18q-9 24 -9 47q1 32 14 61q1 -55 38 -92q36 -37 91 -38q55 1 91 38q37 37 38 92q13 -29 14 -61q0 -22 -9 -47l-6 -18l18 -3q26 -5 47 -17q28 -16 46 -43q-46 26 -97 13v0zM169 47q-44 41 -55 102v1h-1q-16 -1 -29 -8q13 -71 62 -118
q15 9 23 23v0z" />
    <glyph glyph-name="ankh" unicode="&#xf644;" horiz-adv-x="320" 
d="M304 160h-89q29 28 51 69q21 40 22 82q-1 64 -37 100q-37 36 -91 37q-54 -1 -91 -37q-36 -36 -37 -100q1 -42 22 -82q22 -41 51 -69h-89q-15 -1 -16 -16q1 -15 16 -16h128v-176q1 -15 16 -16q15 1 16 16v176h128q15 1 16 16q-1 15 -16 16v0zM160 160q-11 2 -34 24v0
q-23 22 -42 56v0q-19 34 -20 71q1 47 27 76q26 28 69 29q43 -1 69 -29q26 -29 27 -76q-1 -37 -20 -71t-42 -56q-22 -22 -34 -24v0z" />
    <glyph glyph-name="ankh" unicode="&#x2625;" horiz-adv-x="320" 
d="M304 160h-89q29 28 51 69q21 40 22 82q-1 64 -37 100q-37 36 -91 37q-54 -1 -91 -37q-36 -36 -37 -100q1 -42 22 -82q22 -41 51 -69h-89q-15 -1 -16 -16q1 -15 16 -16h128v-176q1 -15 16 -16q15 1 16 16v176h128q15 1 16 16q-1 15 -16 16v0zM160 160q-11 2 -34 24v0
q-23 22 -42 56v0q-19 34 -20 71q1 47 27 76q26 28 69 29q43 -1 69 -29q26 -29 27 -76q-1 -37 -20 -71t-42 -56q-22 -22 -34 -24v0z" />
    <glyph glyph-name="star-and-crescent" unicode="&#xf699;" 
d="M504 234l-77 11l-34 69q-3 6 -9 6t-9 -6l-34 -69l-77 -11q-6 -1 -8 -7q-1 -5 3 -10l55 -54l-13 -76q0 -11 10 -12q2 0 5 2l68 36l68 -36q3 -2 5 -2q10 1 10 12l-13 76l55 54q4 5 2 10q-1 6 -7 7v0zM431 186l-12 -12l9 -48l-44 23l-44 -23l9 48l-36 35l49 7l22 44l22 -44
l49 -7l-24 -23v0zM338 11l-9 -1q-78 2 -129 54q-52 51 -54 128q2 77 53 128q52 52 129 54l9 -1q23 2 29 24q3 24 -19 35q-42 16 -89 16q-72 -1 -130 -35t-93 -92q-34 -58 -35 -129q1 -71 35 -129q35 -58 93 -92t130 -35q46 0 89 16q20 8 21 29q0 12 -9 21q-8 8 -21 9v0z
M258 -32q-63 1 -114 31v0q-51 30 -81 80v0q-30 51 -31 113q1 62 31 113q30 50 81 80t114 31q34 0 67 -10q-90 -4 -149 -64q-60 -60 -62 -150q2 -90 62 -150q59 -60 149 -64q-33 -10 -67 -10v0z" />
    <glyph glyph-name="star-and-crescent" unicode="&#x262a;" 
d="M504 234l-77 11l-34 69q-3 6 -9 6t-9 -6l-34 -69l-77 -11q-6 -1 -8 -7q-1 -5 3 -10l55 -54l-13 -76q0 -11 10 -12q2 0 5 2l68 36l68 -36q3 -2 5 -2q10 1 10 12l-13 76l55 54q4 5 2 10q-1 6 -7 7v0zM431 186l-12 -12l9 -48l-44 23l-44 -23l9 48l-36 35l49 7l22 44l22 -44
l49 -7l-24 -23v0zM338 11l-9 -1q-78 2 -129 54q-52 51 -54 128q2 77 53 128q52 52 129 54l9 -1q23 2 29 24q3 24 -19 35q-42 16 -89 16q-72 -1 -130 -35t-93 -92q-34 -58 -35 -129q1 -71 35 -129q35 -58 93 -92t130 -35q46 0 89 16q20 8 21 29q0 12 -9 21q-8 8 -21 9v0z
M258 -32q-63 1 -114 31v0q-51 30 -81 80v0q-30 51 -31 113q1 62 31 113q30 50 81 80t114 31q34 0 67 -10q-90 -4 -149 -64q-60 -60 -62 -150q2 -90 62 -150q59 -60 149 -64q-33 -10 -67 -10v0z" />
    <glyph glyph-name="khanda" unicode="&#xf66d;" horiz-adv-x="576" 
d="M448 383h-2v0q-3 1 -7 1q-7 0 -11 -5q-8 -9 -2 -20q25 -40 25 -87q-1 -40 -19 -75q-19 -35 -52 -57l-77 -54v20l44 37q6 6 3 15l-7 17q26 15 41 40t16 57q-1 31 -15 56q-15 25 -40 40l5 11q4 9 -3 15l-59 54l-59 -53q-7 -7 -4 -16l5 -11q-25 -15 -39 -40q-15 -25 -15 -55
q0 -32 16 -57q15 -25 41 -40l-9 -18q-2 -9 4 -16l43 -36v-20l-76 54q-33 23 -52 57q-18 35 -19 75q0 47 25 87q6 11 -2 19q-5 5 -12 5q-4 0 -8 -2q-60 -34 -84 -96q-23 -63 2 -133q11 -27 31 -49l56 -65q5 -6 12 -6q4 0 7 2l80 42l29 -20l-47 -33q-1 0 -2 1h-2
q-22 -2 -24 -24q2 -21 24 -23q19 2 23 21l41 28v-30q-15 -9 -16 -27q0 -14 9 -22q9 -9 22 -9t22 9t9 22q-1 18 -16 27v30l41 -28q4 -19 23 -21q22 2 24 24q-2 22 -24 24q-2 0 -3 -1h-2l-47 33l29 20l80 -42q3 -2 7 -2q7 0 12 6l53 61q28 33 41 75q16 64 -8 120
q-25 56 -81 88v0zM148 68l-48 56q-17 20 -25 40q-16 41 -9 80q6 40 31 72q-5 -22 -5 -44q1 -49 23 -90t61 -68l24 -17l-52 -29v0zM331 339q35 -24 37 -67q-2 -45 -38 -68l-13 27q-13 38 0 76l14 32v0zM288 405l28 -25l-28 -61l-29 61l29 25v0zM246 204q-36 23 -38 68
q2 43 36 67l14 -32q13 -38 0 -76l-12 -27v0zM288 135l-29 22l28 62l29 -62l-28 -22v0zM506 182q-8 -32 -34 -62l-45 -52l-53 29l23 16q41 27 64 69q22 41 23 90q0 22 -5 43q22 -27 30 -62q7 -34 -3 -71v0z" />
    <glyph glyph-name="khanda" unicode="&#x262c;" horiz-adv-x="576" 
d="M448 383h-2v0q-3 1 -7 1q-7 0 -11 -5q-8 -9 -2 -20q25 -40 25 -87q-1 -40 -19 -75q-19 -35 -52 -57l-77 -54v20l44 37q6 6 3 15l-7 17q26 15 41 40t16 57q-1 31 -15 56q-15 25 -40 40l5 11q4 9 -3 15l-59 54l-59 -53q-7 -7 -4 -16l5 -11q-25 -15 -39 -40q-15 -25 -15 -55
q0 -32 16 -57q15 -25 41 -40l-9 -18q-2 -9 4 -16l43 -36v-20l-76 54q-33 23 -52 57q-18 35 -19 75q0 47 25 87q6 11 -2 19q-5 5 -12 5q-4 0 -8 -2q-60 -34 -84 -96q-23 -63 2 -133q11 -27 31 -49l56 -65q5 -6 12 -6q4 0 7 2l80 42l29 -20l-47 -33q-1 0 -2 1h-2
q-22 -2 -24 -24q2 -21 24 -23q19 2 23 21l41 28v-30q-15 -9 -16 -27q0 -14 9 -22q9 -9 22 -9t22 9t9 22q-1 18 -16 27v30l41 -28q4 -19 23 -21q22 2 24 24q-2 22 -24 24q-2 0 -3 -1h-2l-47 33l29 20l80 -42q3 -2 7 -2q7 0 12 6l53 61q28 33 41 75q16 64 -8 120
q-25 56 -81 88v0zM148 68l-48 56q-17 20 -25 40q-16 41 -9 80q6 40 31 72q-5 -22 -5 -44q1 -49 23 -90t61 -68l24 -17l-52 -29v0zM331 339q35 -24 37 -67q-2 -45 -38 -68l-13 27q-13 38 0 76l14 32v0zM288 405l28 -25l-28 -61l-29 61l29 25v0zM246 204q-36 23 -38 68
q2 43 36 67l14 -32q13 -38 0 -76l-12 -27v0zM288 135l-29 22l28 62l29 -62l-28 -22v0zM506 182q-8 -32 -34 -62l-45 -52l-53 29l23 16q41 27 64 69q22 41 23 90q0 22 -5 43q22 -27 30 -62q7 -34 -3 -71v0z" />
    <glyph glyph-name="peace" unicode="&#xf67c;" 
d="M256 448q-72 -1 -129 -35v0q-58 -34 -92 -92v0q-34 -57 -35 -129q1 -72 35 -129q34 -58 92 -92q57 -34 129 -35q72 1 129 35q58 34 92 92q34 57 35 129q-1 72 -35 129q-34 58 -92 92q-57 34 -129 35v0zM480 192q-1 -72 -40 -126l-168 134v215q89 -8 148 -70
q58 -62 60 -153v0zM240 415v-215l-168 -135q-39 55 -40 127q2 91 60 153t148 70v0zM92 40l148 119v-190q-90 8 -148 71v0zM272 -31v190l148 -119q-58 -63 -148 -71v0z" />
    <glyph glyph-name="peace" unicode="&#x262e;" 
d="M256 448q-72 -1 -129 -35v0q-58 -34 -92 -92v0q-34 -57 -35 -129q1 -72 35 -129q34 -58 92 -92q57 -34 129 -35q72 1 129 35q58 34 92 92q34 57 35 129q-1 72 -35 129q-34 58 -92 92q-57 34 -129 35v0zM480 192q-1 -72 -40 -126l-168 134v215q89 -8 148 -70
q58 -62 60 -153v0zM240 415v-215l-168 -135q-39 55 -40 127q2 91 60 153t148 70v0zM92 40l148 119v-190q-90 8 -148 71v0zM272 -31v190l148 -119q-58 -63 -148 -71v0z" />
    <glyph glyph-name="yin-yang" unicode="&#xf6ad;" 
d="M256 448q-72 -1 -129 -35v0q-58 -34 -92 -92v0q-34 -57 -35 -129q1 -72 35 -129q34 -58 92 -92q57 -34 129 -35q72 1 129 35q58 34 92 92q34 57 35 129q-1 72 -35 129q-34 58 -92 92q-57 34 -129 35v0zM32 192q1 62 31 113v0q30 50 80 80v0q51 30 113 31q44 -1 74 -30
q29 -30 30 -74q-1 -44 -31 -74q-29 -29 -73 -30q-58 -1 -96 -40q-39 -38 -40 -96q1 -40 21 -72q-50 30 -79 80t-30 112v0zM256 -32q-44 1 -74 30v0q-29 30 -30 74q1 44 31 74q29 29 73 30q58 1 96 40q39 38 40 96q-1 40 -21 72q50 -30 79 -80t30 -112q-1 -62 -31 -113
q-30 -50 -80 -80q-51 -30 -113 -31v0zM256 288q22 2 24 24q-2 22 -24 24q-22 -2 -24 -24q2 -22 24 -24v0zM256 96q-22 -2 -24 -24q2 -22 24 -24q22 2 24 24q-2 22 -24 24v0z" />
    <glyph glyph-name="yin-yang" unicode="&#x262f;" 
d="M256 448q-72 -1 -129 -35v0q-58 -34 -92 -92v0q-34 -57 -35 -129q1 -72 35 -129q34 -58 92 -92q57 -34 129 -35q72 1 129 35q58 34 92 92q34 57 35 129q-1 72 -35 129q-34 58 -92 92q-57 34 -129 35v0zM32 192q1 62 31 113v0q30 50 80 80v0q51 30 113 31q44 -1 74 -30
q29 -30 30 -74q-1 -44 -31 -74q-29 -29 -73 -30q-58 -1 -96 -40q-39 -38 -40 -96q1 -40 21 -72q-50 30 -79 80t-30 112v0zM256 -32q-44 1 -74 30v0q-29 30 -30 74q1 44 31 74q29 29 73 30q58 1 96 40q39 38 40 96q-1 40 -21 72q50 -30 79 -80t30 -112q-1 -62 -31 -113
q-30 -50 -80 -80q-51 -30 -113 -31v0zM256 288q22 2 24 24q-2 22 -24 24q-22 -2 -24 -24q2 -22 24 -24v0zM256 96q-22 -2 -24 -24q2 -22 24 -24q22 2 24 24q-2 22 -24 24v0z" />
    <glyph glyph-name="dharmachakra" unicode="&#xf655;" 
d="M496 208h-33q-6 69 -49 119l23 23q9 12 0 23q-11 9 -23 0l-23 -23q-50 43 -119 49v33q-1 15 -16 16q-15 -1 -16 -16v-33q-69 -6 -119 -49l-23 23q-12 9 -23 0q-9 -11 0 -23l23 -23q-43 -50 -49 -119h-33q-15 -1 -16 -16q1 -15 16 -16h33q6 -69 49 -119l-23 -23
q-9 -12 0 -23q5 -5 11 -5q7 0 12 5l23 23q50 -43 119 -49v-33q1 -15 16 -16q15 1 16 16v33q69 6 119 49l23 -23q5 -5 12 -5q6 0 11 5q9 11 0 23l-23 23q43 50 49 119h33q15 1 16 16q-1 15 -16 16v0zM431 208h-81q-3 22 -16 39l57 58q34 -41 40 -97v0zM256 128q-27 1 -45 19
v0q-18 18 -19 45q1 27 19 45t45 19q27 -1 45 -19t19 -45q-1 -27 -19 -45t-45 -19v0zM369 327l-58 -57q-17 13 -39 16v81q56 -6 97 -40v0zM240 367v-81q-22 -3 -39 -16l-57 57q40 34 96 40v0zM121 304l57 -57q-13 -17 -16 -39h-81q6 56 40 96v0zM81 176h81q3 -22 16 -39
l-57 -58q-34 41 -40 97v0zM144 57l57 57q17 -13 39 -16v-81q-56 6 -96 40v0zM272 17v81q22 3 39 16l58 -57q-41 -34 -97 -40v0zM391 79l-57 58q13 17 16 39h81q-6 -56 -40 -97v0z" />
    <glyph glyph-name="dharmachakra" unicode="&#x2638;" 
d="M496 208h-33q-6 69 -49 119l23 23q9 12 0 23q-11 9 -23 0l-23 -23q-50 43 -119 49v33q-1 15 -16 16q-15 -1 -16 -16v-33q-69 -6 -119 -49l-23 23q-12 9 -23 0q-9 -11 0 -23l23 -23q-43 -50 -49 -119h-33q-15 -1 -16 -16q1 -15 16 -16h33q6 -69 49 -119l-23 -23
q-9 -12 0 -23q5 -5 11 -5q7 0 12 5l23 23q50 -43 119 -49v-33q1 -15 16 -16q15 1 16 16v33q69 6 119 49l23 -23q5 -5 12 -5q6 0 11 5q9 11 0 23l-23 23q43 50 49 119h33q15 1 16 16q-1 15 -16 16v0zM431 208h-81q-3 22 -16 39l57 58q34 -41 40 -97v0zM256 128q-27 1 -45 19
v0q-18 18 -19 45q1 27 19 45t45 19q27 -1 45 -19t19 -45q-1 -27 -19 -45t-45 -19v0zM369 327l-58 -57q-17 13 -39 16v81q56 -6 97 -40v0zM240 367v-81q-22 -3 -39 -16l-57 57q40 34 96 40v0zM121 304l57 -57q-13 -17 -16 -39h-81q6 56 40 96v0zM81 176h81q3 -22 16 -39
l-57 -58q-34 41 -40 97v0zM144 57l57 57q17 -13 39 -16v-81q-56 6 -96 40v0zM272 17v81q22 3 39 16l58 -57q-41 -34 -97 -40v0zM391 79l-57 58q13 17 16 39h81q-6 -56 -40 -97v0z" />
    <glyph glyph-name="face-frown" unicode="&#xf119;" 
d="M256 448q-72 -1 -129 -35v0q-58 -34 -92 -92v0q-34 -57 -35 -129q1 -72 35 -129q34 -58 92 -92q57 -34 129 -35q72 1 129 35q58 34 92 92q34 57 35 129q-1 72 -35 129q-34 58 -92 92q-57 34 -129 35v0zM256 -32q-62 1 -113 31v0q-50 30 -80 80v0q-30 51 -31 113
q1 62 31 113q30 50 80 80q51 30 113 31q62 -1 113 -31q50 -30 80 -80q30 -51 31 -113q-1 -62 -31 -113q-30 -50 -80 -80q-51 -30 -113 -31v0zM256 160q-64 -3 -94 -34v0q-30 -32 -34 -59q-1 -14 13 -19q14 -1 19 13v0q0 3 7 19q8 16 28 31q21 16 61 17q40 -1 61 -17
q21 -15 28 -32q8 -16 7 -18q4 -12 15 -13h3q14 5 13 19q-4 27 -33 59q-30 31 -94 34v0zM336 216q22 2 24 24q-2 22 -24 24q-22 -2 -24 -24q2 -22 24 -24v0zM175 216q23 2 25 24q-2 22 -25 24q-21 -2 -23 -24q2 -22 23 -24v0z" />
    <glyph glyph-name="face-frown" unicode="&#x2639;" 
d="M256 448q-72 -1 -129 -35v0q-58 -34 -92 -92v0q-34 -57 -35 -129q1 -72 35 -129q34 -58 92 -92q57 -34 129 -35q72 1 129 35q58 34 92 92q34 57 35 129q-1 72 -35 129q-34 58 -92 92q-57 34 -129 35v0zM256 -32q-62 1 -113 31v0q-50 30 -80 80v0q-30 51 -31 113
q1 62 31 113q30 50 80 80q51 30 113 31q62 -1 113 -31q50 -30 80 -80q30 -51 31 -113q-1 -62 -31 -113q-30 -50 -80 -80q-51 -30 -113 -31v0zM256 160q-64 -3 -94 -34v0q-30 -32 -34 -59q-1 -14 13 -19q14 -1 19 13v0q0 3 7 19q8 16 28 31q21 16 61 17q40 -1 61 -17
q21 -15 28 -32q8 -16 7 -18q4 -12 15 -13h3q14 5 13 19q-4 27 -33 59q-30 31 -94 34v0zM336 216q22 2 24 24q-2 22 -24 24q-22 -2 -24 -24q2 -22 24 -24v0zM175 216q23 2 25 24q-2 22 -25 24q-21 -2 -23 -24q2 -22 23 -24v0z" />
    <glyph glyph-name="mercury" unicode="&#xf223;" horiz-adv-x="384" 
d="M368 225q-1 54 -29 97v0q-28 42 -74 63q29 13 51 37q10 11 0 22q-12 10 -23 0q-42 -43 -101 -43t-100 42q-12 10 -23 1q-10 -12 -1 -23q24 -23 51 -37q-46 -21 -74 -63t-29 -96q2 -70 46 -119q45 -49 114 -56v-33h-48q-15 -1 -16 -16q1 -15 16 -16h48v-32q1 -16 16 -17
q15 1 16 16v32h48q15 1 16 16q-1 15 -16 16h-48v33q69 7 114 56q44 49 46 120v0zM48 225q2 61 42 102v0q41 40 102 42q61 -2 102 -42q40 -41 42 -102q-2 -61 -42 -102q-41 -41 -102 -42q-61 1 -102 42q-40 40 -42 102v0z" />
    <glyph glyph-name="mercury" unicode="&#x263f;" horiz-adv-x="384" 
d="M368 225q-1 54 -29 97v0q-28 42 -74 63q29 13 51 37q10 11 0 22q-12 10 -23 0q-42 -43 -101 -43t-100 42q-12 10 -23 1q-10 -12 -1 -23q24 -23 51 -37q-46 -21 -74 -63t-29 -96q2 -70 46 -119q45 -49 114 -56v-33h-48q-15 -1 -16 -16q1 -15 16 -16h48v-32q1 -16 16 -17
q15 1 16 16v32h48q15 1 16 16q-1 15 -16 16h-48v33q69 7 114 56q44 49 46 120v0zM48 225q2 61 42 102v0q41 40 102 42q61 -2 102 -42q40 -41 42 -102q-2 -61 -42 -102q-41 -41 -102 -42q-61 1 -102 42q-40 40 -42 102v0z" />
    <glyph glyph-name="venus" unicode="&#xf221;" horiz-adv-x="384" 
d="M368 272q-2 75 -52 124v0q-49 50 -124 52q-75 -2 -124 -52q-50 -49 -52 -124q2 -70 46 -119q45 -49 114 -56v-49h-64q-15 -1 -16 -16q1 -15 16 -16h64v-64q1 -15 16 -16q15 1 16 16v64h64q15 1 16 16q-1 15 -16 16h-64v49q69 7 114 56q44 49 46 119v0zM48 272
q2 61 42 102v0q41 40 102 42q61 -2 102 -42q40 -41 42 -102q-2 -61 -42 -102q-41 -40 -102 -42q-61 2 -102 42q-40 41 -42 102v0z" />
    <glyph glyph-name="venus" unicode="&#x2640;" horiz-adv-x="384" 
d="M368 272q-2 75 -52 124v0q-49 50 -124 52q-75 -2 -124 -52q-50 -49 -52 -124q2 -70 46 -119q45 -49 114 -56v-49h-64q-15 -1 -16 -16q1 -15 16 -16h64v-64q1 -15 16 -16q15 1 16 16v64h64q15 1 16 16q-1 15 -16 16h-64v49q69 7 114 56q44 49 46 119v0zM48 272
q2 61 42 102v0q41 40 102 42q61 -2 102 -42q40 -41 42 -102q-2 -61 -42 -102q-41 -40 -102 -42q-61 2 -102 42q-40 41 -42 102v0z" />
    <glyph glyph-name="mars" unicode="&#xf222;" horiz-adv-x="448" 
d="M447 406q-3 6 -9 9q-3 1 -6 1h-128q-15 -1 -16 -16q1 -15 16 -16h89l-104 -105q-47 40 -113 41q-75 -2 -124 -52q-50 -49 -52 -124q2 -75 52 -124q49 -50 124 -52q75 2 124 52q50 49 52 124q-1 66 -41 113l105 104v-89q1 -15 16 -16q15 1 16 16v128q0 3 -1 6v0zM320 144
q-2 -61 -42 -102v0q-41 -40 -102 -42q-61 2 -102 42q-40 41 -42 102q2 61 42 102q41 40 102 42q61 -2 102 -42q40 -41 42 -102v0z" />
    <glyph glyph-name="mars" unicode="&#x2642;" horiz-adv-x="448" 
d="M447 406q-3 6 -9 9q-3 1 -6 1h-128q-15 -1 -16 -16q1 -15 16 -16h89l-104 -105q-47 40 -113 41q-75 -2 -124 -52q-50 -49 -52 -124q2 -75 52 -124q49 -50 124 -52q75 2 124 52q50 49 52 124q-1 66 -41 113l105 104v-89q1 -15 16 -16q15 1 16 16v128q0 3 -1 6v0zM320 144
q-2 -61 -42 -102v0q-41 -40 -102 -42q-61 2 -102 42q-40 41 -42 102q2 61 42 102q41 40 102 42q61 -2 102 -42q40 -41 42 -102v0z" />
    <glyph glyph-name="chess-king" unicode="&#xf43f;" horiz-adv-x="448" 
d="M367 0h-287q-20 -1 -34 -14t-14 -33q1 -16 16 -17q15 1 16 16t16 16h288q15 -1 16 -16t16 -16q15 1 16 16q0 20 -14 34q-14 13 -35 14v0zM423 268q-14 19 -39 20h-144v64h48q15 1 16 16q-1 15 -16 16h-48v48q-1 15 -16 16q-15 -1 -16 -16v-48h-48q-15 -1 -17 -16
q2 -15 17 -16h48v-64h-144q-25 -1 -39 -20q-14 -21 -6 -44l61 -181q6 -14 21 -10q13 6 10 20l-62 182q-3 8 2 14q5 7 13 7h320q8 0 13 -7q5 -6 2 -14l-64 -182q-4 -14 10 -20q8 -3 13 1q6 4 7 9l64 181q8 23 -6 44v0z" />
    <glyph glyph-name="chess-king" unicode="&#x265a;" horiz-adv-x="448" 
d="M367 0h-287q-20 -1 -34 -14t-14 -33q1 -16 16 -17q15 1 16 16t16 16h288q15 -1 16 -16t16 -16q15 1 16 16q0 20 -14 34q-14 13 -35 14v0zM423 268q-14 19 -39 20h-144v64h48q15 1 16 16q-1 15 -16 16h-48v48q-1 15 -16 16q-15 -1 -16 -16v-48h-48q-15 -1 -17 -16
q2 -15 17 -16h48v-64h-144q-25 -1 -39 -20q-14 -21 -6 -44l61 -181q6 -14 21 -10q13 6 10 20l-62 182q-3 8 2 14q5 7 13 7h320q8 0 13 -7q5 -6 2 -14l-64 -182q-4 -14 10 -20q8 -3 13 1q6 4 7 9l64 181q8 23 -6 44v0z" />
    <glyph glyph-name="chess-queen" unicode="&#xf445;" 
d="M399 0h-288q-20 -1 -34 -14q-13 -13 -14 -33q3 -16 17 -17q15 1 16 16t16 16h288q15 -1 16 -16q2 -15 15 -16q14 1 16 16q0 20 -14 34q-13 13 -34 14v0zM482 268l-24 14q-23 13 -41 -8q-10 -13 -26 -10q-19 5 -21 28q-3 26 -28 28h-34q-21 -1 -27 -22q-5 -19 -25 -21
q-20 2 -25 21q-6 21 -27 22h-34q-12 0 -20 -8q-9 -8 -9 -20q0 -11 -7 -20q-7 -8 -17 -9q-13 -1 -22 11q-7 10 -19 12q-11 2 -21 -4l-26 -15q-19 -15 -10 -38l90 -188q7 -12 21 -7q13 7 8 21l-89 187l21 13q19 -25 50 -24q22 2 37 18t17 39h26q6 -19 21 -31q15 -11 35 -12
q20 1 35 12q15 12 21 31h26q2 -21 14 -37q13 -15 33 -19q35 -5 56 22l23 -11l-90 -188q-5 -14 8 -21q3 -2 7 -2q9 0 14 9l90 188q9 23 -11 39v0zM256 336q24 1 40 16v0q15 16 16 40q-1 24 -16 40q-16 15 -40 16q-24 -1 -40 -16q-16 -16 -17 -40q1 -24 17 -40q16 -15 40 -16
v0zM256 416q22 -2 24 -24q-2 -22 -24 -24q-22 2 -24 24q2 22 24 24v0z" />
    <glyph glyph-name="chess-queen" unicode="&#x265b;" 
d="M399 0h-288q-20 -1 -34 -14q-13 -13 -14 -33q3 -16 17 -17q15 1 16 16t16 16h288q15 -1 16 -16q2 -15 15 -16q14 1 16 16q0 20 -14 34q-13 13 -34 14v0zM482 268l-24 14q-23 13 -41 -8q-10 -13 -26 -10q-19 5 -21 28q-3 26 -28 28h-34q-21 -1 -27 -22q-5 -19 -25 -21
q-20 2 -25 21q-6 21 -27 22h-34q-12 0 -20 -8q-9 -8 -9 -20q0 -11 -7 -20q-7 -8 -17 -9q-13 -1 -22 11q-7 10 -19 12q-11 2 -21 -4l-26 -15q-19 -15 -10 -38l90 -188q7 -12 21 -7q13 7 8 21l-89 187l21 13q19 -25 50 -24q22 2 37 18t17 39h26q6 -19 21 -31q15 -11 35 -12
q20 1 35 12q15 12 21 31h26q2 -21 14 -37q13 -15 33 -19q35 -5 56 22l23 -11l-90 -188q-5 -14 8 -21q3 -2 7 -2q9 0 14 9l90 188q9 23 -11 39v0zM256 336q24 1 40 16v0q15 16 16 40q-1 24 -16 40q-16 15 -40 16q-24 -1 -40 -16q-16 -16 -17 -40q1 -24 17 -40q16 -15 40 -16
v0zM256 416q22 -2 24 -24q-2 -22 -24 -24q-22 2 -24 24q2 22 24 24v0z" />
    <glyph glyph-name="chess-rook" unicode="&#xf447;" horiz-adv-x="384" 
d="M336 416h-288q-20 -1 -34 -14q-13 -14 -14 -34v-112q0 -7 5 -11l59 -60v-9q0 -24 -1 -51q-2 -27 -9 -74q-1 -15 13 -19q14 -1 18 13q8 53 10 83q1 31 1 64q0 7 -5 11l-59 60v105q1 15 16 16h64v-64q1 -15 16 -16q15 1 16 16v64h96v-64q1 -15 16 -16q15 1 16 16v64h64
q15 -1 16 -16v-105l-59 -60q-5 -4 -5 -11v-9q0 -30 1 -59q2 -29 10 -79q2 -9 9 -11q7 -3 9 -2q15 4 14 19q-8 47 -10 74q-1 27 -1 52v8l59 60q5 4 5 11v112q-1 20 -14 34q-14 13 -34 14v0zM336 0h-289q-20 -1 -33 -14t-14 -33q1 -16 16 -17q15 1 16 16t16 16h288
q15 -1 16 -16t16 -16q15 1 16 16q-1 20 -14 34q-14 13 -34 14v0zM224 128q15 1 16 16v64q-1 20 -14 34q-14 13 -34 14q-20 -1 -34 -14q-13 -14 -14 -34v-64q1 -15 16 -16h64v0zM176 208q1 15 16 16q15 -1 16 -16v-48h-32v48v0z" />
    <glyph glyph-name="chess-rook" unicode="&#x265c;" horiz-adv-x="384" 
d="M336 416h-288q-20 -1 -34 -14q-13 -14 -14 -34v-112q0 -7 5 -11l59 -60v-9q0 -24 -1 -51q-2 -27 -9 -74q-1 -15 13 -19q14 -1 18 13q8 53 10 83q1 31 1 64q0 7 -5 11l-59 60v105q1 15 16 16h64v-64q1 -15 16 -16q15 1 16 16v64h96v-64q1 -15 16 -16q15 1 16 16v64h64
q15 -1 16 -16v-105l-59 -60q-5 -4 -5 -11v-9q0 -30 1 -59q2 -29 10 -79q2 -9 9 -11q7 -3 9 -2q15 4 14 19q-8 47 -10 74q-1 27 -1 52v8l59 60q5 4 5 11v112q-1 20 -14 34q-14 13 -34 14v0zM336 0h-289q-20 -1 -33 -14t-14 -33q1 -16 16 -17q15 1 16 16t16 16h288
q15 -1 16 -16t16 -16q15 1 16 16q-1 20 -14 34q-14 13 -34 14v0zM224 128q15 1 16 16v64q-1 20 -14 34q-14 13 -34 14q-20 -1 -34 -14q-13 -14 -14 -34v-64q1 -15 16 -16h64v0zM176 208q1 15 16 16q15 -1 16 -16v-48h-32v48v0z" />
    <glyph glyph-name="chess-bishop" unicode="&#xf43a;" horiz-adv-x="320" 
d="M64 76v-28q1 -15 16 -16q15 1 16 16v40q-1 12 -12 15l-11 4q-16 4 -28 18t-13 39q1 27 16 63t37 70q23 34 46 55h58q32 -30 61 -80l-85 -85q-10 -11 0 -22q5 -5 11 -5t11 5l78 78q22 -45 23 -79q-1 -25 -13 -39t-28 -18l-11 -4q-11 -4 -12 -14v-41q1 -15 16 -16
q15 1 16 16v28q26 8 45 30q18 22 19 58q-1 34 -19 77q-19 43 -46 82t-54 61h-82q-27 -22 -54 -61t-46 -82q-18 -43 -19 -77q1 -36 19 -58q19 -22 45 -30v0zM112 416h96q15 1 16 16q-1 15 -16 16h-96q-15 -1 -16 -16q1 -15 16 -16v0zM272 0h-224q-20 -1 -34 -14
q-13 -14 -14 -34q1 -15 16 -16q15 1 16 16t16 16h224q15 -1 16 -16t16 -16q15 1 16 16q-1 20 -14 34q-14 13 -34 14v0z" />
    <glyph glyph-name="chess-bishop" unicode="&#x265d;" horiz-adv-x="320" 
d="M64 76v-28q1 -15 16 -16q15 1 16 16v40q-1 12 -12 15l-11 4q-16 4 -28 18t-13 39q1 27 16 63t37 70q23 34 46 55h58q32 -30 61 -80l-85 -85q-10 -11 0 -22q5 -5 11 -5t11 5l78 78q22 -45 23 -79q-1 -25 -13 -39t-28 -18l-11 -4q-11 -4 -12 -14v-41q1 -15 16 -16
q15 1 16 16v28q26 8 45 30q18 22 19 58q-1 34 -19 77q-19 43 -46 82t-54 61h-82q-27 -22 -54 -61t-46 -82q-18 -43 -19 -77q1 -36 19 -58q19 -22 45 -30v0zM112 416h96q15 1 16 16q-1 15 -16 16h-96q-15 -1 -16 -16q1 -15 16 -16v0zM272 0h-224q-20 -1 -34 -14
q-13 -14 -14 -34q1 -15 16 -16q15 1 16 16t16 16h224q15 -1 16 -16t16 -16q15 1 16 16q-1 20 -14 34q-14 13 -34 14v0z" />
    <glyph glyph-name="chess-knight" unicode="&#xf441;" horiz-adv-x="384" 
d="M64 284q2 -18 20 -20q18 2 20 20q-2 18 -20 20q-18 -2 -20 -20v0zM36 146q18 -8 26 -11v0l10 -5v0q2 -1 4 -1q-32 -24 -39 -45q-7 -22 -5 -34v-2q1 -15 16 -16q15 1 16 16q-1 26 12 39q13 14 55 37l14 8q22 12 23 37v62l-16 -9q-10 -5 -11 -14l-8 -26q-4 -12 -17 -18
l-11 -5q-11 -4 -21 1l-35 16q-16 7 -17 25v119q1 12 11 19q1 2 3 3l-12 25q-5 16 8 17h86q82 -2 136 -56t56 -136v-144q1 -15 16 -16q15 1 16 16v144q-1 63 -31 113q-29 51 -80 80q-50 30 -113 31h-84q-16 0 -29 -10q-12 -10 -15 -26q-1 -14 5 -27l3 -6q-8 -12 -8 -27v-119
q2 -38 36 -55v0zM336 0h-289q-20 -1 -33 -14t-14 -33q1 -16 16 -17q15 1 16 16t16 16h288q15 -1 16 -16t16 -16q15 1 16 16q-1 20 -14 34q-14 13 -34 14v0z" />
    <glyph glyph-name="chess-knight" unicode="&#x265e;" horiz-adv-x="384" 
d="M64 284q2 -18 20 -20q18 2 20 20q-2 18 -20 20q-18 -2 -20 -20v0zM36 146q18 -8 26 -11v0l10 -5v0q2 -1 4 -1q-32 -24 -39 -45q-7 -22 -5 -34v-2q1 -15 16 -16q15 1 16 16q-1 26 12 39q13 14 55 37l14 8q22 12 23 37v62l-16 -9q-10 -5 -11 -14l-8 -26q-4 -12 -17 -18
l-11 -5q-11 -4 -21 1l-35 16q-16 7 -17 25v119q1 12 11 19q1 2 3 3l-12 25q-5 16 8 17h86q82 -2 136 -56t56 -136v-144q1 -15 16 -16q15 1 16 16v144q-1 63 -31 113q-29 51 -80 80q-50 30 -113 31h-84q-16 0 -29 -10q-12 -10 -15 -26q-1 -14 5 -27l3 -6q-8 -12 -8 -27v-119
q2 -38 36 -55v0zM336 0h-289q-20 -1 -33 -14t-14 -33q1 -16 16 -17q15 1 16 16t16 16h288q15 -1 16 -16t16 -16q15 1 16 16q-1 20 -14 34q-14 13 -34 14v0z" />
    <glyph glyph-name="chess-pawn" unicode="&#xf443;" horiz-adv-x="320" 
d="M272 0h-225q-20 -1 -33 -14t-14 -33q1 -16 16 -17q15 1 16 16t16 16h224q15 -1 16 -16t16 -16q15 1 16 16q-1 20 -14 34q-14 13 -34 14v0zM80 240q-15 -1 -16 -16q1 -15 16 -16h20l-36 -157q-1 -16 16 -19q12 1 16 12l37 164h54l37 -164q4 -11 16 -12q18 3 16 20l-36 156
h20q15 1 16 16q-1 15 -16 16h-5q28 30 29 72q-1 44 -31 74q-29 29 -74 30q-45 -1 -73 -30q-29 -30 -30 -74q1 -43 29 -72h-5v0zM160 384q31 -1 51 -21v0q20 -20 21 -51q-1 -31 -21 -51t-51 -21q-31 1 -51 21t-21 51q1 31 21 51t51 21v0z" />
    <glyph glyph-name="chess-pawn" unicode="&#x265f;" horiz-adv-x="320" 
d="M272 0h-225q-20 -1 -33 -14t-14 -33q1 -16 16 -17q15 1 16 16t16 16h224q15 -1 16 -16t16 -16q15 1 16 16q-1 20 -14 34q-14 13 -34 14v0zM80 240q-15 -1 -16 -16q1 -15 16 -16h20l-36 -157q-1 -16 16 -19q12 1 16 12l37 164h54l37 -164q4 -11 16 -12q18 3 16 20l-36 156
h20q15 1 16 16q-1 15 -16 16h-5q28 30 29 72q-1 44 -31 74q-29 29 -74 30q-45 -1 -73 -30q-29 -30 -30 -74q1 -43 29 -72h-5v0zM160 384q31 -1 51 -21v0q20 -20 21 -51q-1 -31 -21 -51t-51 -21q-31 1 -51 21t-21 51q1 31 21 51t51 21v0z" />
    <glyph glyph-name="spade" unicode="&#xf2f4;" 
d="M480 213l-199 224q-10 11 -25 11t-25 -11l-199 -224q-35 -41 -32 -92t43 -89q38 -32 85 -32q55 0 96 43l16 18v-93h-64q-15 -1 -16 -16q1 -15 16 -16h160q15 1 16 16q-1 15 -16 16h-64v93l16 -18q17 -19 42 -31q26 -12 56 -12q43 -1 83 32q40 38 43 89q3 50 -32 92v0z
M448 56q-28 -24 -62 -24q-21 0 -41 9q-19 8 -33 23l-19 22q-15 16 -37 16t-37 -16l-19 -22q-29 -31 -72 -32q-36 0 -64 24q-36 34 -31 84q4 31 26 54l196 222h1h1l196 -222q22 -23 26 -53q5 -51 -31 -85v0z" />
    <glyph glyph-name="spade" unicode="&#x2660;" 
d="M480 213l-199 224q-10 11 -25 11t-25 -11l-199 -224q-35 -41 -32 -92t43 -89q38 -32 85 -32q55 0 96 43l16 18v-93h-64q-15 -1 -16 -16q1 -15 16 -16h160q15 1 16 16q-1 15 -16 16h-64v93l16 -18q17 -19 42 -31q26 -12 56 -12q43 -1 83 32q40 38 43 89q3 50 -32 92v0z
M448 56q-28 -24 -62 -24q-21 0 -41 9q-19 8 -33 23l-19 22q-15 16 -37 16t-37 -16l-19 -22q-29 -31 -72 -32q-36 0 -64 24q-36 34 -31 84q4 31 26 54l196 222h1h1l196 -222q22 -23 26 -53q5 -51 -31 -85v0z" />
    <glyph glyph-name="club" unicode="&#xf327;" 
d="M375 272q9 22 9 48q-1 54 -37 91q-37 36 -91 37q-54 -1 -91 -37q-36 -37 -37 -91q0 -26 10 -48q-60 -1 -98 -40q-39 -39 -40 -96q1 -58 40 -96q38 -39 96 -40q65 2 104 50v-82h-64q-15 -1 -16 -16q1 -15 16 -16h160q15 1 16 16q-1 15 -16 16h-64v82q39 -48 104 -50
q58 1 96 40q39 38 40 96q-1 57 -40 96q-38 39 -97 40v0zM376 32q-29 0 -53 15v0q-25 15 -39 41q-9 17 -28 17t-28 -17q-14 -26 -39 -40q-24 -15 -53 -15q-46 1 -73 30q-28 29 -31 66q-2 47 28 79q31 31 74 32h14h13q9 0 14 7q4 6 1 15q-1 3 -3 7q-11 22 -13 51q1 41 28 68
t68 28q41 -1 68 -28t28 -68q-2 -29 -13 -50q-1 -4 -3 -8q-3 -9 1 -15q5 -7 14 -7v0h23h4v0q40 -1 72 -31q31 -30 30 -80q-3 -38 -31 -67q-27 -28 -73 -30v0z" />
    <glyph glyph-name="club" unicode="&#x2663;" 
d="M375 272q9 22 9 48q-1 54 -37 91q-37 36 -91 37q-54 -1 -91 -37q-36 -37 -37 -91q0 -26 10 -48q-60 -1 -98 -40q-39 -39 -40 -96q1 -58 40 -96q38 -39 96 -40q65 2 104 50v-82h-64q-15 -1 -16 -16q1 -15 16 -16h160q15 1 16 16q-1 15 -16 16h-64v82q39 -48 104 -50
q58 1 96 40q39 38 40 96q-1 57 -40 96q-38 39 -97 40v0zM376 32q-29 0 -53 15v0q-25 15 -39 41q-9 17 -28 17t-28 -17q-14 -26 -39 -40q-24 -15 -53 -15q-46 1 -73 30q-28 29 -31 66q-2 47 28 79q31 31 74 32h14h13q9 0 14 7q4 6 1 15q-1 3 -3 7q-11 22 -13 51q1 41 28 68
t68 28q41 -1 68 -28t28 -68q-2 -29 -13 -50q-1 -4 -3 -8q-3 -9 1 -15q5 -7 14 -7v0h23h4v0q40 -1 72 -31q31 -30 30 -80q-3 -38 -31 -67q-27 -28 -73 -30v0z" />
    <glyph glyph-name="heart" unicode="&#x1f9e1;" 
d="M462 385q-42 35 -95 31v0q-52 -4 -91 -44l-20 -21l-20 21q-32 34 -84 43q-53 9 -102 -30q-47 -42 -50 -102q-2 -59 40 -106l193 -199q10 -10 23 -10t22 10l194 200q42 46 40 105q-3 60 -50 102v0zM449 200l-193 -200l-193 200q-30 31 -31 78q-1 46 39 83q42 32 83 21
q40 -11 59 -33l43 -44l43 44q19 21 59 33q41 11 84 -21q39 -37 38 -83t-31 -78v0z" />
    <glyph glyph-name="heart" unicode="&#x1f90e;" 
d="M462 385q-42 35 -95 31v0q-52 -4 -91 -44l-20 -21l-20 21q-32 34 -84 43q-53 9 -102 -30q-47 -42 -50 -102q-2 -59 40 -106l193 -199q10 -10 23 -10t22 10l194 200q42 46 40 105q-3 60 -50 102v0zM449 200l-193 -200l-193 200q-30 31 -31 78q-1 46 39 83q42 32 83 21
q40 -11 59 -33l43 -44l43 44q19 21 59 33q41 11 84 -21q39 -37 38 -83t-31 -78v0z" />
    <glyph glyph-name="heart" unicode="&#x1f90d;" 
d="M462 385q-42 35 -95 31v0q-52 -4 -91 -44l-20 -21l-20 21q-32 34 -84 43q-53 9 -102 -30q-47 -42 -50 -102q-2 -59 40 -106l193 -199q10 -10 23 -10t22 10l194 200q42 46 40 105q-3 60 -50 102v0zM449 200l-193 -200l-193 200q-30 31 -31 78q-1 46 39 83q42 32 83 21
q40 -11 59 -33l43 -44l43 44q19 21 59 33q41 11 84 -21q39 -37 38 -83t-31 -78v0z" />
    <glyph glyph-name="heart" unicode="&#x1f5a4;" 
d="M462 385q-42 35 -95 31v0q-52 -4 -91 -44l-20 -21l-20 21q-32 34 -84 43q-53 9 -102 -30q-47 -42 -50 -102q-2 -59 40 -106l193 -199q10 -10 23 -10t22 10l194 200q42 46 40 105q-3 60 -50 102v0zM449 200l-193 -200l-193 200q-30 31 -31 78q-1 46 39 83q42 32 83 21
q40 -11 59 -33l43 -44l43 44q19 21 59 33q41 11 84 -21q39 -37 38 -83t-31 -78v0z" />
    <glyph glyph-name="heart" unicode="&#x1f49c;" 
d="M462 385q-42 35 -95 31v0q-52 -4 -91 -44l-20 -21l-20 21q-32 34 -84 43q-53 9 -102 -30q-47 -42 -50 -102q-2 -59 40 -106l193 -199q10 -10 23 -10t22 10l194 200q42 46 40 105q-3 60 -50 102v0zM449 200l-193 -200l-193 200q-30 31 -31 78q-1 46 39 83q42 32 83 21
q40 -11 59 -33l43 -44l43 44q19 21 59 33q41 11 84 -21q39 -37 38 -83t-31 -78v0z" />
    <glyph glyph-name="heart" unicode="&#x1f49b;" 
d="M462 385q-42 35 -95 31v0q-52 -4 -91 -44l-20 -21l-20 21q-32 34 -84 43q-53 9 -102 -30q-47 -42 -50 -102q-2 -59 40 -106l193 -199q10 -10 23 -10t22 10l194 200q42 46 40 105q-3 60 -50 102v0zM449 200l-193 -200l-193 200q-30 31 -31 78q-1 46 39 83q42 32 83 21
q40 -11 59 -33l43 -44l43 44q19 21 59 33q41 11 84 -21q39 -37 38 -83t-31 -78v0z" />
    <glyph glyph-name="heart" unicode="&#x1f49a;" 
d="M462 385q-42 35 -95 31v0q-52 -4 -91 -44l-20 -21l-20 21q-32 34 -84 43q-53 9 -102 -30q-47 -42 -50 -102q-2 -59 40 -106l193 -199q10 -10 23 -10t22 10l194 200q42 46 40 105q-3 60 -50 102v0zM449 200l-193 -200l-193 200q-30 31 -31 78q-1 46 39 83q42 32 83 21
q40 -11 59 -33l43 -44l43 44q19 21 59 33q41 11 84 -21q39 -37 38 -83t-31 -78v0z" />
    <glyph glyph-name="heart" unicode="&#x1f499;" 
d="M462 385q-42 35 -95 31v0q-52 -4 -91 -44l-20 -21l-20 21q-32 34 -84 43q-53 9 -102 -30q-47 -42 -50 -102q-2 -59 40 -106l193 -199q10 -10 23 -10t22 10l194 200q42 46 40 105q-3 60 -50 102v0zM449 200l-193 -200l-193 200q-30 31 -31 78q-1 46 39 83q42 32 83 21
q40 -11 59 -33l43 -44l43 44q19 21 59 33q41 11 84 -21q39 -37 38 -83t-31 -78v0z" />
    <glyph glyph-name="heart" unicode="&#xf08a;" 
d="M462 385q-42 35 -95 31v0q-52 -4 -91 -44l-20 -21l-20 21q-32 34 -84 43q-53 9 -102 -30q-47 -42 -50 -102q-2 -59 40 -106l193 -199q10 -10 23 -10t22 10l194 200q42 46 40 105q-3 60 -50 102v0zM449 200l-193 -200l-193 200q-30 31 -31 78q-1 46 39 83q42 32 83 21
q40 -11 59 -33l43 -44l43 44q19 21 59 33q41 11 84 -21q39 -37 38 -83t-31 -78v0z" />
    <glyph glyph-name="heart" unicode="&#xf004;" 
d="M462 385q-42 35 -95 31v0q-52 -4 -91 -44l-20 -21l-20 21q-32 34 -84 43q-53 9 -102 -30q-47 -42 -50 -102q-2 -59 40 -106l193 -199q10 -10 23 -10t22 10l194 200q42 46 40 105q-3 60 -50 102v0zM449 200l-193 -200l-193 200q-30 31 -31 78q-1 46 39 83q42 32 83 21
q40 -11 59 -33l43 -44l43 44q19 21 59 33q41 11 84 -21q39 -37 38 -83t-31 -78v0z" />
    <glyph glyph-name="heart" unicode="&#x2764;" 
d="M462 385q-42 35 -95 31v0q-52 -4 -91 -44l-20 -21l-20 21q-32 34 -84 43q-53 9 -102 -30q-47 -42 -50 -102q-2 -59 40 -106l193 -199q10 -10 23 -10t22 10l194 200q42 46 40 105q-3 60 -50 102v0zM449 200l-193 -200l-193 200q-30 31 -31 78q-1 46 39 83q42 32 83 21
q40 -11 59 -33l43 -44l43 44q19 21 59 33q41 11 84 -21q39 -37 38 -83t-31 -78v0z" />
    <glyph glyph-name="heart" unicode="&#x2665;" 
d="M462 385q-42 35 -95 31v0q-52 -4 -91 -44l-20 -21l-20 21q-32 34 -84 43q-53 9 -102 -30q-47 -42 -50 -102q-2 -59 40 -106l193 -199q10 -10 23 -10t22 10l194 200q42 46 40 105q-3 60 -50 102v0zM449 200l-193 -200l-193 200q-30 31 -31 78q-1 46 39 83q42 32 83 21
q40 -11 59 -33l43 -44l43 44q19 21 59 33q41 11 84 -21q39 -37 38 -83t-31 -78v0z" />
    <glyph glyph-name="diamond" unicode="&#xf219;" 
d="M497 226l-208 208q-14 14 -33 14t-34 -14l-208 -208q-14 -15 -14 -34t14 -34l208 -208q15 -14 34 -14t34 14l208 208q14 15 14 34t-15 34v0zM475 181l-208 -208q-7 -6 -11 -5q-4 -1 -11 5l-208 208q-10 11 0 22l208 208q7 6 11 5q4 1 11 -5l208 -208q10 -10 0 -22v0z" />
    <glyph glyph-name="diamond" unicode="&#x2666;" 
d="M497 226l-208 208q-14 14 -33 14t-34 -14l-208 -208q-14 -15 -14 -34t14 -34l208 -208q15 -14 34 -14t34 14l208 208q14 15 14 34t-15 34v0zM475 181l-208 -208q-7 -6 -11 -5q-4 -1 -11 5l-208 208q-10 11 0 22l208 208q7 6 11 5q4 1 11 -5l208 -208q10 -10 0 -22v0z" />
    <glyph glyph-name="recycle" unicode="&#xf1b8;" 
d="M160 32h-80q-28 1 -42 24q-12 24 1 48l70 114l14 -48q4 -11 15 -12q2 0 4 1q14 5 11 20l-25 87q-2 6 -7 9q-6 4 -13 2l-87 -25q-13 -6 -10 -20q5 -14 19 -11l52 15l-70 -116q-22 -39 -2 -79q24 -40 70 -41h80q14 1 15 16q-1 15 -15 16v0zM500 120l-38 64q-9 12 -22 6
q-12 -9 -6 -22l39 -64q13 -24 1 -48q-14 -23 -42 -24h-121l36 37q10 11 0 22q-11 10 -22 0l-64 -64q-10 -11 0 -22l64 -64q5 -5 10 -5q6 0 11 5q10 11 0 22l-35 37h121q46 1 70 41q21 40 -2 79v0zM297 393l51 -83l-46 13q-14 3 -20 -11q-2 -14 11 -20l87 -25h5q4 0 7 2
q6 3 8 9l25 87q3 14 -11 20q-14 3 -19 -11l-16 -54l-54 89q-24 38 -69 39q-45 -1 -69 -39l-30 -49q-6 -13 6 -22q13 -6 22 6l30 49q14 22 41 23q27 -1 41 -23v0z" />
    <glyph glyph-name="recycle" unicode="&#x267b;" 
d="M160 32h-80q-28 1 -42 24q-12 24 1 48l70 114l14 -48q4 -11 15 -12q2 0 4 1q14 5 11 20l-25 87q-2 6 -7 9q-6 4 -13 2l-87 -25q-13 -6 -10 -20q5 -14 19 -11l52 15l-70 -116q-22 -39 -2 -79q24 -40 70 -41h80q14 1 15 16q-1 15 -15 16v0zM500 120l-38 64q-9 12 -22 6
q-12 -9 -6 -22l39 -64q13 -24 1 -48q-14 -23 -42 -24h-121l36 37q10 11 0 22q-11 10 -22 0l-64 -64q-10 -11 0 -22l64 -64q5 -5 10 -5q6 0 11 5q10 11 0 22l-35 37h121q46 1 70 41q21 40 -2 79v0zM297 393l51 -83l-46 13q-14 3 -20 -11q-2 -14 11 -20l87 -25h5q4 0 7 2
q6 3 8 9l25 87q3 14 -11 20q-14 3 -19 -11l-16 -54l-54 89q-24 38 -69 39q-45 -1 -69 -39l-30 -49q-6 -13 6 -22q13 -6 22 6l30 49q14 22 41 23q27 -1 41 -23v0z" />
    <glyph glyph-name="recycle" unicode="&#x267a;" 
d="M160 32h-80q-28 1 -42 24q-12 24 1 48l70 114l14 -48q4 -11 15 -12q2 0 4 1q14 5 11 20l-25 87q-2 6 -7 9q-6 4 -13 2l-87 -25q-13 -6 -10 -20q5 -14 19 -11l52 15l-70 -116q-22 -39 -2 -79q24 -40 70 -41h80q14 1 15 16q-1 15 -15 16v0zM500 120l-38 64q-9 12 -22 6
q-12 -9 -6 -22l39 -64q13 -24 1 -48q-14 -23 -42 -24h-121l36 37q10 11 0 22q-11 10 -22 0l-64 -64q-10 -11 0 -22l64 -64q5 -5 10 -5q6 0 11 5q10 11 0 22l-35 37h121q46 1 70 41q21 40 -2 79v0zM297 393l51 -83l-46 13q-14 3 -20 -11q-2 -14 11 -20l87 -25h5q4 0 7 2
q6 3 8 9l25 87q3 14 -11 20q-14 3 -19 -11l-16 -54l-54 89q-24 38 -69 39q-45 -1 -69 -39l-30 -49q-6 -13 6 -22q13 -6 22 6l30 49q14 22 41 23q27 -1 41 -23v0z" />
    <glyph glyph-name="recycle" unicode="&#x2672;" 
d="M160 32h-80q-28 1 -42 24q-12 24 1 48l70 114l14 -48q4 -11 15 -12q2 0 4 1q14 5 11 20l-25 87q-2 6 -7 9q-6 4 -13 2l-87 -25q-13 -6 -10 -20q5 -14 19 -11l52 15l-70 -116q-22 -39 -2 -79q24 -40 70 -41h80q14 1 15 16q-1 15 -15 16v0zM500 120l-38 64q-9 12 -22 6
q-12 -9 -6 -22l39 -64q13 -24 1 -48q-14 -23 -42 -24h-121l36 37q10 11 0 22q-11 10 -22 0l-64 -64q-10 -11 0 -22l64 -64q5 -5 10 -5q6 0 11 5q10 11 0 22l-35 37h121q46 1 70 41q21 40 -2 79v0zM297 393l51 -83l-46 13q-14 3 -20 -11q-2 -14 11 -20l87 -25h5q4 0 7 2
q6 3 8 9l25 87q3 14 -11 20q-14 3 -19 -11l-16 -54l-54 89q-24 38 -69 39q-45 -1 -69 -39l-30 -49q-6 -13 6 -22q13 -6 22 6l30 49q14 22 41 23q27 -1 41 -23v0z" />
    <glyph glyph-name="dice-one" unicode="&#xf525;" horiz-adv-x="448" 
d="M384 416h-320q-27 -1 -45 -19t-19 -45v-320q1 -27 19 -45t45 -19h320q27 1 45 19t19 45v320q-1 27 -19 45t-45 19v0zM416 32q0 -14 -9 -23v0q-9 -9 -23 -9h-320q-14 0 -23 9t-9 23v320q0 14 9 23t23 9h320q14 0 23 -9t9 -23v-320v0zM224 216q-22 -2 -24 -24q2 -22 24 -24
q22 2 24 24q-2 22 -24 24v0z" />
    <glyph glyph-name="dice-one" unicode="&#x2680;" horiz-adv-x="448" 
d="M384 416h-320q-27 -1 -45 -19t-19 -45v-320q1 -27 19 -45t45 -19h320q27 1 45 19t19 45v320q-1 27 -19 45t-45 19v0zM416 32q0 -14 -9 -23v0q-9 -9 -23 -9h-320q-14 0 -23 9t-9 23v320q0 14 9 23t23 9h320q14 0 23 -9t9 -23v-320v0zM224 216q-22 -2 -24 -24q2 -22 24 -24
q22 2 24 24q-2 22 -24 24v0z" />
    <glyph glyph-name="dice-two" unicode="&#xf528;" horiz-adv-x="448" 
d="M384 416h-320q-27 -1 -45 -19t-19 -45v-320q1 -27 19 -45t45 -19h320q27 1 45 19t19 45v320q-1 27 -19 45t-45 19v0zM416 32q0 -14 -9 -23v0q-9 -9 -23 -9h-320q-14 0 -23 9t-9 23v320q0 14 9 23t23 9h320q14 0 23 -9t9 -23v-320v0zM128 312q-22 -2 -24 -24q2 -22 24 -24
q22 2 24 24q-2 22 -24 24v0zM320 120q-22 -2 -24 -24q2 -22 24 -24q22 2 24 24q-2 22 -24 24v0z" />
    <glyph glyph-name="dice-two" unicode="&#x2681;" horiz-adv-x="448" 
d="M384 416h-320q-27 -1 -45 -19t-19 -45v-320q1 -27 19 -45t45 -19h320q27 1 45 19t19 45v320q-1 27 -19 45t-45 19v0zM416 32q0 -14 -9 -23v0q-9 -9 -23 -9h-320q-14 0 -23 9t-9 23v320q0 14 9 23t23 9h320q14 0 23 -9t9 -23v-320v0zM128 312q-22 -2 -24 -24q2 -22 24 -24
q22 2 24 24q-2 22 -24 24v0zM320 120q-22 -2 -24 -24q2 -22 24 -24q22 2 24 24q-2 22 -24 24v0z" />
    <glyph glyph-name="dice-three" unicode="&#xf527;" horiz-adv-x="448" 
d="M384 416h-320q-27 -1 -45 -19t-19 -45v-320q1 -27 19 -45t45 -19h320q27 1 45 19t19 45v320q-1 27 -19 45t-45 19v0zM416 32q0 -14 -9 -23v0q-9 -9 -23 -9h-320q-14 0 -23 9t-9 23v320q0 14 9 23t23 9h320q14 0 23 -9t9 -23v-320v0zM128 312q-22 -2 -24 -24q2 -22 24 -24
q22 2 24 24q-2 22 -24 24v0zM224 216q-22 -2 -24 -24q2 -22 24 -24q22 2 24 24q-2 22 -24 24v0zM320 120q-22 -2 -24 -24q2 -22 24 -24q22 2 24 24q-2 22 -24 24v0z" />
    <glyph glyph-name="dice-three" unicode="&#x2682;" horiz-adv-x="448" 
d="M384 416h-320q-27 -1 -45 -19t-19 -45v-320q1 -27 19 -45t45 -19h320q27 1 45 19t19 45v320q-1 27 -19 45t-45 19v0zM416 32q0 -14 -9 -23v0q-9 -9 -23 -9h-320q-14 0 -23 9t-9 23v320q0 14 9 23t23 9h320q14 0 23 -9t9 -23v-320v0zM128 312q-22 -2 -24 -24q2 -22 24 -24
q22 2 24 24q-2 22 -24 24v0zM224 216q-22 -2 -24 -24q2 -22 24 -24q22 2 24 24q-2 22 -24 24v0zM320 120q-22 -2 -24 -24q2 -22 24 -24q22 2 24 24q-2 22 -24 24v0z" />
    <glyph glyph-name="dice-four" unicode="&#xf524;" horiz-adv-x="448" 
d="M384 416h-320q-27 -1 -45 -19t-19 -45v-320q1 -27 19 -45t45 -19h320q27 1 45 19t19 45v320q-1 27 -19 45t-45 19v0zM416 32q0 -14 -9 -23v0q-9 -9 -23 -9h-320q-14 0 -23 9t-9 23v320q0 14 9 23t23 9h320q14 0 23 -9t9 -23v-320v0zM128 312q-22 -2 -24 -24q2 -22 24 -24
q22 2 24 24q-2 22 -24 24v0zM128 120q-22 -2 -24 -24q2 -22 24 -24q22 2 24 24q-2 22 -24 24v0zM320 312q-22 -2 -24 -24q2 -22 24 -24q22 2 24 24q-2 22 -24 24v0zM320 120q-22 -2 -24 -24q2 -22 24 -24q22 2 24 24q-2 22 -24 24v0z" />
    <glyph glyph-name="dice-four" unicode="&#x2683;" horiz-adv-x="448" 
d="M384 416h-320q-27 -1 -45 -19t-19 -45v-320q1 -27 19 -45t45 -19h320q27 1 45 19t19 45v320q-1 27 -19 45t-45 19v0zM416 32q0 -14 -9 -23v0q-9 -9 -23 -9h-320q-14 0 -23 9t-9 23v320q0 14 9 23t23 9h320q14 0 23 -9t9 -23v-320v0zM128 312q-22 -2 -24 -24q2 -22 24 -24
q22 2 24 24q-2 22 -24 24v0zM128 120q-22 -2 -24 -24q2 -22 24 -24q22 2 24 24q-2 22 -24 24v0zM320 312q-22 -2 -24 -24q2 -22 24 -24q22 2 24 24q-2 22 -24 24v0zM320 120q-22 -2 -24 -24q2 -22 24 -24q22 2 24 24q-2 22 -24 24v0z" />
    <glyph glyph-name="dice-five" unicode="&#xf523;" horiz-adv-x="448" 
d="M384 416h-320q-27 -1 -45 -19t-19 -45v-320q1 -27 19 -45t45 -19h320q27 1 45 19t19 45v320q-1 27 -19 45t-45 19v0zM416 32q0 -14 -9 -23v0q-9 -9 -23 -9h-320q-14 0 -23 9t-9 23v320q0 14 9 23t23 9h320q14 0 23 -9t9 -23v-320v0zM128 312q-22 -2 -24 -24q2 -22 24 -24
q22 2 24 24q-2 22 -24 24v0zM224 216q-22 -2 -24 -24q2 -22 24 -24q22 2 24 24q-2 22 -24 24v0zM128 120q-22 -2 -24 -24q2 -22 24 -24q22 2 24 24q-2 22 -24 24v0zM320 312q-22 -2 -24 -24q2 -22 24 -24q22 2 24 24q-2 22 -24 24v0zM320 120q-22 -2 -24 -24q2 -22 24 -24
q22 2 24 24q-2 22 -24 24v0z" />
    <glyph glyph-name="dice-five" unicode="&#x2684;" horiz-adv-x="448" 
d="M384 416h-320q-27 -1 -45 -19t-19 -45v-320q1 -27 19 -45t45 -19h320q27 1 45 19t19 45v320q-1 27 -19 45t-45 19v0zM416 32q0 -14 -9 -23v0q-9 -9 -23 -9h-320q-14 0 -23 9t-9 23v320q0 14 9 23t23 9h320q14 0 23 -9t9 -23v-320v0zM128 312q-22 -2 -24 -24q2 -22 24 -24
q22 2 24 24q-2 22 -24 24v0zM224 216q-22 -2 -24 -24q2 -22 24 -24q22 2 24 24q-2 22 -24 24v0zM128 120q-22 -2 -24 -24q2 -22 24 -24q22 2 24 24q-2 22 -24 24v0zM320 312q-22 -2 -24 -24q2 -22 24 -24q22 2 24 24q-2 22 -24 24v0zM320 120q-22 -2 -24 -24q2 -22 24 -24
q22 2 24 24q-2 22 -24 24v0z" />
    <glyph glyph-name="dice-six" unicode="&#xf526;" horiz-adv-x="448" 
d="M384 416h-320q-27 -1 -45 -19t-19 -45v-320q1 -27 19 -45t45 -19h320q27 1 45 19t19 45v320q-1 27 -19 45t-45 19v0zM416 32q0 -14 -9 -23v0q-9 -9 -23 -9h-320q-14 0 -23 9t-9 23v320q0 14 9 23t23 9h320q14 0 23 -9t9 -23v-320v0zM128 312q-22 -2 -24 -24q2 -22 24 -24
q22 2 24 24q-2 22 -24 24v0zM128 216q-22 -2 -24 -24q2 -22 24 -24q22 2 24 24q-2 22 -24 24v0zM320 216q-22 -2 -24 -24q2 -22 24 -24q22 2 24 24q-2 22 -24 24v0zM128 120q-22 -2 -24 -24q2 -22 24 -24q22 2 24 24q-2 22 -24 24v0zM320 312q-22 -2 -24 -24q2 -22 24 -24
q22 2 24 24q-2 22 -24 24v0zM320 120q-22 -2 -24 -24q2 -22 24 -24q22 2 24 24q-2 22 -24 24v0z" />
    <glyph glyph-name="dice-six" unicode="&#x2685;" horiz-adv-x="448" 
d="M384 416h-320q-27 -1 -45 -19t-19 -45v-320q1 -27 19 -45t45 -19h320q27 1 45 19t19 45v320q-1 27 -19 45t-45 19v0zM416 32q0 -14 -9 -23v0q-9 -9 -23 -9h-320q-14 0 -23 9t-9 23v320q0 14 9 23t23 9h320q14 0 23 -9t9 -23v-320v0zM128 312q-22 -2 -24 -24q2 -22 24 -24
q22 2 24 24q-2 22 -24 24v0zM128 216q-22 -2 -24 -24q2 -22 24 -24q22 2 24 24q-2 22 -24 24v0zM320 216q-22 -2 -24 -24q2 -22 24 -24q22 2 24 24q-2 22 -24 24v0zM128 120q-22 -2 -24 -24q2 -22 24 -24q22 2 24 24q-2 22 -24 24v0zM320 312q-22 -2 -24 -24q2 -22 24 -24
q22 2 24 24q-2 22 -24 24v0zM320 120q-22 -2 -24 -24q2 -22 24 -24q22 2 24 24q-2 22 -24 24v0z" />
    <glyph glyph-name="anchor" unicode="&#xf13d;" horiz-adv-x="576" 
d="M571 123l-63 64q-11 10 -22 0l-64 -64q-9 -11 0 -22q12 -10 23 0l35 36v-25q-2 -61 -42 -102q-41 -40 -102 -42h-32v256h64q15 1 16 16q-1 15 -16 16h-64v34q28 6 46 27q17 21 18 51q-1 34 -23 57q-23 22 -56 23q-34 -1 -57 -23q-23 -23 -24 -57q1 -30 18 -51
q18 -21 46 -27v-34h-64q-15 -1 -16 -16q1 -15 16 -16h64v-256h-32q-61 2 -102 42q-40 41 -42 102v25l37 -36q5 -5 11 -5t11 5q10 11 0 22l-63 64q-11 10 -22 0l-64 -64q-9 -11 0 -22q12 -10 23 0l35 36v-25q2 -75 51 -124q50 -50 125 -52h95q75 2 125 52q50 49 52 124v25
l37 -36q5 -5 10 -5q6 0 11 5q11 11 1 22v0zM240 368q1 20 14 34v0q14 13 34 14q20 -1 34 -14q13 -14 14 -34q-1 -20 -14 -34q-14 -13 -34 -14q-20 1 -34 14q-13 14 -14 34v0z" />
    <glyph glyph-name="anchor" unicode="&#x2693;" horiz-adv-x="576" 
d="M571 123l-63 64q-11 10 -22 0l-64 -64q-9 -11 0 -22q12 -10 23 0l35 36v-25q-2 -61 -42 -102q-41 -40 -102 -42h-32v256h64q15 1 16 16q-1 15 -16 16h-64v34q28 6 46 27q17 21 18 51q-1 34 -23 57q-23 22 -56 23q-34 -1 -57 -23q-23 -23 -24 -57q1 -30 18 -51
q18 -21 46 -27v-34h-64q-15 -1 -16 -16q1 -15 16 -16h64v-256h-32q-61 2 -102 42q-40 41 -42 102v25l37 -36q5 -5 11 -5t11 5q10 11 0 22l-63 64q-11 10 -22 0l-64 -64q-9 -11 0 -22q12 -10 23 0l35 36v-25q2 -75 51 -124q50 -50 125 -52h95q75 2 125 52q50 49 52 124v25
l37 -36q5 -5 10 -5q6 0 11 5q11 11 1 22v0zM240 368q1 20 14 34v0q14 13 34 14q20 -1 34 -14q13 -14 14 -34q-1 -20 -14 -34q-14 -13 -34 -14q-20 1 -34 14q-13 14 -14 34v0z" />
    <glyph glyph-name="swords" unicode="&#xf71d;" 
d="M313 299l102 103l61 10l-10 -61l-103 -102q-9 -12 0 -23q12 -9 23 0l110 110l16 94q1 8 -5 14q-6 5 -13 4l-94 -16l-110 -110q-9 -11 0 -23q11 -8 23 0v0zM289 86q9 11 0 23l-243 242l-10 61l61 -10l242 -243q12 -9 23 0q9 12 0 23l-250 249l-94 16q-8 1 -14 -4
q-5 -5 -4 -13l16 -94l250 -249q11 -11 23 -1v0zM211 45l8 8q10 11 0 22q-11 10 -22 0l-8 -8l-58 58l8 8q10 11 0 22q-11 10 -22 0l-8 -8l-24 24q-5 5 -12 6q-6 0 -11 -5l-34 -35q-8 -10 -2 -20l34 -57l-51 -51q-9 -10 -9 -23q0 -12 9 -22l19 -19q10 -9 22 -9q13 0 23 9
l51 51l57 -34q4 -3 8 -3q7 0 12 5l34 34q10 11 0 23l-24 24v0zM187 -5l-68 41l-69 -68l-18 18l68 69l-41 68l15 14l127 -127l-14 -15v0zM503 9l-51 50l34 58q3 4 3 8q0 7 -5 12l-34 34q-11 10 -23 0l-150 -150q-5 -5 -5 -12q0 -6 5 -11l34 -34q10 -8 20 -2l57 34l51 -51
q10 -9 23 -9q12 0 22 9l19 19q9 9 9 22q-1 13 -9 23v0zM462 -32l-69 68l-68 -41l-14 14l127 128l15 -14l-41 -68l68 -69l-18 -18v0z" />
    <glyph glyph-name="swords" unicode="&#x2694;" 
d="M313 299l102 103l61 10l-10 -61l-103 -102q-9 -12 0 -23q12 -9 23 0l110 110l16 94q1 8 -5 14q-6 5 -13 4l-94 -16l-110 -110q-9 -11 0 -23q11 -8 23 0v0zM289 86q9 11 0 23l-243 242l-10 61l61 -10l242 -243q12 -9 23 0q9 12 0 23l-250 249l-94 16q-8 1 -14 -4
q-5 -5 -4 -13l16 -94l250 -249q11 -11 23 -1v0zM211 45l8 8q10 11 0 22q-11 10 -22 0l-8 -8l-58 58l8 8q10 11 0 22q-11 10 -22 0l-8 -8l-24 24q-5 5 -12 6q-6 0 -11 -5l-34 -35q-8 -10 -2 -20l34 -57l-51 -51q-9 -10 -9 -23q0 -12 9 -22l19 -19q10 -9 22 -9q13 0 23 9
l51 51l57 -34q4 -3 8 -3q7 0 12 5l34 34q10 11 0 23l-24 24v0zM187 -5l-68 41l-69 -68l-18 18l68 69l-41 68l15 14l127 -127l-14 -15v0zM503 9l-51 50l34 58q3 4 3 8q0 7 -5 12l-34 34q-11 10 -23 0l-150 -150q-5 -5 -5 -12q0 -6 5 -11l34 -34q10 -8 20 -2l57 34l51 -51
q10 -9 23 -9q12 0 22 9l19 19q9 9 9 22q-1 13 -9 23v0zM462 -32l-69 68l-68 -41l-14 14l127 128l15 -14l-41 -68l68 -69l-18 -18v0z" />
    <glyph glyph-name="scale-balanced" unicode="&#xf24e;" horiz-adv-x="640" 
d="M528 -32h-192v354q21 6 34 23q13 16 13 39h144q15 1 16 16q-1 15 -16 16h-153v0q1 4 -19 21q-15 11 -35 11t-36 -11q-20 -18 -19 -21v0h-154q-15 -1 -16 -16q2 -15 16 -16h144q1 -23 14 -39q13 -17 33 -23v-354h-191q-14 -1 -16 -16q2 -15 16 -16h416q15 1 16 16
q0 15 -15 16v0zM287 384q0 14 9 23v0q10 9 23 9q14 0 23 -9t9 -23t-9 -23t-22 -9q-14 0 -23 9t-10 23v0zM634 169l-109 175q-5 8 -13 8t-13 -7l-109 -175q-6 -9 -6 -20q5 -51 41 -84q35 -33 87 -34q52 1 87 34q36 33 41 83q1 11 -6 20v0zM512 64q-32 1 -56 18v0
q-24 18 -35 46h181q-10 -28 -34 -46q-25 -17 -56 -18v0zM422 160l90 146l91 -146h-181v0zM256 149q1 11 -6 20l-109 175q-5 8 -14 8q-7 0 -12 -7l-109 -176q-7 -9 -6 -20q5 -50 41 -83q35 -33 86 -34q52 1 88 34t41 83v0zM127 306l91 -146h-180l89 146v0zM37 128h181
q-10 -28 -34 -46q-25 -17 -56 -18q-32 1 -56 18q-24 18 -35 46v0z" />
    <glyph glyph-name="scale-balanced" unicode="&#x2696;" horiz-adv-x="640" 
d="M528 -32h-192v354q21 6 34 23q13 16 13 39h144q15 1 16 16q-1 15 -16 16h-153v0q1 4 -19 21q-15 11 -35 11t-36 -11q-20 -18 -19 -21v0h-154q-15 -1 -16 -16q2 -15 16 -16h144q1 -23 14 -39q13 -17 33 -23v-354h-191q-14 -1 -16 -16q2 -15 16 -16h416q15 1 16 16
q0 15 -15 16v0zM287 384q0 14 9 23v0q10 9 23 9q14 0 23 -9t9 -23t-9 -23t-22 -9q-14 0 -23 9t-10 23v0zM634 169l-109 175q-5 8 -13 8t-13 -7l-109 -175q-6 -9 -6 -20q5 -51 41 -84q35 -33 87 -34q52 1 87 34q36 33 41 83q1 11 -6 20v0zM512 64q-32 1 -56 18v0
q-24 18 -35 46h181q-10 -28 -34 -46q-25 -17 -56 -18v0zM422 160l90 146l91 -146h-181v0zM256 149q1 11 -6 20l-109 175q-5 8 -14 8q-7 0 -12 -7l-109 -176q-7 -9 -6 -20q5 -50 41 -83q35 -33 86 -34q52 1 88 34t41 83v0zM127 306l91 -146h-180l89 146v0zM37 128h181
q-10 -28 -34 -46q-25 -17 -56 -18q-32 1 -56 18q-24 18 -35 46v0z" />
    <glyph glyph-name="flower-daffodil" unicode="&#xf800;" 
d="M288 304q0 14 -9 23v0q-9 9 -23 9t-23 -9t-9 -23t9 -23t23 -9t23 9t9 23v0zM496 160h-47q-53 0 -99 -23q-46 -22 -78 -63v96q19 -10 41 -10q37 1 62 26q24 24 25 61q0 32 -21 57q21 25 21 57q-1 37 -26 61q-24 25 -61 26q-32 0 -57 -21q-25 21 -57 21q-38 -1 -62 -26
q-25 -24 -26 -61q0 -32 21 -57q-20 -25 -21 -57q1 -37 26 -61q24 -25 62 -26q22 0 41 10v-96q-32 41 -78 63q-46 23 -99 23h-47q-16 -2 -16 -20q10 -88 72 -145t152 -59h64q90 2 152 59t72 145q-1 18 -16 20v0zM239 -32h-15q-72 1 -125 46q-52 44 -65 114h29q52 0 95 -25
q44 -24 70 -68q8 -15 10 -29q2 -13 1 -29v-9v0zM256 232l-13 -18q-17 -21 -44 -22q-23 1 -39 16q-15 16 -16 39q1 27 22 44l18 13l-18 13q-22 17 -23 44q1 23 17 39q16 15 39 16q27 -1 44 -22l13 -18l13 18q17 21 44 22q23 -1 39 -16q15 -16 16 -39q-1 -28 -22 -43l-18 -14
l18 -13q21 -17 22 -44q-1 -23 -16 -39q-16 -15 -39 -16q-27 1 -44 22l-13 18v0zM288 -32h-16v9q-1 15 1 29t11 29q26 44 70 68q43 25 95 25h29q-13 -70 -65 -114q-53 -45 -125 -46v0z" />
    <glyph glyph-name="flower-daffodil" unicode="&#x2698;" 
d="M288 304q0 14 -9 23v0q-9 9 -23 9t-23 -9t-9 -23t9 -23t23 -9t23 9t9 23v0zM496 160h-47q-53 0 -99 -23q-46 -22 -78 -63v96q19 -10 41 -10q37 1 62 26q24 24 25 61q0 32 -21 57q21 25 21 57q-1 37 -26 61q-24 25 -61 26q-32 0 -57 -21q-25 21 -57 21q-38 -1 -62 -26
q-25 -24 -26 -61q0 -32 21 -57q-20 -25 -21 -57q1 -37 26 -61q24 -25 62 -26q22 0 41 10v-96q-32 41 -78 63q-46 23 -99 23h-47q-16 -2 -16 -20q10 -88 72 -145t152 -59h64q90 2 152 59t72 145q-1 18 -16 20v0zM239 -32h-15q-72 1 -125 46q-52 44 -65 114h29q52 0 95 -25
q44 -24 70 -68q8 -15 10 -29q2 -13 1 -29v-9v0zM256 232l-13 -18q-17 -21 -44 -22q-23 1 -39 16q-15 16 -16 39q1 27 22 44l18 13l-18 13q-22 17 -23 44q1 23 17 39q16 15 39 16q27 -1 44 -22l13 -18l13 18q17 21 44 22q23 -1 39 -16q15 -16 16 -39q-1 -28 -22 -43l-18 -14
l18 -13q21 -17 22 -44q-1 -23 -16 -39q-16 -15 -39 -16q-27 1 -44 22l-13 18v0zM288 -32h-16v9q-1 15 1 29t11 29q26 44 70 68q43 25 95 25h29q-13 -70 -65 -114q-53 -45 -125 -46v0z" />
    <glyph glyph-name="gear" unicode="&#xf013;" 
d="M255 -64q-41 0 -59 9v0q-17 9 -17 27v39q-23 10 -42 25l-35 -20q-7 -4 -15 -4q-19 2 -36 25t-29 49q-11 25 -11 35q0 17 16 27l34 20q0 4 -1 9v16q0 13 2 24l-35 19q-15 10 -15 27q0 8 11 34t28 50q17 23 37 25q8 0 15 -4l35 -20q19 15 41 25v39q1 23 23 30q23 7 54 6
q31 1 52 -6q22 -7 23 -30v-39q23 -10 42 -25l35 20q7 4 15 4q19 -2 36 -25t29 -48q11 -26 11 -36q0 -17 -15 -27l-35 -19q2 -13 2 -25t-2 -24l35 -20q15 -10 15 -27q0 -8 -11 -34t-28 -50q-17 -23 -37 -25q-8 0 -15 4l-35 20q-19 -15 -42 -24v-40q1 -18 -16 -27
q-18 -9 -60 -9v0zM141 75q24 -20 38 -28v0q15 -8 27 -11v0l6 -2v-62q21 -4 44 -4q22 0 45 5l-1 61q2 1 5 1q11 4 26 12q16 8 40 28l54 -31q28 33 43 76l-53 31q0 2 1 3q4 19 4 36q0 15 -5 43l54 31q-15 42 -46 77l-52 -32q-24 20 -39 28q-14 8 -26 11l-6 2v62q-21 4 -44 4
q-22 0 -45 -5l1 -61l-6 -2q-11 -3 -26 -11q-16 -8 -39 -28l-54 31q-29 -34 -43 -77l53 -30q0 -2 -1 -3q-4 -19 -4 -35t5 -43l-54 -31q15 -42 46 -77l52 31v0zM256 97q-41 1 -68 28v0q-27 27 -28 68q1 41 28 68t68 28q41 -1 68 -28t28 -68q-1 -41 -28 -68t-68 -28v0zM256 257
q-27 -1 -45 -19v0q-18 -18 -19 -45q1 -27 19 -45t45 -19q27 1 45 19t19 45q-1 27 -19 45t-45 19v0z" />
    <glyph glyph-name="gear" unicode="&#x2699;" 
d="M255 -64q-41 0 -59 9v0q-17 9 -17 27v39q-23 10 -42 25l-35 -20q-7 -4 -15 -4q-19 2 -36 25t-29 49q-11 25 -11 35q0 17 16 27l34 20q0 4 -1 9v16q0 13 2 24l-35 19q-15 10 -15 27q0 8 11 34t28 50q17 23 37 25q8 0 15 -4l35 -20q19 15 41 25v39q1 23 23 30q23 7 54 6
q31 1 52 -6q22 -7 23 -30v-39q23 -10 42 -25l35 20q7 4 15 4q19 -2 36 -25t29 -48q11 -26 11 -36q0 -17 -15 -27l-35 -19q2 -13 2 -25t-2 -24l35 -20q15 -10 15 -27q0 -8 -11 -34t-28 -50q-17 -23 -37 -25q-8 0 -15 4l-35 20q-19 -15 -42 -24v-40q1 -18 -16 -27
q-18 -9 -60 -9v0zM141 75q24 -20 38 -28v0q15 -8 27 -11v0l6 -2v-62q21 -4 44 -4q22 0 45 5l-1 61q2 1 5 1q11 4 26 12q16 8 40 28l54 -31q28 33 43 76l-53 31q0 2 1 3q4 19 4 36q0 15 -5 43l54 31q-15 42 -46 77l-52 -32q-24 20 -39 28q-14 8 -26 11l-6 2v62q-21 4 -44 4
q-22 0 -45 -5l1 -61l-6 -2q-11 -3 -26 -11q-16 -8 -39 -28l-54 31q-29 -34 -43 -77l53 -30q0 -2 -1 -3q-4 -19 -4 -35t5 -43l-54 -31q15 -42 46 -77l52 31v0zM256 97q-41 1 -68 28v0q-27 27 -28 68q1 41 28 68t68 28q41 -1 68 -28t28 -68q-1 -41 -28 -68t-68 -28v0zM256 257
q-27 -1 -45 -19v0q-18 -18 -19 -45q1 -27 19 -45t45 -19q27 1 45 19t19 45q-1 27 -19 45t-45 19v0z" />
    <glyph glyph-name="atom" unicode="&#xf5d2;" 
d="M445 192q24 31 32 60q9 34 -6 60q-31 46 -114 39q-18 45 -44 71t-57 26t-57 -26t-44 -71q-83 7 -113 -39q-16 -26 -7 -60q8 -29 32 -60q-24 -31 -32 -60q-9 -34 6 -60q26 -40 94 -40q6 0 12 1q4 1 8 1q17 -45 43 -71t58 -27q31 1 57 26q26 26 44 71q4 0 8 -1q7 -1 13 -1
q67 0 93 40q15 26 6 60q-8 31 -32 61v0zM69 88q-8 14 -3 36q6 21 23 43q20 -21 43 -38q4 -33 13 -64q-59 -3 -76 23v0zM128 173l-19 19q5 5 10 9q4 5 9 10v-7v-12v-11v-8v0zM132 255q-23 -17 -43 -38q-17 23 -23 43q-5 22 3 36q15 23 65 24q3 0 7 -1h4q-9 -31 -13 -64v0z
M344 281q-13 8 -26 15q-10 6 -19 11q18 5 36 8q2 -7 4 -16q3 -10 5 -18v0zM256 416q38 -2 68 -70q-35 -7 -68 -20q-33 13 -68 20q30 68 68 70v0zM177 315q18 -3 36 -8q-9 -5 -19 -11q-13 -7 -26 -15v0q3 18 9 34v0zM168 103l26 -16q6 -3 13 -6q3 -1 7 -3q-18 -6 -37 -10
q-5 18 -9 35v0zM256 -32q-38 2 -68 70q35 8 68 21q33 -13 68 -21q-30 -68 -68 -70v0zM335 68q-19 4 -37 10q4 2 8 3l12 6l26 16q-4 -18 -9 -35v0zM350 146q-23 -17 -48 -31q-22 -12 -46 -22q-24 10 -46 22q-25 14 -48 31q-2 22 -2 46t2 45q23 17 48 31q22 13 46 23
q24 -10 46 -23q25 -13 48 -30q1 -20 1 -41v-5v-5q0 -22 -1 -41v0zM377 320q50 -1 65 -24q8 -14 3 -36q-6 -20 -23 -43q-20 21 -43 38q-4 33 -12 64q6 1 10 1v0zM384 211l19 -19l-9 -9l-10 -10v6v13v18v1v0zM443 88q-17 -26 -76 -23q9 31 13 64q23 17 43 38q17 -23 23 -43
q5 -22 -3 -36v0zM256 216q-22 -2 -24 -24q2 -22 24 -24q22 2 24 24q-2 22 -24 24v0z" />
    <glyph glyph-name="atom" unicode="&#x269b;" 
d="M445 192q24 31 32 60q9 34 -6 60q-31 46 -114 39q-18 45 -44 71t-57 26t-57 -26t-44 -71q-83 7 -113 -39q-16 -26 -7 -60q8 -29 32 -60q-24 -31 -32 -60q-9 -34 6 -60q26 -40 94 -40q6 0 12 1q4 1 8 1q17 -45 43 -71t58 -27q31 1 57 26q26 26 44 71q4 0 8 -1q7 -1 13 -1
q67 0 93 40q15 26 6 60q-8 31 -32 61v0zM69 88q-8 14 -3 36q6 21 23 43q20 -21 43 -38q4 -33 13 -64q-59 -3 -76 23v0zM128 173l-19 19q5 5 10 9q4 5 9 10v-7v-12v-11v-8v0zM132 255q-23 -17 -43 -38q-17 23 -23 43q-5 22 3 36q15 23 65 24q3 0 7 -1h4q-9 -31 -13 -64v0z
M344 281q-13 8 -26 15q-10 6 -19 11q18 5 36 8q2 -7 4 -16q3 -10 5 -18v0zM256 416q38 -2 68 -70q-35 -7 -68 -20q-33 13 -68 20q30 68 68 70v0zM177 315q18 -3 36 -8q-9 -5 -19 -11q-13 -7 -26 -15v0q3 18 9 34v0zM168 103l26 -16q6 -3 13 -6q3 -1 7 -3q-18 -6 -37 -10
q-5 18 -9 35v0zM256 -32q-38 2 -68 70q35 8 68 21q33 -13 68 -21q-30 -68 -68 -70v0zM335 68q-19 4 -37 10q4 2 8 3l12 6l26 16q-4 -18 -9 -35v0zM350 146q-23 -17 -48 -31q-22 -12 -46 -22q-24 10 -46 22q-25 14 -48 31q-2 22 -2 46t2 45q23 17 48 31q22 13 46 23
q24 -10 46 -23q25 -13 48 -30q1 -20 1 -41v-5v-5q0 -22 -1 -41v0zM377 320q50 -1 65 -24q8 -14 3 -36q-6 -20 -23 -43q-20 21 -43 38q-4 33 -12 64q6 1 10 1v0zM384 211l19 -19l-9 -9l-10 -10v6v13v18v1v0zM443 88q-17 -26 -76 -23q9 31 13 64q23 17 43 38q17 -23 23 -43
q5 -22 -3 -36v0zM256 216q-22 -2 -24 -24q2 -22 24 -24q22 2 24 24q-2 22 -24 24v0z" />
    <glyph glyph-name="triangle-exclamation" unicode="&#xf071;" 
d="M256 88q-21 -2 -23 -24q2 -22 23 -24q21 2 23 24q-1 22 -23 24v0zM256 128q14 1 15 16v144q-1 15 -15 16q-14 -1 -16 -16v-144q1 -15 16 -16v0zM504 51l-199 338q-17 26 -49 27q-32 -1 -48 -27l-200 -338q-15 -27 -1 -55q17 -27 49 -28h400q32 1 49 28q14 28 -1 55v0z
M476 13q-6 -13 -21 -13h-399q-14 0 -21 12q-6 11 0 22l200 338q7 12 21 12v0v0q14 0 21 -12l200 -338q6 -11 -1 -21v0z" />
    <glyph glyph-name="triangle-exclamation" unicode="&#x26a0;" 
d="M256 88q-21 -2 -23 -24q2 -22 23 -24q21 2 23 24q-1 22 -23 24v0zM256 128q14 1 15 16v144q-1 15 -15 16q-14 -1 -16 -16v-144q1 -15 16 -16v0zM504 51l-199 338q-17 26 -49 27q-32 -1 -48 -27l-200 -338q-15 -27 -1 -55q17 -27 49 -28h400q32 1 49 28q14 28 -1 55v0z
M476 13q-6 -13 -21 -13h-399q-14 0 -21 12q-6 11 0 22l200 338q7 12 21 12v0v0q14 0 21 -12l200 -338q6 -11 -1 -21v0z" />
    <glyph glyph-name="bolt" unicode="&#xf0e7;" horiz-adv-x="384" 
d="M381 203q-8 20 -30 21h-124l89 178q9 23 -9 39q-8 7 -20 7t-21 -8l-255 -224q-16 -15 -9 -35q9 -20 30 -21h124l-89 -178q-9 -23 9 -39q9 -7 20 -7q12 0 21 8l255 223q17 16 9 36v0zM96 -31l89 178q7 16 -2 31q-9 14 -27 15h-124l255 223v0v0v0l-89 -178q-7 -16 2 -31
q9 -14 27 -15h124l-255 -223v0z" />
    <glyph glyph-name="bolt" unicode="&#x26a1;" horiz-adv-x="384" 
d="M381 203q-8 20 -30 21h-124l89 178q9 23 -9 39q-8 7 -20 7t-21 -8l-255 -224q-16 -15 -9 -35q9 -20 30 -21h124l-89 -178q-9 -23 9 -39q9 -7 20 -7q12 0 21 8l255 223q17 16 9 36v0zM96 -31l89 178q7 16 -2 31q-9 14 -27 15h-124l255 223v0v0v0l-89 -178q-7 -16 2 -31
q9 -14 27 -15h124l-255 -223v0z" />
    <glyph glyph-name="venus-double" unicode="&#xf226;" horiz-adv-x="640" 
d="M368 272q-2 75 -52 124v0q-49 50 -124 52q-75 -2 -124 -52q-50 -49 -52 -124q2 -70 46 -119q45 -49 114 -56v-49h-64q-15 -1 -16 -16q1 -15 16 -16h64v-64q1 -15 16 -16q15 1 16 16v64h64q15 1 16 16q-1 15 -16 16h-64v49q69 7 114 56q44 49 46 119v0zM192 128
q-61 2 -102 42v0q-40 41 -42 102q2 61 42 102q41 40 102 42q61 -2 102 -42q40 -41 42 -102q-2 -61 -42 -102q-41 -40 -102 -42v0zM624 272q-2 75 -52 124v0q-49 50 -124 52q-37 0 -70 -15q-13 -7 -9 -21q7 -13 21 -8q27 12 58 12q61 -2 102 -42q40 -41 42 -102
q-2 -61 -42 -102q-41 -40 -102 -42q-30 0 -58 12q-14 4 -21 -8q-4 -14 9 -21q26 -12 54 -14v-49h-64q-15 -1 -16 -16q1 -15 16 -16h64v-64q1 -15 16 -16q15 1 16 16v64h64q15 1 16 16q-1 15 -16 16h-64v49q69 7 114 56q44 49 46 119v0z" />
    <glyph glyph-name="venus-double" unicode="&#x26a2;" horiz-adv-x="640" 
d="M368 272q-2 75 -52 124v0q-49 50 -124 52q-75 -2 -124 -52q-50 -49 -52 -124q2 -70 46 -119q45 -49 114 -56v-49h-64q-15 -1 -16 -16q1 -15 16 -16h64v-64q1 -15 16 -16q15 1 16 16v64h64q15 1 16 16q-1 15 -16 16h-64v49q69 7 114 56q44 49 46 119v0zM192 128
q-61 2 -102 42v0q-40 41 -42 102q2 61 42 102q41 40 102 42q61 -2 102 -42q40 -41 42 -102q-2 -61 -42 -102q-41 -40 -102 -42v0zM624 272q-2 75 -52 124v0q-49 50 -124 52q-37 0 -70 -15q-13 -7 -9 -21q7 -13 21 -8q27 12 58 12q61 -2 102 -42q40 -41 42 -102
q-2 -61 -42 -102q-41 -40 -102 -42q-30 0 -58 12q-14 4 -21 -8q-4 -14 9 -21q26 -12 54 -14v-49h-64q-15 -1 -16 -16q1 -15 16 -16h64v-64q1 -15 16 -16q15 1 16 16v64h64q15 1 16 16q-1 15 -16 16h-64v49q69 7 114 56q44 49 46 119v0z" />
    <glyph glyph-name="mars-double" unicode="&#xf227;" horiz-adv-x="640" 
d="M311 256l105 104v-73q1 -14 16 -16q15 2 16 16v112q0 3 -1 6q-3 6 -9 9q-3 1 -6 1h-112q-15 -1 -16 -16q1 -15 16 -16h73l-104 -105q-47 40 -113 41q-75 -2 -124 -51q-50 -50 -52 -125q2 -74 52 -124q49 -49 124 -51q75 2 124 51q50 50 52 125q-1 65 -41 112v0zM176 0
q-61 1 -102 42v0q-40 41 -42 102q2 61 42 101q41 41 102 42q61 -1 102 -42q40 -40 42 -101q-2 -61 -42 -102q-41 -41 -102 -42v0zM635 411h-1v0v0q-8 7 -17 4h-105q-15 -1 -16 -16q1 -15 16 -16h71l-114 -114q-6 -5 -5 -12q0 -6 5 -11q42 -42 43 -102q-2 -61 -42 -102
q-41 -41 -102 -42q-15 0 -29 3q-14 1 -19 -13q-1 -14 13 -19q17 -3 35 -3q75 2 124 51q50 50 52 125q-1 64 -42 113l106 106v-76q1 -14 16 -16q15 2 16 16v112q0 7 -5 12v0z" />
    <glyph glyph-name="mars-double" unicode="&#x26a3;" horiz-adv-x="640" 
d="M311 256l105 104v-73q1 -14 16 -16q15 2 16 16v112q0 3 -1 6q-3 6 -9 9q-3 1 -6 1h-112q-15 -1 -16 -16q1 -15 16 -16h73l-104 -105q-47 40 -113 41q-75 -2 -124 -51q-50 -50 -52 -125q2 -74 52 -124q49 -49 124 -51q75 2 124 51q50 50 52 125q-1 65 -41 112v0zM176 0
q-61 1 -102 42v0q-40 41 -42 102q2 61 42 101q41 41 102 42q61 -1 102 -42q40 -40 42 -101q-2 -61 -42 -102q-41 -41 -102 -42v0zM635 411h-1v0v0q-8 7 -17 4h-105q-15 -1 -16 -16q1 -15 16 -16h71l-114 -114q-6 -5 -5 -12q0 -6 5 -11q42 -42 43 -102q-2 -61 -42 -102
q-41 -41 -102 -42q-15 0 -29 3q-14 1 -19 -13q-1 -14 13 -19q17 -3 35 -3q75 2 124 51q50 50 52 125q-1 64 -42 113l106 106v-76q1 -14 16 -16q15 2 16 16v112q0 7 -5 12v0z" />
    <glyph glyph-name="venus-mars" unicode="&#xf228;" horiz-adv-x="640" 
d="M256 48h-64v49q69 7 114 56q44 49 46 119q-2 75 -52 124q-49 50 -124 52q-75 -2 -124 -52q-50 -49 -52 -124q2 -70 46 -119q45 -49 114 -56v-49h-64q-15 -1 -16 -16q1 -15 16 -16h64v-64q1 -15 16 -16q15 1 16 16v64h64q15 1 16 16q-1 15 -16 16v0zM176 128
q-61 2 -102 42v0q-40 41 -42 102q2 61 42 102q41 40 102 42q61 -2 102 -42q40 -41 42 -102q-2 -61 -42 -102q-41 -40 -102 -42v0zM639 438q-3 6 -9 9q-3 1 -6 1h-128q-15 -1 -16 -16q1 -15 16 -16h89l-72 -73q-48 40 -113 41q-9 0 -18 -1q-14 -3 -14 -17q3 -15 18 -15
q7 1 14 1q61 -2 102 -42q40 -41 42 -102q-2 -61 -42 -102q-41 -40 -102 -42q-48 0 -86 29q-13 8 -23 -3q-7 -13 3 -23q47 -35 106 -35q75 2 124 52q50 49 52 124q-1 65 -41 112l73 73v-89q1 -15 16 -16q15 1 16 16v128q0 3 -1 6v0z" />
    <glyph glyph-name="venus-mars" unicode="&#x26a4;" horiz-adv-x="640" 
d="M256 48h-64v49q69 7 114 56q44 49 46 119q-2 75 -52 124q-49 50 -124 52q-75 -2 -124 -52q-50 -49 -52 -124q2 -70 46 -119q45 -49 114 -56v-49h-64q-15 -1 -16 -16q1 -15 16 -16h64v-64q1 -15 16 -16q15 1 16 16v64h64q15 1 16 16q-1 15 -16 16v0zM176 128
q-61 2 -102 42v0q-40 41 -42 102q2 61 42 102q41 40 102 42q61 -2 102 -42q40 -41 42 -102q-2 -61 -42 -102q-41 -40 -102 -42v0zM639 438q-3 6 -9 9q-3 1 -6 1h-128q-15 -1 -16 -16q1 -15 16 -16h89l-72 -73q-48 40 -113 41q-9 0 -18 -1q-14 -3 -14 -17q3 -15 18 -15
q7 1 14 1q61 -2 102 -42q40 -41 42 -102q-2 -61 -42 -102q-41 -40 -102 -42q-48 0 -86 29q-13 8 -23 -3q-7 -13 3 -23q47 -35 106 -35q75 2 124 52q50 49 52 124q-1 65 -41 112l73 73v-89q1 -15 16 -16q15 1 16 16v128q0 3 -1 6v0z" />
    <glyph glyph-name="mars-and-venus" unicode="&#x26a5;" 
d="M495 438q-3 6 -9 9q-3 1 -6 1h-112q-15 -1 -16 -16q1 -15 16 -16h73l-64 -64q-49 46 -121 48q-75 -2 -125 -51q-49 -50 -51 -125q2 -70 46 -119q45 -49 114 -56v-33h-48q-15 -1 -16 -16q1 -15 16 -16h48v-32q1 -15 16 -16q15 1 16 16v32h48q15 1 16 16q-1 15 -16 16h-48
v33q69 7 114 56q44 49 46 119q-1 59 -34 103l66 66v-73q1 -15 16 -16q15 1 16 16v112q0 3 -1 6v0zM256 80q-61 2 -102 42v0q-40 41 -42 102q2 61 42 102q41 40 102 42q61 -2 102 -42q40 -41 42 -102q-2 -61 -42 -102q-41 -40 -102 -42v0z" />
    <glyph glyph-name="mars-stroke" unicode="&#xf229;" 
d="M511 438q-3 6 -9 9q-3 1 -6 1h-128q-15 -1 -16 -16q1 -15 16 -16h89l-73 -73l-37 36q-11 10 -22 0q-10 -11 0 -22l36 -37l-40 -41q-47 40 -113 41q-75 -2 -124 -52q-50 -49 -52 -124q2 -75 52 -124q49 -50 124 -52q75 2 124 52q50 49 52 124q-1 66 -41 113l41 40l37 -36
q5 -5 11 -5t11 5q10 11 0 22l-36 37l73 73v-89q1 -15 16 -16q15 1 16 16v128q0 3 -1 6v0zM352 144q-2 -61 -42 -102v0q-41 -40 -102 -42q-61 2 -102 42q-40 41 -42 102q2 61 42 102q41 40 102 42q61 -2 102 -42q40 -41 42 -102v0z" />
    <glyph glyph-name="mars-stroke" unicode="&#x26a6;" 
d="M511 438q-3 6 -9 9q-3 1 -6 1h-128q-15 -1 -16 -16q1 -15 16 -16h89l-73 -73l-37 36q-11 10 -22 0q-10 -11 0 -22l36 -37l-40 -41q-47 40 -113 41q-75 -2 -124 -52q-50 -49 -52 -124q2 -75 52 -124q49 -50 124 -52q75 2 124 52q50 49 52 124q-1 66 -41 113l41 40l37 -36
q5 -5 11 -5t11 5q10 11 0 22l-36 37l73 73v-89q1 -15 16 -16q15 1 16 16v128q0 3 -1 6v0zM352 144q-2 -61 -42 -102v0q-41 -40 -102 -42q-61 2 -102 42q-40 41 -42 102q2 61 42 102q41 40 102 42q61 -2 102 -42q40 -41 42 -102v0z" />
    <glyph glyph-name="transgender" unicode="&#x26a7;" 
d="M511 438q-3 6 -9 9q-3 1 -6 1h-112q-15 -1 -16 -16q1 -15 16 -16h73l-82 -82q-47 48 -119 50q-72 -2 -119 -50l-18 18l12 13q10 11 0 22q-11 10 -22 0l-13 -12l-41 41h73q15 1 16 16q-1 15 -16 16h-112q-3 0 -6 -1q-6 -3 -9 -9q-1 -3 -1 -6v-112q1 -15 16 -16q15 1 16 16
v73l41 -41l-12 -13q-10 -11 0 -22q5 -5 11 -5t11 5l13 12l20 -20q-27 -41 -28 -93q2 -67 44 -113q43 -46 108 -53v-34h-48q-15 -1 -16 -16q1 -15 16 -16h48v-32q1 -15 16 -16q15 1 16 16v32h48q15 1 16 16q-1 15 -16 16h-48v34q65 7 108 53q42 46 44 113q-1 52 -28 93l84 84
v-73q1 -15 16 -16q15 1 16 16v112q0 3 -1 6v0zM256 80q-58 1 -96 40v0q-39 38 -40 96q1 58 40 96q38 39 96 40q58 -1 96 -40q39 -38 40 -96q-1 -58 -40 -96q-38 -39 -96 -40v0z" />
    <glyph glyph-name="mars-stroke-up" unicode="&#xf22a;" horiz-adv-x="384" 
d="M317 236q-48 46 -109 51v17h48q14 2 15 15q-1 14 -15 15h-48v65l54 -44q5 -3 10 -3q7 0 13 5q8 12 -3 23l-80 64q-10 8 -20 0l-81 -64q-10 -10 -2 -22q10 -10 22 -3l54 44v-63h-48q-14 -2 -15 -15q2 -14 15 -15h48v-17q-60 -8 -107 -53q-52 -54 -52 -124t52 -125
q54 -51 124 -51t124 51q52 55 52 125t-51 124v0zM294 10q-45 -42 -102 -42v0q-58 0 -102 42q-42 45 -42 102q0 58 42 102q45 42 102 42q58 0 102 -42q41 -44 41 -102t-41 -102v0z" />
    <glyph glyph-name="mars-stroke-up" unicode="&#x26a8;" horiz-adv-x="384" 
d="M317 236q-48 46 -109 51v17h48q14 2 15 15q-1 14 -15 15h-48v65l54 -44q5 -3 10 -3q7 0 13 5q8 12 -3 23l-80 64q-10 8 -20 0l-81 -64q-10 -10 -2 -22q10 -10 22 -3l54 44v-63h-48q-14 -2 -15 -15q2 -14 15 -15h48v-17q-60 -8 -107 -53q-52 -54 -52 -124t52 -125
q54 -51 124 -51t124 51q52 55 52 125t-51 124v0zM294 10q-45 -42 -102 -42v0q-58 0 -102 42q-42 45 -42 102q0 58 42 102q45 42 102 42q58 0 102 -42q41 -44 41 -102t-41 -102v0z" />
    <glyph glyph-name="mars-stroke-right" unicode="&#xf22b;" horiz-adv-x="640" 
d="M607 198q-1 3 -4 5l-90 91q-12 9 -23 0q-9 -12 0 -23l63 -63h-89v48q-1 15 -16 16q-15 -1 -16 -16v-48h-49q-5 61 -51 108q-54 52 -124 52t-124 -52q-52 -54 -52 -124t52 -124q54 -52 124 -52t124 52q46 47 51 108h49v-48q1 -15 16 -16q15 1 16 16v48h89l-63 -63
q-9 -11 0 -23q11 -9 23 0l90 91q3 2 4 5q2 6 0 12v0zM310 90q-45 -42 -102 -42v0q-58 0 -102 42q-42 45 -42 102q0 58 42 102q45 42 102 42q58 0 102 -42q41 -44 41 -102t-41 -102v0z" />
    <glyph glyph-name="mars-stroke-right" unicode="&#x26a9;" horiz-adv-x="640" 
d="M607 198q-1 3 -4 5l-90 91q-12 9 -23 0q-9 -12 0 -23l63 -63h-89v48q-1 15 -16 16q-15 -1 -16 -16v-48h-49q-5 61 -51 108q-54 52 -124 52t-124 -52q-52 -54 -52 -124t52 -124q54 -52 124 -52t124 52q46 47 51 108h49v-48q1 -15 16 -16q15 1 16 16v48h89l-63 -63
q-9 -11 0 -23q11 -9 23 0l90 91q3 2 4 5q2 6 0 12v0zM310 90q-45 -42 -102 -42v0q-58 0 -102 42q-42 45 -42 102q0 58 42 102q45 42 102 42q58 0 102 -42q41 -44 41 -102t-41 -102v0z" />
    <glyph glyph-name="coffin" unicode="&#xf6c6;" horiz-adv-x="448" 
d="M403 335l-99 99q-14 14 -33 14h-94q-19 0 -33 -14l-99 -99q-17 -18 -12 -43l80 -321q4 -16 16 -25q13 -10 29 -10h132q16 0 29 10q12 9 16 25l80 321q5 25 -12 43v0zM304 -21q-3 -10 -14 -11h-132q-11 1 -14 11l-80 320q-1 8 4 14l99 99q3 4 10 4h94q6 0 10 -4l99 -99
q5 -6 4 -14l-80 -320v0z" />
    <glyph glyph-name="coffin" unicode="&#x26b0;" horiz-adv-x="448" 
d="M403 335l-99 99q-14 14 -33 14h-94q-19 0 -33 -14l-99 -99q-17 -18 -12 -43l80 -321q4 -16 16 -25q13 -10 29 -10h132q16 0 29 10q12 9 16 25l80 321q5 25 -12 43v0zM304 -21q-3 -10 -14 -11h-132q-11 1 -14 11l-80 320q-1 8 4 14l99 99q3 4 10 4h94q6 0 10 -4l99 -99
q5 -6 4 -14l-80 -320v0z" />
    <glyph glyph-name="neuter" unicode="&#xf22c;" horiz-adv-x="384" 
d="M368 272q-2 75 -52 124v0q-49 50 -124 52q-75 -2 -124 -52q-50 -49 -52 -124q2 -70 46 -119q45 -49 114 -56v-145q1 -15 16 -16q15 1 16 16v145q69 7 114 56q44 49 46 119v0zM192 128q-61 2 -102 42v0q-40 41 -42 102q2 61 42 102q41 40 102 42q61 -2 102 -42
q40 -41 42 -102q-2 -61 -42 -102q-41 -40 -102 -42v0z" />
    <glyph glyph-name="neuter" unicode="&#x26b2;" horiz-adv-x="384" 
d="M368 272q-2 75 -52 124v0q-49 50 -124 52q-75 -2 -124 -52q-50 -49 -52 -124q2 -70 46 -119q45 -49 114 -56v-145q1 -15 16 -16q15 1 16 16v145q69 7 114 56q44 49 46 119v0zM192 128q-61 2 -102 42v0q-40 41 -42 102q2 61 42 102q41 40 102 42q61 -2 102 -42
q40 -41 42 -102q-2 -61 -42 -102q-41 -40 -102 -42v0z" />
    <glyph glyph-name="futbol" unicode="&#xf1e3;" 
d="M255 448q-71 -1 -128 -35v0q-58 -34 -92 -92v0q-34 -57 -35 -129q1 -72 35 -129q34 -58 92 -92q57 -34 129 -35q71 1 129 35q57 34 91 92q34 57 35 128q-1 71 -35 129t-91 93q-58 34 -130 35v0zM84 253l-51 -36q7 50 32 92l19 -56v0zM106 229l40 -15l32 -99l-24 -32
l-93 -1q-25 43 -28 95l73 52v0zM178 220l78 57l78 -57l-29 -92h-97l-30 92v0zM366 214l40 15l73 -52q-4 -52 -28 -95l-93 1l-24 32l32 99v0zM428 253l19 56q26 -42 32 -92l-51 36v0zM424 341l-28 -81l-41 -15l-83 59v45l67 51q50 -21 85 -59v0zM301 411l-45 -34l-45 34
q22 5 45 5t45 -5v0zM173 400l67 -51v-44l-83 -61l-41 15l-28 82q35 38 85 59v0zM83 50l67 1l20 -66q-52 22 -87 65v0zM207 -27l-28 91l25 32h104l25 -32l-28 -91q-24 -5 -49 -5q-26 0 -49 5v0zM342 -15l20 66l67 -1q-36 -43 -87 -65v0z" />
    <glyph glyph-name="futbol" unicode="&#x26bd;" 
d="M255 448q-71 -1 -128 -35v0q-58 -34 -92 -92v0q-34 -57 -35 -129q1 -72 35 -129q34 -58 92 -92q57 -34 129 -35q71 1 129 35q57 34 91 92q34 57 35 128q-1 71 -35 129t-91 93q-58 34 -130 35v0zM84 253l-51 -36q7 50 32 92l19 -56v0zM106 229l40 -15l32 -99l-24 -32
l-93 -1q-25 43 -28 95l73 52v0zM178 220l78 57l78 -57l-29 -92h-97l-30 92v0zM366 214l40 15l73 -52q-4 -52 -28 -95l-93 1l-24 32l32 99v0zM428 253l19 56q26 -42 32 -92l-51 36v0zM424 341l-28 -81l-41 -15l-83 59v45l67 51q50 -21 85 -59v0zM301 411l-45 -34l-45 34
q22 5 45 5t45 -5v0zM173 400l67 -51v-44l-83 -61l-41 15l-28 82q35 38 85 59v0zM83 50l67 1l20 -66q-52 22 -87 65v0zM207 -27l-28 91l25 32h104l25 -32l-28 -91q-24 -5 -49 -5q-26 0 -49 5v0zM342 -15l20 66l67 -1q-36 -43 -87 -65v0z" />
    <glyph glyph-name="baseball" unicode="&#x1f94e;" 
d="M256 448q-72 -1 -129 -35v0q-58 -34 -92 -92v0q-34 -57 -35 -129q1 -72 35 -129q34 -58 92 -92q57 -34 129 -35q72 1 129 35q58 34 92 92q34 57 35 129q-1 72 -35 129q-34 58 -92 92q-57 34 -129 35v0zM455 151q11 1 21 1q-13 -70 -62 -118q-48 -49 -118 -62v2v2
q0 7 1 14q-1 15 -15 17q-15 0 -17 -14q-1 -9 -1 -17v-5q0 -1 1 -3h-4h-5q-62 1 -113 31q-50 30 -80 80q-30 51 -31 113v5v4q2 -1 3 -1h5q10 0 19 1q14 3 14 17q-3 15 -17 15q-5 -1 -10 0q-5 0 -10 -1q13 70 62 118q48 49 118 62v-2v-2q0 -8 -1 -15q1 -15 14 -17h2v-1
q14 2 16 15q1 9 1 18v5q0 1 -1 3h4h5q62 -1 113 -31q50 -30 80 -80q30 -51 31 -113v-5v-4q-14 1 -28 0q-14 -3 -14 -17q3 -15 17 -15v0zM221 342q-14 5 -21 -8q-20 -43 -59 -70q-12 -9 -26 -15q-13 -8 -8 -22q5 -9 15 -9q3 0 7 2q16 7 30 18q46 32 70 82q4 14 -8 22v0z
M383 164q-16 -8 -30 -18q-46 -32 -70 -83q-5 -14 8 -22q3 -1 6 -1q10 0 15 9q20 43 59 71q12 9 25 15q13 7 8 21q-8 13 -21 8v0z" />
    <glyph glyph-name="baseball" unicode="&#xf433;" 
d="M256 448q-72 -1 -129 -35v0q-58 -34 -92 -92v0q-34 -57 -35 -129q1 -72 35 -129q34 -58 92 -92q57 -34 129 -35q72 1 129 35q58 34 92 92q34 57 35 129q-1 72 -35 129q-34 58 -92 92q-57 34 -129 35v0zM455 151q11 1 21 1q-13 -70 -62 -118q-48 -49 -118 -62v2v2
q0 7 1 14q-1 15 -15 17q-15 0 -17 -14q-1 -9 -1 -17v-5q0 -1 1 -3h-4h-5q-62 1 -113 31q-50 30 -80 80q-30 51 -31 113v5v4q2 -1 3 -1h5q10 0 19 1q14 3 14 17q-3 15 -17 15q-5 -1 -10 0q-5 0 -10 -1q13 70 62 118q48 49 118 62v-2v-2q0 -8 -1 -15q1 -15 14 -17h2v-1
q14 2 16 15q1 9 1 18v5q0 1 -1 3h4h5q62 -1 113 -31q50 -30 80 -80q30 -51 31 -113v-5v-4q-14 1 -28 0q-14 -3 -14 -17q3 -15 17 -15v0zM221 342q-14 5 -21 -8q-20 -43 -59 -70q-12 -9 -26 -15q-13 -8 -8 -22q5 -9 15 -9q3 0 7 2q16 7 30 18q46 32 70 82q4 14 -8 22v0z
M383 164q-16 -8 -30 -18q-46 -32 -70 -83q-5 -14 8 -22q3 -1 6 -1q10 0 15 9q20 43 59 71q12 9 25 15q13 7 8 21q-8 13 -21 8v0z" />
    <glyph glyph-name="baseball" unicode="&#x26be;" 
d="M256 448q-72 -1 -129 -35v0q-58 -34 -92 -92v0q-34 -57 -35 -129q1 -72 35 -129q34 -58 92 -92q57 -34 129 -35q72 1 129 35q58 34 92 92q34 57 35 129q-1 72 -35 129q-34 58 -92 92q-57 34 -129 35v0zM455 151q11 1 21 1q-13 -70 -62 -118q-48 -49 -118 -62v2v2
q0 7 1 14q-1 15 -15 17q-15 0 -17 -14q-1 -9 -1 -17v-5q0 -1 1 -3h-4h-5q-62 1 -113 31q-50 30 -80 80q-30 51 -31 113v5v4q2 -1 3 -1h5q10 0 19 1q14 3 14 17q-3 15 -17 15q-5 -1 -10 0q-5 0 -10 -1q13 70 62 118q48 49 118 62v-2v-2q0 -8 -1 -15q1 -15 14 -17h2v-1
q14 2 16 15q1 9 1 18v5q0 1 -1 3h4h5q62 -1 113 -31q50 -30 80 -80q30 -51 31 -113v-5v-4q-14 1 -28 0q-14 -3 -14 -17q3 -15 17 -15v0zM221 342q-14 5 -21 -8q-20 -43 -59 -70q-12 -9 -26 -15q-13 -8 -8 -22q5 -9 15 -9q3 0 7 2q16 7 30 18q46 32 70 82q4 14 -8 22v0z
M383 164q-16 -8 -30 -18q-46 -32 -70 -83q-5 -14 8 -22q3 -1 6 -1q10 0 15 9q20 43 59 71q12 9 25 15q13 7 8 21q-8 13 -21 8v0z" />
    </font>
</defs>
</svg>
