<?xml version="1.0" standalone="no"?>
<!DOCTYPE svg PUBLIC "-//W3C//DTD SVG 1.1//EN" "http://www.w3.org/Graphics/SVG/1.1/DTD/svg11.dtd" >
<svg xmlns="http://www.w3.org/2000/svg" xmlns:xlink="http://www.w3.org/1999/xlink" version="1.1">
<metadata>
Created by FontForge 20191125 at Mon May 24 19:30:06 2021
 By convertio
Copyright (c) Font Awesome
</metadata>
<defs>
<font id="FontAwesome6Pro-Regular" horiz-adv-x="512" >
  <font-face 
    font-family="Font Awesome 6 Pro Regular"
    font-weight="400"
    font-stretch="normal"
    units-per-em="512"
    panose-1="2 0 5 3 0 0 0 0 0 0"
    ascent="448"
    descent="-64"
    x-height="410"
    bbox="-2 -96 640.4 464"
    underline-thickness="25"
    underline-position="-49"
    unicode-range="U+0022-1FAC1"
  />
<missing-glyph horiz-adv-x="384" 
d="M336 448h-288q-20 -1 -34 -14q-13 -14 -14 -34v-416q1 -20 14 -34q14 -13 34 -14h288q20 1 34 14q13 14 14 34v416q-1 20 -14 34q-14 13 -34 14v0zM336 358v-332l-115 166l115 166v0zM192 234l-115 166h230l-115 -166v0zM163 192l-115 -166v332l115 -166v0zM192 150
l115 -166h-230l115 166v0z" />
    <glyph glyph-name=".notdef" horiz-adv-x="384" 
d="M336 448h-288q-20 -1 -34 -14q-13 -14 -14 -34v-416q1 -20 14 -34q14 -13 34 -14h288q20 1 34 14q13 14 14 34v416q-1 20 -14 34q-14 13 -34 14v0zM336 358v-332l-115 166l115 166v0zM192 234l-115 166h230l-115 -166v0zM163 192l-115 -166v332l115 -166v0zM192 150
l115 -166h-230l115 166v0z" />
    <glyph glyph-name="exclamation" unicode="&#xf12a;" horiz-adv-x="128" 
d="M64 80q22 2 24 24v288q-2 22 -24 24q-22 -2 -24 -24v-288q2 -22 24 -24v0zM64 32q-14 0 -23 -9v0q-9 -9 -9 -23t9 -23t23 -9t23 9t9 23t-9 23t-23 9v0z" />
    <glyph glyph-name="exclamation" unicode="&#x2757;" horiz-adv-x="128" 
d="M64 80q22 2 24 24v288q-2 22 -24 24q-22 -2 -24 -24v-288q2 -22 24 -24v0zM64 32q-14 0 -23 -9v0q-9 -9 -9 -23t9 -23t23 -9t23 9t9 23t-9 23t-23 9v0z" />
    <glyph glyph-name="exclamation" unicode="&#x2755;" horiz-adv-x="128" 
d="M64 80q22 2 24 24v288q-2 22 -24 24q-22 -2 -24 -24v-288q2 -22 24 -24v0zM64 32q-14 0 -23 -9v0q-9 -9 -9 -23t9 -23t23 -9t23 9t9 23t-9 23t-23 9v0z" />
    <glyph glyph-name="exclamation" unicode="!" horiz-adv-x="128" 
d="M64 80q22 2 24 24v288q-2 22 -24 24q-22 -2 -24 -24v-288q2 -22 24 -24v0zM64 32q-14 0 -23 -9v0q-9 -9 -9 -23t9 -23t23 -9t23 9t9 23t-9 23t-23 9v0z" />
    <glyph glyph-name="ditto" unicode="&#x22;" horiz-adv-x="320" 
d="M64 416q-29 0 -49 -23q-19 -24 -14 -55l25 -145q3 -15 13 -24q11 -9 25 -9t25 9q10 9 13 24l25 145q5 31 -14 55q-20 23 -49 23v0zM63 256l-15 90q-1 10 4 17q8 6 12 5q4 1 12 -5q5 -7 4 -17l-17 -90v0zM305 393q-19 23 -50 23q-30 0 -49 -23q-19 -24 -14 -55l25 -145
q4 -15 14 -24q11 -9 24 -9q14 0 24 9q11 9 14 24l25 145q6 31 -13 55v0zM255 256l-16 90q-1 10 5 17q8 6 11 5q4 1 12 -5q5 -7 4 -17l-16 -90v0z" />
    <glyph glyph-name="hashtag" unicode="&#xf292;" horiz-adv-x="448" 
d="M424 312h-74l14 76q1 22 -20 28q-22 1 -28 -20l-15 -84h-111l14 76q1 22 -20 28q-22 1 -28 -20l-15 -84h-85q-22 -2 -24 -24q2 -22 24 -24h77l-26 -144h-83q-22 -2 -24 -24q2 -22 24 -24h74l-14 -76q-1 -22 20 -28h4q19 1 24 20l15 84h111l-14 -76q-2 -22 20 -28h4
q19 1 24 20l15 84h85q22 2 24 23q-2 22 -24 24h-77l26 144l83 1q22 2 24 23q-2 23 -24 25v0zM267 121h-111l25 144h112l-26 -144v0z" />
    <glyph glyph-name="hashtag" unicode="#" horiz-adv-x="448" 
d="M424 312h-74l14 76q1 22 -20 28q-22 1 -28 -20l-15 -84h-111l14 76q1 22 -20 28q-22 1 -28 -20l-15 -84h-85q-22 -2 -24 -24q2 -22 24 -24h77l-26 -144h-83q-22 -2 -24 -24q2 -22 24 -24h74l-14 -76q-1 -22 20 -28h4q19 1 24 20l15 84h111l-14 -76q-2 -22 20 -28h4
q19 1 24 20l15 84h85q22 2 24 23q-2 22 -24 24h-77l26 144l83 1q22 2 24 23q-2 23 -24 25v0zM267 121h-111l25 144h112l-26 -144v0z" />
    <glyph glyph-name="dollar-sign" unicode="&#x1f4b2;" horiz-adv-x="320" 
d="M302 90q-7 -36 -38 -57v0q-31 -21 -80 -24v-49q-2 -22 -24 -24q-22 2 -24 24v50q-2 0 -4 1h-6q-42 7 -81 21l-12 4q-21 8 -16 30q9 20 30 16l12 -4v0q38 -13 74 -20q43 -6 79 3q36 10 43 38q6 27 -17 41t-84 29l-16 4v0q-25 6 -56 18t-51 36q-20 25 -13 67q7 36 38 57
t80 24v49q2 22 24 24q22 -2 24 -24v-50h4q3 -1 6 -1q25 -3 63 -15q20 -8 16 -30q-8 -20 -30 -16q-34 11 -56 14q-43 6 -79 -3q-35 -10 -43 -38q-5 -23 14 -38q18 -14 71 -28l16 -4v0q33 -7 68 -20q34 -13 55 -38q20 -24 13 -67v0z" />
    <glyph glyph-name="dollar-sign" unicode="$" horiz-adv-x="320" 
d="M302 90q-7 -36 -38 -57v0q-31 -21 -80 -24v-49q-2 -22 -24 -24q-22 2 -24 24v50q-2 0 -4 1h-6q-42 7 -81 21l-12 4q-21 8 -16 30q9 20 30 16l12 -4v0q38 -13 74 -20q43 -6 79 3q36 10 43 38q6 27 -17 41t-84 29l-16 4v0q-25 6 -56 18t-51 36q-20 25 -13 67q7 36 38 57
t80 24v49q2 22 24 24q22 -2 24 -24v-50h4q3 -1 6 -1q25 -3 63 -15q20 -8 16 -30q-8 -20 -30 -16q-34 11 -56 14q-43 6 -79 -3q-35 -10 -43 -38q-5 -23 14 -38q18 -14 71 -28l16 -4v0q33 -7 68 -20q34 -13 55 -38q20 -24 13 -67v0z" />
    <glyph glyph-name="percent" unicode="&#xf541;" horiz-adv-x="384" 
d="M376 377q-17 14 -34 0l-336 -336q-14 -17 0 -34q9 -7 18 -7q10 0 17 7l336 336q14 17 -1 34v0zM64 272q20 1 34 14v0q13 14 14 34q-1 20 -14 34q-14 13 -34 14q-20 -1 -34 -14q-13 -14 -14 -34q1 -20 14 -34q14 -13 34 -14v0zM320 112q-20 -1 -34 -14v0q-13 -14 -14 -34
q1 -20 14 -34q14 -13 34 -14q20 1 34 14q13 14 14 34q-1 20 -14 34q-14 13 -34 14v0z" />
    <glyph glyph-name="percent" unicode="&#xf295;" horiz-adv-x="384" 
d="M376 377q-17 14 -34 0l-336 -336q-14 -17 0 -34q9 -7 18 -7q10 0 17 7l336 336q14 17 -1 34v0zM64 272q20 1 34 14v0q13 14 14 34q-1 20 -14 34q-14 13 -34 14q-20 -1 -34 -14q-13 -14 -14 -34q1 -20 14 -34q14 -13 34 -14v0zM320 112q-20 -1 -34 -14v0q-13 -14 -14 -34
q1 -20 14 -34q14 -13 34 -14q20 1 34 14q13 14 14 34q-1 20 -14 34q-14 13 -34 14v0z" />
    <glyph glyph-name="percent" unicode="%" horiz-adv-x="384" 
d="M376 377q-17 14 -34 0l-336 -336q-14 -17 0 -34q9 -7 18 -7q10 0 17 7l336 336q14 17 -1 34v0zM64 272q20 1 34 14v0q13 14 14 34q-1 20 -14 34q-14 13 -34 14q-20 -1 -34 -14q-13 -14 -14 -34q1 -20 14 -34q14 -13 34 -14v0zM320 112q-20 -1 -34 -14v0q-13 -14 -14 -34
q1 -20 14 -34q14 -13 34 -14q20 1 34 14q13 14 14 34q-1 20 -14 34q-14 13 -34 14v0z" />
    <glyph glyph-name="ampersand" unicode="&#x26;" horiz-adv-x="384" 
d="M360 -32q-10 0 -17 7l-61 62l-14 -22q-32 -46 -87 -47h-77q-44 1 -74 30q-29 30 -30 74q1 51 42 83l74 54l-37 37q-30 32 -31 77q1 39 27 66q27 26 66 27h54q39 -1 66 -27q26 -27 27 -66q-1 -47 -38 -75l-62 -45l87 -89l65 99q14 17 33 7q17 -14 7 -33l-71 -108l68 -70
q14 -17 0 -34q-8 -7 -17 -7v0zM149 174l-78 -58q-22 -16 -23 -44q1 -24 16 -40q16 -15 40 -16h77q30 1 47 25l20 32l-99 101v0zM141 368q-19 0 -32 -13v0q-13 -13 -13 -32q0 -25 18 -43l41 -42l67 49q17 13 18 36q0 19 -13 32t-33 13h-53v0z" />
    <glyph glyph-name="apostrophe" unicode="'" horiz-adv-x="192" 
d="M96 416q-41 -1 -68 -28v0q-27 -27 -28 -68q1 -41 28 -68t68 -28q27 0 48 13v-21q-1 -31 -21 -51t-51 -21h-16q-22 -2 -24 -24q2 -22 24 -24h16q51 1 85 35t35 85v104q-1 41 -28 68t-68 28v0zM96 272q-20 1 -34 14v0q-13 14 -14 34q1 20 14 34q14 13 34 14q20 -1 34 -14
q13 -14 14 -34q-1 -20 -14 -34q-14 -13 -34 -14v0z" />
    <glyph glyph-name="bracket-round" unicode="(" horiz-adv-x="192" 
d="M157 -20q-8 -12 -21 -12q-6 0 -12 3q-5 2 -35 27q-29 24 -58 73q-29 48 -31 121q2 73 31 121q29 49 58 73q30 25 35 27q20 9 33 -9q9 -20 -9 -33q-4 -1 -28 -21q-24 -21 -47 -60q-23 -40 -25 -98q2 -59 25 -98q23 -40 48 -60q24 -20 27 -21v0q18 -13 9 -33v0z" />
    <glyph glyph-name="bracket-round-right" unicode=")" horiz-adv-x="192" 
d="M44 13q3 1 27 21v0q25 20 48 60v0q23 39 25 98q-2 59 -25 98t-47 60q-24 20 -28 21q-18 13 -9 33q13 18 33 9q5 -2 35 -27q29 -24 58 -73q29 -48 31 -121q-2 -73 -31 -121q-29 -49 -58 -73q-30 -25 -35 -27q-6 -3 -12 -3q-13 0 -21 12q-9 20 9 33v0z" />
    <glyph glyph-name="asterisk" unicode="&#xf069;" horiz-adv-x="448" 
d="M417 80q-7 -12 -21 -12q-6 0 -12 3l-136 79v-158q-2 -22 -23 -24q-10 0 -17 7q-8 7 -8 17v158l-137 -79q-1 0 -3 -1q-4 -2 -9 -2q-13 0 -21 12q-9 20 9 33l137 79l-137 79q-18 13 -10 33q14 18 34 9l137 -79v158q2 22 24 24q22 -2 24 -24v-158l137 79q21 9 32 -9
q9 -20 -9 -33l-137 -79l137 -79q20 -13 9 -33v0z" />
    <glyph glyph-name="asterisk" unicode="&#x2731;" horiz-adv-x="448" 
d="M417 80q-7 -12 -21 -12q-6 0 -12 3l-136 79v-158q-2 -22 -23 -24q-10 0 -17 7q-8 7 -8 17v158l-137 -79q-1 0 -3 -1q-4 -2 -9 -2q-13 0 -21 12q-9 20 9 33l137 79l-137 79q-18 13 -10 33q14 18 34 9l137 -79v158q2 22 24 24q22 -2 24 -24v-158l137 79q21 9 32 -9
q9 -20 -9 -33l-137 -79l137 -79q20 -13 9 -33v0z" />
    <glyph glyph-name="asterisk" unicode="*" horiz-adv-x="448" 
d="M417 80q-7 -12 -21 -12q-6 0 -12 3l-136 79v-158q-2 -22 -23 -24q-10 0 -17 7q-8 7 -8 17v158l-137 -79q-1 0 -3 -1q-4 -2 -9 -2q-13 0 -21 12q-9 20 9 33l137 79l-137 79q-18 13 -10 33q14 18 34 9l137 -79v158q2 22 24 24q22 -2 24 -24v-158l137 79q21 9 32 -9
q9 -20 -9 -33l-137 -79l137 -79q20 -13 9 -33v0z" />
    <glyph glyph-name="plus" unicode="&#x2795;" horiz-adv-x="448" 
d="M432 192q-2 -22 -24 -24h-160v-160q-2 -22 -24 -24q-22 2 -24 24v160h-160q-22 2 -24 24q2 22 24 24h160v160q2 22 24 24q22 -2 24 -24v-160h160q22 -2 24 -24v0z" />
    <glyph glyph-name="plus" unicode="+" horiz-adv-x="448" 
d="M432 192q-2 -22 -24 -24h-160v-160q-2 -22 -24 -24q-22 2 -24 24v160h-160q-22 2 -24 24q2 22 24 24h160v160q2 22 24 24q22 -2 24 -24v-160h160q22 -2 24 -24v0z" />
    <glyph glyph-name="comma" unicode="," horiz-adv-x="192" 
d="M156 121q-7 18 -23 28v0q-16 11 -35 11q-15 0 -28 -8q-25 -14 -30 -42l-23 -132q-2 -28 24 -40q4 -1 10 -1h2q20 0 31 18l68 115q13 24 4 51v0zM110 94l-35 -61l11 69q1 6 7 9q1 1 2 1t2 1q11 -1 14 -8q2 -7 -1 -11v0z" />
    <glyph glyph-name="hyphen" unicode="-" horiz-adv-x="320" 
d="M320 192q-2 -22 -24 -24h-272q-22 2 -24 24q2 22 24 24h272q22 -2 24 -24v0z" />
    <glyph glyph-name="period" unicode="." horiz-adv-x="128" 
d="M64 96q-27 -1 -45 -19v0q-18 -18 -19 -45q1 -27 19 -45t45 -19q27 1 45 19t19 45q-1 27 -19 45t-45 19v0zM64 16q-15 1 -16 16q1 15 16 16q15 -1 16 -16q-1 -15 -16 -16v0z" />
    <glyph glyph-name="slash-forward" unicode="/" horiz-adv-x="320" 
d="M24 -64q-6 0 -12 3q-18 13 -9 33l272 464q13 18 33 9q18 -13 9 -33l-272 -464q-8 -12 -21 -12v0z" />
    <glyph glyph-name="0" unicode="0" horiz-adv-x="320" 
d="M160 368q48 -1 79 -33v0q32 -31 33 -79v-128q-1 -48 -33 -79q-31 -32 -79 -33q-48 1 -79 33q-32 31 -33 79v128q1 48 33 79q31 32 79 33v0zM160 416q-68 -2 -113 -47v0q-45 -45 -47 -113v-127q2 -68 47 -113t113 -47q68 2 113 47t47 113v127q-2 68 -47 113t-113 47v0z
" />
    <glyph glyph-name="1" unicode="1" horiz-adv-x="256" 
d="M256 -8q-2 -22 -24 -24h-208q-22 2 -24 24q2 22 24 24h80v333l-67 -41q-20 -10 -33 7q-10 20 7 33l104 64q12 7 25 1q12 -7 12 -21v-376h80q22 -2 24 -24v0z" />
    <glyph glyph-name="2" unicode="2" horiz-adv-x="320" 
d="M296 -32h-272q-16 1 -22 15q-5 16 6 27l206 186q31 29 34 67t-23 70q-27 31 -69 35q-42 3 -74 -24l-39 -35q-17 -13 -34 2q-13 18 2 34l40 35q47 40 109 36q61 -6 102 -52q38 -48 33 -105q-4 -57 -50 -98l-159 -145h210q22 -2 24 -24q-2 -22 -24 -24v0z" />
    <glyph glyph-name="3" unicode="3" horiz-adv-x="320" 
d="M188 -32h-90q-34 0 -60 19t-37 51q-5 21 15 30q22 5 31 -15q6 -17 19 -27q14 -10 32 -10h90q36 1 59 25q24 23 25 59q-1 35 -25 59q-23 23 -59 24h-100q-16 1 -22 15q-5 15 5 27l149 143h-196q-22 2 -24 24q2 22 24 24h256q16 -1 22 -15q5 -15 -5 -26l-149 -144h40
q56 -1 93 -38q38 -37 39 -93q-1 -56 -39 -93q-37 -38 -93 -39v0z" />
    <glyph glyph-name="4" unicode="4" horiz-adv-x="384" 
d="M384 120q-2 -22 -24 -24h-39l-1 -104q-2 -22 -24 -24q-22 2 -24 24v104h-248q-13 0 -21 12q-6 11 0 23l144 272q12 19 32 10q19 -12 10 -32l-125 -237h208v152q2 22 24 24q22 -2 24 -24v-152h40q22 -2 24 -24v0z" />
    <glyph glyph-name="5" unicode="5" horiz-adv-x="320" 
d="M188 -32h-82q-37 0 -65 21q-28 20 -40 54q-5 22 15 31q22 5 31 -16q6 -19 22 -30q16 -12 37 -12h82q35 1 59 25t25 59q-1 36 -25 60t-59 25h-164q-11 0 -18 8q-7 9 -6 20l32 183q5 19 24 20h208q22 -2 24 -24q-2 -22 -24 -24h-188l-23 -135h135q56 -2 93 -39
q38 -38 39 -94q-1 -56 -39 -93q-37 -38 -93 -39v0z" />
    <glyph glyph-name="6" unicode="6" horiz-adv-x="320" 
d="M0 128q2 -68 47 -113v0q45 -45 113 -47q68 2 113 47t47 113q-2 68 -47 113t-113 47q-5 0 -11 -1q-2 0 -5 -1l75 91q12 18 -4 34q-7 5 -15 5q-11 0 -18 -9q-37 -43 -64 -76q-46 -54 -71 -87q-26 -34 -37 -60q-10 -26 -10 -56v0zM272 128q-1 -48 -33 -79v0q-31 -32 -79 -33
q-48 1 -79 33q-32 31 -33 79q1 48 33 79q31 32 79 33q48 -1 79 -33q32 -32 33 -79v0z" />
    <glyph glyph-name="7" unicode="7" horiz-adv-x="320" 
d="M56 -32q-6 0 -12 3q-18 13 -9 33l219 364h-230q-22 2 -24 24q2 22 24 24h272q14 0 21 -12q6 -12 0 -24l-240 -400q-8 -12 -21 -12v0z" />
    <glyph glyph-name="8" unicode="8" horiz-adv-x="320" 
d="M260 198q42 36 44 94q-1 53 -36 88t-88 36h-40q-53 -1 -88 -36t-36 -88q2 -58 44 -94q-27 -17 -43 -44q-17 -28 -17 -62q1 -53 36 -88t88 -36h72q53 1 88 36t36 88q0 34 -17 62q-16 27 -43 44v0zM140 368h40q32 -1 54 -22q21 -22 22 -54q-1 -32 -22 -54q-22 -21 -54 -22
h-40q-32 1 -54 22q-21 22 -22 54q1 32 22 54q22 21 54 22v0zM196 16h-72q-32 1 -54 22q-21 22 -22 54q1 32 22 54q22 21 54 22h72q32 -1 54 -22q21 -22 22 -54q-1 -32 -22 -54q-22 -21 -54 -22v0z" />
    <glyph glyph-name="9" unicode="9" horiz-adv-x="320" 
d="M320 256q-2 68 -47 113v0q-45 45 -113 47q-68 -2 -113 -47t-47 -113q2 -68 47 -113t113 -47q6 0 11 1q2 0 5 1l-74 -91q-13 -18 3 -33q7 -6 15 -6q11 0 19 9q36 43 63 76q46 53 71 87q26 34 37 60q10 26 10 56v0zM48 256q1 48 33 79v0q31 32 79 33q48 -1 79 -33
q32 -31 33 -79q-1 -48 -33 -79q-31 -32 -79 -33q-48 1 -79 33q-32 31 -33 79v0z" />
    <glyph glyph-name="colon" unicode=":" horiz-adv-x="128" 
d="M64 256q27 1 45 19v0q18 18 19 45q-1 27 -19 45t-45 19q-27 -1 -45 -19t-19 -45q1 -27 19 -45t45 -19v0zM64 336q15 -1 16 -16q-1 -15 -16 -16q-15 1 -16 16q1 15 16 16v0zM64 128q-27 -1 -45 -19v0q-18 -18 -19 -45q1 -27 19 -45t45 -19q27 1 45 19t19 45q-1 27 -19 45
t-45 19v0zM64 48q-15 1 -16 16q1 15 16 16q15 -1 16 -16q-1 -15 -16 -16v0z" />
    <glyph glyph-name="semicolon" unicode=";" horiz-adv-x="192" 
d="M97 161q-15 0 -28 -8q-25 -14 -30 -42l-22 -132q-3 -28 23 -40q6 -3 12 -2h1q20 0 31 18l68 115q13 25 4 52q-7 17 -23 28t-36 11v0zM110 94l-35 -61l11 69q1 6 7 9q2 1 4 1q11 -1 14 -8q2 -5 -1 -10v0zM96 256q27 1 45 19v0q18 18 19 45q-1 27 -19 45t-45 19
q-27 -1 -45 -19q-17 -18 -18 -45q0 -27 18 -45t45 -19v0zM96 336q15 -1 16 -16q-1 -15 -16 -16q-15 1 -16 16q1 15 16 16v0z" />
    <glyph glyph-name="less-than" unicode="&#xf536;" horiz-adv-x="384" 
d="M370 330l-290 -138l290 -138q19 -12 12 -32q-7 -13 -23 -14q-5 0 -10 2l-336 160q-13 7 -14 22q1 15 14 22l336 160q22 7 33 -12q7 -20 -12 -32v0z" />
    <glyph glyph-name="less-than" unicode="&#x3c;" horiz-adv-x="384" 
d="M370 330l-290 -138l290 -138q19 -12 12 -32q-7 -13 -23 -14q-5 0 -10 2l-336 160q-13 7 -14 22q1 15 14 22l336 160q22 7 33 -12q7 -20 -12 -32v0z" />
    <glyph glyph-name="equals" unicode="&#xf52c;" horiz-adv-x="448" 
d="M408 120h-368q-22 -2 -24 -24q2 -22 24 -24h368q22 2 24 24q-2 22 -24 24v0zM40 264h368q22 2 24 24q-2 22 -24 24h-368q-22 -2 -24 -24q2 -22 24 -24v0z" />
    <glyph glyph-name="equals" unicode="=" horiz-adv-x="448" 
d="M408 120h-368q-22 -2 -24 -24q2 -22 24 -24h368q22 2 24 24q-2 22 -24 24v0zM40 264h368q22 2 24 24q-2 22 -24 24h-368q-22 -2 -24 -24q2 -22 24 -24v0z" />
    <glyph glyph-name="greater-than" unicode="&#xf531;" horiz-adv-x="384" 
d="M384 192q-1 -15 -14 -22l-336 -160q-5 -2 -10 -2q-14 0 -22 14q-7 20 12 32l290 138l-290 138q-19 12 -12 32q12 19 32 12l336 -160q13 -7 14 -22v0z" />
    <glyph glyph-name="greater-than" unicode="&#x3e;" horiz-adv-x="384" 
d="M384 192q-1 -15 -14 -22l-336 -160q-5 -2 -10 -2q-14 0 -22 14q-7 20 12 32l290 138l-290 138q-19 12 -12 32q12 19 32 12l336 -160q13 -7 14 -22v0z" />
    <glyph glyph-name="question" unicode="&#xf128;" horiz-adv-x="320" 
d="M144 32q-14 0 -23 -9v0q-9 -9 -9 -23t9 -23t23 -9t23 9t9 23t-9 23t-23 9v0zM211 416h-107q-44 -1 -74 -30q-29 -30 -30 -74v-16q2 -22 24 -24q22 2 24 24v16q1 24 16 40q16 15 40 16h107q26 -1 43 -18t18 -43q-1 -36 -32 -54l-73 -38q-46 -26 -47 -78v-17q2 -22 24 -24
q22 2 24 24v17q1 24 21 36l73 38q27 15 42 40q16 25 16 56q-1 46 -32 77t-77 32v0z" />
    <glyph glyph-name="question" unicode="&#x2754;" horiz-adv-x="320" 
d="M144 32q-14 0 -23 -9v0q-9 -9 -9 -23t9 -23t23 -9t23 9t9 23t-9 23t-23 9v0zM211 416h-107q-44 -1 -74 -30q-29 -30 -30 -74v-16q2 -22 24 -24q22 2 24 24v16q1 24 16 40q16 15 40 16h107q26 -1 43 -18t18 -43q-1 -36 -32 -54l-73 -38q-46 -26 -47 -78v-17q2 -22 24 -24
q22 2 24 24v17q1 24 21 36l73 38q27 15 42 40q16 25 16 56q-1 46 -32 77t-77 32v0z" />
    <glyph glyph-name="question" unicode="&#x2753;" horiz-adv-x="320" 
d="M144 32q-14 0 -23 -9v0q-9 -9 -9 -23t9 -23t23 -9t23 9t9 23t-9 23t-23 9v0zM211 416h-107q-44 -1 -74 -30q-29 -30 -30 -74v-16q2 -22 24 -24q22 2 24 24v16q1 24 16 40q16 15 40 16h107q26 -1 43 -18t18 -43q-1 -36 -32 -54l-73 -38q-46 -26 -47 -78v-17q2 -22 24 -24
q22 2 24 24v17q1 24 21 36l73 38q27 15 42 40q16 25 16 56q-1 46 -32 77t-77 32v0z" />
    <glyph glyph-name="question" unicode="?" horiz-adv-x="320" 
d="M144 32q-14 0 -23 -9v0q-9 -9 -9 -23t9 -23t23 -9t23 9t9 23t-9 23t-23 9v0zM211 416h-107q-44 -1 -74 -30q-29 -30 -30 -74v-16q2 -22 24 -24q22 2 24 24v16q1 24 16 40q16 15 40 16h107q26 -1 43 -18t18 -43q-1 -36 -32 -54l-73 -38q-46 -26 -47 -78v-17q2 -22 24 -24
q22 2 24 24v17q1 24 21 36l73 38q27 15 42 40q16 25 16 56q-1 46 -32 77t-77 32v0z" />
    <glyph glyph-name="at" unicode="&#x1fa80;" 
d="M263 432q-100 2 -174 -68q-72 -71 -73 -173q2 -91 59 -157q56 -66 146 -82h3q19 1 24 20q1 22 -20 28q-72 12 -117 65q-46 53 -47 126q1 81 59 139q58 56 139 54q79 -5 131 -62q53 -57 55 -140v-19q0 -19 -13 -32q-12 -12 -31 -13q-19 1 -31 13q-13 13 -13 32v116
q-2 22 -24 23q-19 -1 -23 -20q-28 22 -65 22q-48 -1 -79 -33q-32 -31 -33 -78q1 -47 33 -78q31 -32 79 -33q47 1 79 32q26 -40 77 -42q39 1 65 27t27 65v18q-1 68 -32 123q-31 56 -83 90q-53 35 -118 37v0zM248 128q-27 1 -45 19v0q-18 18 -19 44q1 27 19 45t45 18
q27 -1 45 -18q18 -18 19 -45q-1 -26 -19 -44t-45 -19v0z" />
    <glyph glyph-name="at" unicode="&#xf1fa;" 
d="M263 432q-100 2 -174 -68q-72 -71 -73 -173q2 -91 59 -157q56 -66 146 -82h3q19 1 24 20q1 22 -20 28q-72 12 -117 65q-46 53 -47 126q1 81 59 139q58 56 139 54q79 -5 131 -62q53 -57 55 -140v-19q0 -19 -13 -32q-12 -12 -31 -13q-19 1 -31 13q-13 13 -13 32v116
q-2 22 -24 23q-19 -1 -23 -20q-28 22 -65 22q-48 -1 -79 -33q-32 -31 -33 -78q1 -47 33 -78q31 -32 79 -33q47 1 79 32q26 -40 77 -42q39 1 65 27t27 65v18q-1 68 -32 123q-31 56 -83 90q-53 35 -118 37v0zM248 128q-27 1 -45 19v0q-18 18 -19 44q1 27 19 45t45 18
q27 -1 45 -18q18 -18 19 -45q-1 -26 -19 -44t-45 -19v0z" />
    <glyph glyph-name="at" unicode="@" 
d="M263 432q-100 2 -174 -68q-72 -71 -73 -173q2 -91 59 -157q56 -66 146 -82h3q19 1 24 20q1 22 -20 28q-72 12 -117 65q-46 53 -47 126q1 81 59 139q58 56 139 54q79 -5 131 -62q53 -57 55 -140v-19q0 -19 -13 -32q-12 -12 -31 -13q-19 1 -31 13q-13 13 -13 32v116
q-2 22 -24 23q-19 -1 -23 -20q-28 22 -65 22q-48 -1 -79 -33q-32 -31 -33 -78q1 -47 33 -78q31 -32 79 -33q47 1 79 32q26 -40 77 -42q39 1 65 27t27 65v18q-1 68 -32 123q-31 56 -83 90q-53 35 -118 37v0zM248 128q-27 1 -45 19v0q-18 18 -19 44q1 27 19 45t45 18
q27 -1 45 -18q18 -18 19 -45q-1 -26 -19 -44t-45 -19v0z" />
    <glyph glyph-name="a" unicode="a" horiz-adv-x="384" 
d="M382 1l-168 400q-7 14 -22 14t-22 -14l-168 -400q-7 -21 13 -31q21 -7 31 13l34 80h224l34 -80q7 -15 22 -15q5 0 9 2q20 10 13 31v0zM100 111l92 220l92 -219h-184v-1z" />
    <glyph glyph-name="a" unicode="A" horiz-adv-x="384" 
d="M382 1l-168 400q-7 14 -22 14t-22 -14l-168 -400q-7 -21 13 -31q21 -7 31 13l34 80h224l34 -80q7 -15 22 -15q5 0 9 2q20 10 13 31v0zM100 111l92 220l92 -219h-184v-1z" />
    <glyph glyph-name="b" unicode="b" horiz-adv-x="320" 
d="M250 203q37 35 38 89q-1 53 -36 88t-88 36h-140q-22 -2 -24 -24v-400q2 -22 24 -24h172q53 1 88 36t36 88q-1 37 -19 66q-19 29 -51 45v0zM48 368h116q32 -1 54 -22q21 -22 22 -54q-1 -32 -22 -54q-22 -21 -54 -22h-116v152v0zM196 16h-148v152h148q32 -1 54 -22
q21 -22 22 -54q-1 -32 -22 -54q-22 -21 -54 -22v0z" />
    <glyph glyph-name="b" unicode="B" horiz-adv-x="320" 
d="M250 203q37 35 38 89q-1 53 -36 88t-88 36h-140q-22 -2 -24 -24v-400q2 -22 24 -24h172q53 1 88 36t36 88q-1 37 -19 66q-19 29 -51 45v0zM48 368h116q32 -1 54 -22q21 -22 22 -54q-1 -32 -22 -54q-22 -21 -54 -22h-116v152v0zM196 16h-148v152h148q32 -1 54 -22
q21 -22 22 -54q-1 -32 -22 -54q-22 -21 -54 -22v0z" />
    <glyph glyph-name="c" unicode="c" horiz-adv-x="384" 
d="M221 -32q-70 1 -119 34v0q-49 33 -75 84v0q-27 50 -27 105t27 106q26 51 75 85q50 33 119 34v0v0q48 -1 84 -17q37 -16 58 -35q21 -20 21 -31q0 -7 -6 -15q-5 -8 -18 -9q-12 2 -27 16t-41 28q-27 14 -71 15q-82 -3 -127 -56t-46 -120q1 -66 46 -119q45 -54 127 -57
q44 1 71 15q26 14 41 28t27 16q8 0 15 -6q8 -6 9 -18q0 -11 -21 -31q-21 -19 -57 -35q-37 -16 -85 -17v0z" />
    <glyph glyph-name="c" unicode="C" horiz-adv-x="384" 
d="M221 -32q-70 1 -119 34v0q-49 33 -75 84v0q-27 50 -27 105t27 106q26 51 75 85q50 33 119 34v0v0q48 -1 84 -17q37 -16 58 -35q21 -20 21 -31q0 -7 -6 -15q-5 -8 -18 -9q-12 2 -27 16t-41 28q-27 14 -71 15q-82 -3 -127 -56t-46 -120q1 -66 46 -119q45 -54 127 -57
q44 1 71 15q26 14 41 28t27 16q8 0 15 -6q8 -6 9 -18q0 -11 -21 -31q-21 -19 -57 -35q-37 -16 -85 -17v0z" />
    <glyph glyph-name="d" unicode="d" horiz-adv-x="384" 
d="M155 -32h-131q-22 2 -24 24v400q2 22 24 24h131q64 -1 115 -31q52 -30 83 -80q30 -51 31 -113q-1 -62 -31 -113q-31 -50 -83 -80q-51 -30 -115 -31v0zM48 16h107q77 2 128 52q51 49 53 124q-2 75 -53 124q-51 50 -128 52h-107v-352v0z" />
    <glyph glyph-name="d" unicode="D" horiz-adv-x="384" 
d="M155 -32h-131q-22 2 -24 24v400q2 22 24 24h131q64 -1 115 -31q52 -30 83 -80q30 -51 31 -113q-1 -62 -31 -113q-31 -50 -83 -80q-51 -30 -115 -31v0zM48 16h107q77 2 128 52q51 49 53 124q-2 75 -53 124q-51 50 -128 52h-107v-352v0z" />
    <glyph glyph-name="e" unicode="e" horiz-adv-x="320" 
d="M320 -8q-2 -22 -24 -24h-272q-22 2 -24 24v400q2 22 24 24h272q22 -2 24 -24q-2 -22 -24 -24h-248v-152h184q22 -2 24 -24q-2 -22 -24 -24h-184v-152h248q22 -2 24 -24v0z" />
    <glyph glyph-name="e" unicode="E" horiz-adv-x="320" 
d="M320 -8q-2 -22 -24 -24h-272q-22 2 -24 24v400q2 22 24 24h272q22 -2 24 -24q-2 -22 -24 -24h-248v-152h184q22 -2 24 -24q-2 -22 -24 -24h-184v-152h248q22 -2 24 -24v0z" />
    <glyph glyph-name="f" unicode="f" horiz-adv-x="320" 
d="M320 392q-2 -22 -24 -24h-248v-152h184q22 -2 24 -24q-2 -22 -24 -24h-184v-176q-2 -22 -24 -24q-22 2 -24 24v400q2 22 24 24h272q22 -2 24 -24v0z" />
    <glyph glyph-name="f" unicode="F" horiz-adv-x="320" 
d="M320 392q-2 -22 -24 -24h-248v-152h184q22 -2 24 -24q-2 -22 -24 -24h-184v-176q-2 -22 -24 -24q-22 2 -24 24v400q2 22 24 24h272q22 -2 24 -24v0z" />
    <glyph glyph-name="g" unicode="g" horiz-adv-x="448" 
d="M222 -32q-66 1 -116 32v0q-50 31 -78 82v0q-28 50 -28 109q1 63 31 114q29 50 80 80q50 30 112 31q49 -1 86 -17t58 -35q21 -20 22 -31q-1 -14 -10 -19t-15 -5q-11 1 -27 16q-15 14 -42 28q-26 14 -72 15q-74 -2 -124 -51q-49 -50 -51 -126q-1 -21 13 -62t52 -76t110 -37
q28 -1 66 13t70 47q31 33 39 91h-150q-22 2 -24 24q2 22 23 24h175q22 -2 23 -24q0 -71 -33 -121q-33 -49 -84 -75t-106 -27v0z" />
    <glyph glyph-name="g" unicode="G" horiz-adv-x="448" 
d="M222 -32q-66 1 -116 32v0q-50 31 -78 82v0q-28 50 -28 109q1 63 31 114q29 50 80 80q50 30 112 31q49 -1 86 -17t58 -35q21 -20 22 -31q-1 -14 -10 -19t-15 -5q-11 1 -27 16q-15 14 -42 28q-26 14 -72 15q-74 -2 -124 -51q-49 -50 -51 -126q-1 -21 13 -62t52 -76t110 -37
q28 -1 66 13t70 47q31 33 39 91h-150q-22 2 -24 24q2 22 23 24h175q22 -2 23 -24q0 -71 -33 -121q-33 -49 -84 -75t-106 -27v0z" />
    <glyph glyph-name="h" unicode="h" horiz-adv-x="384" 
d="M384 392v-400q-2 -22 -24 -24q-22 2 -24 24v200h-288v-200q-2 -22 -24 -24q-22 2 -24 24v400q2 22 24 24q22 -2 24 -24v-152h288v152q2 22 24 24q22 -2 24 -24v0z" />
    <glyph glyph-name="h" unicode="H" horiz-adv-x="384" 
d="M384 392v-400q-2 -22 -24 -24q-22 2 -24 24v200h-288v-200q-2 -22 -24 -24q-22 2 -24 24v400q2 22 24 24q22 -2 24 -24v-152h288v152q2 22 24 24q22 -2 24 -24v0z" />
    <glyph glyph-name="i" unicode="i" horiz-adv-x="320" 
d="M320 -8q-2 -22 -24 -24h-272q-22 2 -24 24q2 22 24 24h112v352h-112q-22 2 -24 24q2 22 24 24h272q22 -2 24 -24q-2 -22 -24 -24h-112v-352h112q22 -2 24 -24v0z" />
    <glyph glyph-name="i" unicode="I" horiz-adv-x="320" 
d="M320 -8q-2 -22 -24 -24h-272q-22 2 -24 24q2 22 24 24h112v352h-112q-22 2 -24 24q2 22 24 24h272q22 -2 24 -24q-2 -22 -24 -24h-112v-352h112q22 -2 24 -24v0z" />
    <glyph glyph-name="j" unicode="j" horiz-adv-x="320" 
d="M160 -32q-68 2 -113 45v0q-45 44 -47 109v46q2 22 24 24q22 -2 24 -24v-46q1 -45 33 -75q31 -30 79 -31q48 1 79 31q32 30 33 75v270q2 22 24 24q22 -2 24 -24v-270q-2 -65 -47 -109q-45 -43 -113 -45v0z" />
    <glyph glyph-name="j" unicode="J" horiz-adv-x="320" 
d="M160 -32q-68 2 -113 45v0q-45 44 -47 109v46q2 22 24 24q22 -2 24 -24v-46q1 -45 33 -75q31 -30 79 -31q48 1 79 31q32 30 33 75v270q2 22 24 24q22 -2 24 -24v-270q-2 -65 -47 -109q-45 -43 -113 -45v0z" />
    <glyph glyph-name="k" unicode="k" horiz-adv-x="320" 
d="M316 6q11 -19 -6 -34q-7 -4 -14 -4q-12 0 -20 10l-148 212l-80 -81v-117q-2 -22 -24 -24q-22 2 -24 24v400q2 22 24 24q22 -2 24 -24v-215l231 232q17 14 34 0q14 -17 0 -34l-151 -152v0l1 -1l153 -216v0z" />
    <glyph glyph-name="k" unicode="K" horiz-adv-x="320" 
d="M316 6q11 -19 -6 -34q-7 -4 -14 -4q-12 0 -20 10l-148 212l-80 -81v-117q-2 -22 -24 -24q-22 2 -24 24v400q2 22 24 24q22 -2 24 -24v-215l231 232q17 14 34 0q14 -17 0 -34l-151 -152v0l1 -1l153 -216v0z" />
    <glyph glyph-name="l" unicode="l" horiz-adv-x="320" 
d="M296 -32h-240q-22 2 -24 24v400q2 22 24 24q22 -2 24 -24v-376h216q22 -2 24 -24q-2 -22 -24 -24v0z" />
    <glyph glyph-name="l" unicode="L" horiz-adv-x="320" 
d="M296 -32h-240q-22 2 -24 24v400q2 22 24 24q22 -2 24 -24v-376h216q22 -2 24 -24q-2 -22 -24 -24v0z" />
    <glyph glyph-name="m" unicode="m" horiz-adv-x="448" 
d="M424 -32q-22 2 -24 24v320l-156 -237q-7 -10 -20 -10t-20 10l-156 237v-320q-2 -22 -24 -24q-22 2 -24 24v400q1 17 17 23q17 4 27 -10l180 -273l180 273q10 14 27 10q16 -6 17 -23v-400q-2 -22 -24 -24v0z" />
    <glyph glyph-name="m" unicode="M" horiz-adv-x="448" 
d="M424 -32q-22 2 -24 24v320l-156 -237q-7 -10 -20 -10t-20 10l-156 237v-320q-2 -22 -24 -24q-22 2 -24 24v400q1 17 17 23q17 4 27 -10l180 -273l180 273q10 14 27 10q16 -6 17 -23v-400q-2 -22 -24 -24v0z" />
    <glyph glyph-name="n" unicode="n" horiz-adv-x="384" 
d="M360 -32q-11 0 -18 9l-294 349v-334q-2 -22 -24 -24q-22 2 -24 24v400q1 16 16 23q15 4 26 -8l294 -349v334q2 22 24 24q22 -2 24 -24v-400q-1 -16 -16 -23q-4 -1 -8 -1v0z" />
    <glyph glyph-name="n" unicode="N" horiz-adv-x="384" 
d="M360 -32q-11 0 -18 9l-294 349v-334q-2 -22 -24 -24q-22 2 -24 24v400q1 16 16 23q15 4 26 -8l294 -349v334q2 22 24 24q22 -2 24 -24v-400q-1 -16 -16 -23q-4 -1 -8 -1v0z" />
    <glyph glyph-name="o" unicode="o" horiz-adv-x="448" 
d="M224 -32q-62 1 -113 31v0q-50 30 -80 80v0q-30 51 -31 113q1 62 31 113q30 50 80 80q51 30 113 31q62 -1 113 -31q50 -30 80 -80q30 -51 31 -113q-1 -62 -31 -113q-30 -50 -80 -80q-51 -30 -113 -31v0zM224 368q-75 -2 -125 -51v0q-49 -50 -51 -125q2 -75 52 -125
q49 -49 124 -51q75 2 124 52q50 49 52 124q-2 75 -52 124q-49 50 -124 52v0z" />
    <glyph glyph-name="o" unicode="O" horiz-adv-x="448" 
d="M224 -32q-62 1 -113 31v0q-50 30 -80 80v0q-30 51 -31 113q1 62 31 113q30 50 80 80q51 30 113 31q62 -1 113 -31q50 -30 80 -80q30 -51 31 -113q-1 -62 -31 -113q-30 -50 -80 -80q-51 -30 -113 -31v0zM224 368q-75 -2 -125 -51v0q-49 -50 -51 -125q2 -75 52 -125
q49 -49 124 -51q75 2 124 52q50 49 52 124q-2 75 -52 124q-49 50 -124 52v0z" />
    <glyph glyph-name="p" unicode="p" horiz-adv-x="320" 
d="M24 -32q-22 2 -24 24v400q2 22 24 24h144q64 -2 107 -45t45 -107q-2 -64 -45 -107q-42 -43 -107 -45h-120v-120q-2 -22 -24 -24v0zM48 160h120q44 1 74 30q29 30 30 74q-1 44 -31 74q-29 29 -73 30h-120v-208v0z" />
    <glyph glyph-name="p" unicode="P" horiz-adv-x="320" 
d="M24 -32q-22 2 -24 24v400q2 22 24 24h144q64 -2 107 -45t45 -107q-2 -64 -45 -107q-42 -43 -107 -45h-120v-120q-2 -22 -24 -24v0zM48 160h120q44 1 74 30q29 30 30 74q-1 44 -31 74q-29 29 -73 30h-120v-208v0z" />
    <glyph glyph-name="q" unicode="q" horiz-adv-x="448" 
d="M388 40q58 62 60 152q-1 62 -31 113q-29 50 -80 80q-50 30 -112 31q-62 -1 -113 -31t-81 -80q-30 -51 -31 -113q1 -62 31 -113q29 -50 80 -80q50 -30 112 -31q72 1 128 40l54 -63q9 -9 19 -9q12 1 18 8q6 8 6 16t-6 15l-54 65v0zM224 16q-75 2 -124 52v0q-50 49 -52 124
q2 75 51 124q50 50 125 52q75 -2 125 -52q49 -49 51 -124q-1 -68 -43 -115l-91 106q-7 9 -18 9q-12 -1 -18 -8q-5 -8 -5 -16t6 -15l90 -108q-43 -28 -97 -29v0z" />
    <glyph glyph-name="q" unicode="Q" horiz-adv-x="448" 
d="M388 40q58 62 60 152q-1 62 -31 113q-29 50 -80 80q-50 30 -112 31q-62 -1 -113 -31t-81 -80q-30 -51 -31 -113q1 -62 31 -113q29 -50 80 -80q50 -30 112 -31q72 1 128 40l54 -63q9 -9 19 -9q12 1 18 8q6 8 6 16t-6 15l-54 65v0zM224 16q-75 2 -124 52v0q-50 49 -52 124
q2 75 51 124q50 50 125 52q75 -2 125 -52q49 -49 51 -124q-1 -68 -43 -115l-91 106q-7 9 -18 9q-12 -1 -18 -8q-5 -8 -5 -16t6 -15l90 -108q-43 -28 -97 -29v0z" />
    <glyph glyph-name="r" unicode="r" horiz-adv-x="320" 
d="M203 161q50 5 83 40v0q33 36 34 87q-2 54 -38 90q-36 37 -90 38h-168q-22 -2 -24 -24v-400q2 -22 24 -24q22 2 24 24v168h96l133 -182q7 -10 19 -10q8 0 14 5q17 14 5 33l-112 155v0zM48 368h144q34 -1 57 -23q22 -23 23 -57q-1 -34 -23 -57q-23 -22 -57 -23h-144v160v0z
" />
    <glyph glyph-name="r" unicode="R" horiz-adv-x="320" 
d="M203 161q50 5 83 40v0q33 36 34 87q-2 54 -38 90q-36 37 -90 38h-168q-22 -2 -24 -24v-400q2 -22 24 -24q22 2 24 24v168h96l133 -182q7 -10 19 -10q8 0 14 5q17 14 5 33l-112 155v0zM48 368h144q34 -1 57 -23q22 -23 23 -57q-1 -34 -23 -57q-23 -22 -57 -23h-144v160v0z
" />
    <glyph glyph-name="s" unicode="s" horiz-adv-x="384" 
d="M350 65q-10 -53 -54 -78q-39 -20 -85 -19q-52 1 -97 14q-46 13 -67 22q-20 10 -13 31q10 20 31 13q66 -26 121 -31t86 12q25 14 31 45q7 38 -22 58q-29 19 -96 37q-38 10 -76 25q-38 16 -60 45q-23 29 -15 79q9 47 49 74q70 44 211 7q22 -7 18 -29q-7 -21 -29 -17
q-75 18 -116 15q-41 -4 -58 -17q-27 -20 -28 -41q-7 -39 22 -58q29 -20 95 -37q39 -10 77 -26q38 -15 60 -44q23 -29 15 -80v0z" />
    <glyph glyph-name="s" unicode="S" horiz-adv-x="384" 
d="M350 65q-10 -53 -54 -78q-39 -20 -85 -19q-52 1 -97 14q-46 13 -67 22q-20 10 -13 31q10 20 31 13q66 -26 121 -31t86 12q25 14 31 45q7 38 -22 58q-29 19 -96 37q-38 10 -76 25q-38 16 -60 45q-23 29 -15 79q9 47 49 74q70 44 211 7q22 -7 18 -29q-7 -21 -29 -17
q-75 18 -116 15q-41 -4 -58 -17q-27 -20 -28 -41q-7 -39 22 -58q29 -20 95 -37q39 -10 77 -26q38 -15 60 -44q23 -29 15 -80v0z" />
    <glyph glyph-name="t" unicode="t" horiz-adv-x="384" 
d="M384 392q-2 -22 -24 -24h-144v-376q-2 -22 -24 -24q-22 2 -24 24v376h-144q-22 2 -24 24q2 22 24 24h336q22 -2 24 -24v0z" />
    <glyph glyph-name="t" unicode="T" horiz-adv-x="384" 
d="M384 392q-2 -22 -24 -24h-144v-376q-2 -22 -24 -24q-22 2 -24 24v376h-144q-22 2 -24 24q2 22 24 24h336q22 -2 24 -24v0z" />
    <glyph glyph-name="u" unicode="u" horiz-adv-x="384" 
d="M192 -32q-81 2 -136 55v0q-54 54 -56 134v235q2 22 24 24q22 -2 24 -24v-235q2 -60 42 -100q41 -39 102 -41q61 2 102 41q40 40 42 100v235q2 22 24 24q22 -2 24 -24v-235q-2 -80 -56 -134q-55 -53 -136 -55v0z" />
    <glyph glyph-name="u" unicode="U" horiz-adv-x="384" 
d="M192 -32q-81 2 -136 55v0q-54 54 -56 134v235q2 22 24 24q22 -2 24 -24v-235q2 -60 42 -100q41 -39 102 -41q61 2 102 41q40 40 42 100v235q2 22 24 24q22 -2 24 -24v-235q-2 -80 -56 -134q-55 -53 -136 -55v0z" />
    <glyph glyph-name="v" unicode="v" horiz-adv-x="384" 
d="M192 -32q-16 1 -22 15l-168 400q-7 21 13 31q21 7 31 -13l146 -347l146 347q10 20 31 13q20 -10 13 -31l-168 -400q-6 -14 -22 -15v0z" />
    <glyph glyph-name="v" unicode="V" horiz-adv-x="384" 
d="M192 -32q-16 1 -22 15l-168 400q-7 21 13 31q21 7 31 -13l146 -347l146 347q10 20 31 13q20 -10 13 -31l-168 -400q-6 -14 -22 -15v0z" />
    <glyph glyph-name="w" unicode="w" horiz-adv-x="576" 
d="M408 -32h-1q-16 1 -22 17l-97 323l-98 -323q-6 -16 -22 -17q-17 1 -23 16l-144 400q-6 21 14 31q22 5 32 -15l119 -331l99 330q6 16 23 17q17 -1 23 -17l99 -330l119 331q10 20 31 15q20 -10 15 -31l-144 -400q-7 -15 -23 -16v0z" />
    <glyph glyph-name="w" unicode="W" horiz-adv-x="576" 
d="M408 -32h-1q-16 1 -22 17l-97 323l-98 -323q-6 -16 -22 -17q-17 1 -23 16l-144 400q-6 21 14 31q22 5 32 -15l119 -331l99 330q6 16 23 17q17 -1 23 -17l99 -330l119 331q10 20 31 15q20 -10 15 -31l-144 -400q-7 -15 -23 -16v0z" />
    <glyph glyph-name="x" unicode="x" horiz-adv-x="384" 
d="M378 7q13 -18 -3 -33q-7 -6 -15 -6q-11 0 -18 9l-150 178l-150 -178q-7 -9 -18 -9q-8 0 -15 6q-16 15 -3 33l155 185l-155 185q-13 18 3 33q18 13 33 -3l150 -178l150 178q15 16 33 3q16 -15 3 -33l-155 -185l155 -185v0z" />
    <glyph glyph-name="x" unicode="X" horiz-adv-x="384" 
d="M378 7q13 -18 -3 -33q-7 -6 -15 -6q-11 0 -18 9l-150 178l-150 -178q-7 -9 -18 -9q-8 0 -15 6q-16 15 -3 33l155 185l-155 185q-13 18 3 33q18 13 33 -3l150 -178l150 178q15 16 33 3q16 -15 3 -33l-155 -185l155 -185v0z" />
    <glyph glyph-name="y" unicode="y" horiz-adv-x="384" 
d="M379 378l-163 -226v-160q-2 -22 -24 -24q-22 2 -24 24v160l-163 226q-12 19 5 33q19 12 33 -5l149 -205l149 205q14 17 33 5q17 -14 5 -33v0z" />
    <glyph glyph-name="y" unicode="Y" horiz-adv-x="384" 
d="M379 378l-163 -226v-160q-2 -22 -24 -24q-22 2 -24 24v160l-163 226q-12 19 5 33q19 12 33 -5l149 -205l149 205q14 17 33 5q17 -14 5 -33v0z" />
    <glyph glyph-name="z" unicode="z" horiz-adv-x="384" 
d="M360 -32h-336q-15 1 -22 14q-6 14 4 25l303 361h-285q-22 2 -24 24q2 22 24 24h336q15 -1 22 -14q6 -14 -4 -25l-302 -361h284q22 -2 24 -24q-2 -22 -24 -24v0z" />
    <glyph glyph-name="z" unicode="Z" horiz-adv-x="384" 
d="M360 -32h-336q-15 1 -22 14q-6 14 4 25l303 361h-285q-22 2 -24 24q2 22 24 24h336q15 -1 22 -14q6 -14 -4 -25l-302 -361h284q22 -2 24 -24q-2 -22 -24 -24v0z" />
    <glyph glyph-name="bracket-square" unicode="[" horiz-adv-x="192" 
d="M120 416h-88q-14 0 -23 -9t-9 -23v-384q0 -14 9 -23t23 -9h88q22 2 24 23q0 10 -7 17q-7 8 -17 8h-72v352h72q22 2 24 24q-2 22 -24 24v0z" />
    <glyph glyph-name="slash-back" unicode="\" horiz-adv-x="320" 
d="M296 -64q-13 0 -21 12l-272 464q-9 20 9 33q20 9 33 -9l272 -464q9 -20 -9 -33q-6 -3 -12 -3v0z" />
    <glyph glyph-name="bracket-square-right" unicode="]" horiz-adv-x="192" 
d="M48 393q2 -23 23 -25h73v-352h-73q-21 -2 -23 -23q0 -10 7 -17q7 -8 17 -8h88q14 0 23 9t9 23v384q0 14 -9 23t-23 9h-88q-22 -2 -24 -23v0z" />
    <glyph glyph-name="accent-grave" unicode="`" horiz-adv-x="192" 
d="M40 357l68 -115q11 -18 32 -18q6 0 12 2q26 12 23 40l-22 132q-5 28 -30 42q-13 8 -28 8q-20 0 -36 -11q-16 -10 -22 -28q-11 -27 3 -52v0zM81 392q3 7 14 8q2 0 4 -1q6 -3 7 -9l11 -69l-35 61q-3 5 -1 10v0z" />
    <glyph glyph-name="bracket-curly" unicode="{" horiz-adv-x="256" 
d="M200 416h-80q-24 -1 -40 -16q-15 -16 -16 -40v-78q0 -16 -12 -28l-45 -45q-7 -7 -7 -17t7 -17l45 -45q12 -12 12 -29v-77q1 -24 16 -40q16 -15 40 -16h80q22 2 24 24q-2 22 -24 24h-80q-7 1 -8 8v77q-1 37 -26 63l-28 28l28 28q26 26 26 62v78q1 7 8 8h80q22 2 24 24
q-2 22 -24 24v0z" />
    <glyph glyph-name="pipe" unicode="|" horiz-adv-x="64" 
d="M32 -64q-22 2 -24 24v464q2 22 24 24q22 -2 24 -24v-464q-2 -22 -24 -24v0z" />
    <glyph glyph-name="bracket-curly-right" unicode="}" horiz-adv-x="256" 
d="M32 393q2 -23 23 -25h81q7 -1 8 -8v-78q1 -36 26 -62l28 -28l-28 -28q-26 -26 -26 -63v-77q-1 -7 -8 -8h-81q-21 -2 -23 -23q0 -10 7 -17q7 -8 16 -8h81q24 1 40 16q15 16 16 40v77q0 17 12 29l45 45q7 7 7 17t-7 17l-45 45q-12 12 -12 28v78q-1 24 -16 40q-16 15 -40 16
h-81q-21 -2 -23 -23v0z" />
    <glyph glyph-name="tilde" unicode="&#xf69f;" horiz-adv-x="448" 
d="M448 264v-89q-1 -47 -33 -78q-31 -32 -78 -33q-29 0 -54 14t-41 39l-77 125q-19 29 -54 30q-27 -1 -44 -19q-18 -17 -19 -44v-89q-2 -22 -24 -24q-22 2 -24 24v89q1 47 33 78q31 32 78 33q29 0 55 -14q25 -14 40 -39l77 -125q19 -29 54 -30q27 1 44 19q18 17 19 44v89
q2 22 24 24q22 -2 24 -24v0z" />
    <glyph glyph-name="tilde" unicode="~" horiz-adv-x="448" 
d="M448 264v-89q-1 -47 -33 -78q-31 -32 -78 -33q-29 0 -54 14t-41 39l-77 125q-19 29 -54 30q-27 -1 -44 -19q-18 -17 -19 -44v-89q-2 -22 -24 -24q-22 2 -24 24v89q1 47 33 78q31 32 78 33q29 0 55 -14q25 -14 40 -39l77 -125q19 -29 54 -30q27 1 44 19q18 17 19 44v89
q2 22 24 24q22 -2 24 -24v0z" />
    <glyph glyph-name="cent-sign" unicode="&#xa2;" horiz-adv-x="320" 
d="M313 101q14 -17 0 -34q-50 -44 -113 -49v-1v-1v-56q-2 -22 -24 -24q-21 2 -23 24v56v2l1 1q-56 9 -99 48q-54 52 -55 125q1 73 54 125q43 39 99 48q0 1 -1 1v2v56q2 22 23 24q22 -2 24 -24v-56v-1v-1q64 -5 113 -49q14 -17 0 -34q-16 -15 -33 -1q-42 38 -97 38
q-54 0 -96 -38q-37 -38 -38 -90q1 -52 39 -90q42 -38 96 -38q55 0 96 38q18 14 34 -1v0z" />
    <glyph glyph-name="sterling-sign" unicode="&#xf154;" horiz-adv-x="320" 
d="M320 -8q-2 -22 -24 -24h-272q-15 1 -21 13q-6 13 2 25q42 58 43 130v32h-24q-22 2 -24 24q2 22 24 24h24v73q1 54 37 90t90 37q21 0 41 -7l80 -26q20 -9 15 -31q-9 -20 -31 -15l-80 27q-12 4 -25 4q-33 -1 -56 -23q-22 -23 -23 -56v-73h136q22 -2 24 -24q-2 -22 -24 -24
h-136v-32q0 -63 -29 -120h229q22 -2 24 -24v0z" />
    <glyph glyph-name="sterling-sign" unicode="&#xa3;" horiz-adv-x="320" 
d="M320 -8q-2 -22 -24 -24h-272q-15 1 -21 13q-6 13 2 25q42 58 43 130v32h-24q-22 2 -24 24q2 22 24 24h24v73q1 54 37 90t90 37q21 0 41 -7l80 -26q20 -9 15 -31q-9 -20 -31 -15l-80 27q-12 4 -25 4q-33 -1 -56 -23q-22 -23 -23 -56v-73h136q22 -2 24 -24q-2 -22 -24 -24
h-136v-32q0 -63 -29 -120h229q22 -2 24 -24v0z" />
    <glyph glyph-name="yen-sign" unicode="&#xf157;" horiz-adv-x="320" 
d="M316 378l-105 -154h69q22 -2 24 -24q-2 -22 -24 -24h-96v-48h96q22 -2 24 -24q-2 -22 -24 -24h-96v-88q-2 -22 -24 -24q-22 2 -24 24v88h-96q-22 2 -24 24q2 22 24 24h96v48h-96q-22 2 -24 24q2 22 24 24h69l-105 154q-10 20 7 34q19 10 33 -7l116 -170l116 170
q14 17 34 7q17 -14 6 -34v0z" />
    <glyph glyph-name="yen-sign" unicode="&#xa5;" horiz-adv-x="320" 
d="M316 378l-105 -154h69q22 -2 24 -24q-2 -22 -24 -24h-96v-48h96q22 -2 24 -24q-2 -22 -24 -24h-96v-88q-2 -22 -24 -24q-22 2 -24 24v88h-96q-22 2 -24 24q2 22 24 24h96v48h-96q-22 2 -24 24q2 22 24 24h69l-105 154q-10 20 7 34q19 10 33 -7l116 -170l116 170
q14 17 34 7q17 -14 6 -34v0z" />
    <glyph glyph-name="section" unicode="&#xa7;" horiz-adv-x="256" 
d="M216 108q31 21 38 59q6 41 -12 65t-48 37t-59 21v0l-15 4q-45 13 -61 27t-11 37q7 30 38 37q30 8 64 3q18 -3 47 -13q22 -6 31 14q5 22 -15 31q-33 12 -56 15q-63 9 -105 -12t-51 -67q-5 -33 7 -55t32 -35q-31 -21 -38 -59q-6 -41 11 -64q18 -24 45 -37q27 -12 49 -18
l14 -4q53 -14 72 -28t14 -40q-7 -29 -37 -37q-31 -8 -65 -3q-30 6 -62 19v0l-11 4q-21 5 -31 -15q-5 -21 15 -30l11 -4q34 -14 71 -21q19 -3 36 -3q49 0 81 22q32 21 39 60q5 33 -6 55q-11 21 -32 35v0zM49 209q4 20 20 29v0q16 9 33 11q2 0 10 -3q8 -2 9 -2q53 -15 72 -29
t14 -40q-4 -20 -20 -29t-33 -11q-6 2 -19 5q-13 4 -14 5q-45 12 -61 27q-16 14 -11 37v0z" />
    <glyph glyph-name="copyright" unicode="&#xf1f9;" 
d="M256 448q-72 -1 -129 -35v0q-58 -34 -92 -92v0q-34 -57 -35 -129q1 -72 35 -129q34 -58 92 -92q57 -34 129 -35q72 1 129 35q58 34 92 92q34 57 35 129q-1 72 -35 129q-34 58 -92 92q-57 34 -129 35v0zM256 -16q-88 2 -147 61v0q-59 59 -61 147q2 88 61 147t147 61
q88 -2 147 -61t61 -147q-2 -88 -61 -147t-147 -61v0zM255 272v0v0v0q33 0 56 -23q17 -14 34 -1q14 17 0 34q-37 37 -90 38v0q-52 -1 -90 -38q-37 -39 -37 -90t37 -90q38 -37 90 -38v0v0q53 1 90 38q14 17 0 34q-17 13 -34 -1q-23 -23 -56 -23v0q-32 0 -56 23q-23 25 -23 57
t23 57q24 23 56 23v0z" />
    <glyph glyph-name="copyright" unicode="&#xa9;" 
d="M256 448q-72 -1 -129 -35v0q-58 -34 -92 -92v0q-34 -57 -35 -129q1 -72 35 -129q34 -58 92 -92q57 -34 129 -35q72 1 129 35q58 34 92 92q34 57 35 129q-1 72 -35 129q-34 58 -92 92q-57 34 -129 35v0zM256 -16q-88 2 -147 61v0q-59 59 -61 147q2 88 61 147t147 61
q88 -2 147 -61t61 -147q-2 -88 -61 -147t-147 -61v0zM255 272v0v0v0q33 0 56 -23q17 -14 34 -1q14 17 0 34q-37 37 -90 38v0q-52 -1 -90 -38q-37 -39 -37 -90t37 -90q38 -37 90 -38v0v0q53 1 90 38q14 17 0 34q-17 13 -34 -1q-23 -23 -56 -23v0q-32 0 -56 23q-23 25 -23 57
t23 57q24 23 56 23v0z" />
    <glyph glyph-name="angles-left" unicode="&#xf100;" horiz-adv-x="448" 
d="M214 60l-122 136l122 136q6 7 6 16q0 10 -7 18q-19 13 -35 -2l-136 -151q-12 -16 0 -32l135 -152q16 -15 34 -2q16 15 3 33v0zM234 213q-12 -16 0 -32l135 -152q16 -15 34 -2q15 16 2 34l-121 135l122 136q6 7 6 16q0 10 -7 18q-18 13 -34 -2l-137 -151v0z" />
    <glyph glyph-name="angles-left" unicode="&#xab;" horiz-adv-x="448" 
d="M214 60l-122 136l122 136q6 7 6 16q0 10 -7 18q-19 13 -35 -2l-136 -151q-12 -16 0 -32l135 -152q16 -15 34 -2q16 15 3 33v0zM234 213q-12 -16 0 -32l135 -152q16 -15 34 -2q15 16 2 34l-121 135l122 136q6 7 6 16q0 10 -7 18q-18 13 -34 -2l-137 -151v0z" />
    <glyph glyph-name="corner" unicode="&#xac;" horiz-adv-x="448" 
d="M424 64q-22 2 -24 24v152h-376q-22 2 -24 24q2 22 24 24h400q22 -2 24 -24v-176q-2 -22 -24 -24v0z" />
    <glyph glyph-name="registered" unicode="&#xf25d;" 
d="M256 448q-72 -1 -129 -35v0q-58 -34 -92 -92v0q-34 -57 -35 -129q1 -72 35 -129q34 -58 92 -92q57 -34 129 -35q72 1 129 35q58 34 92 92q34 57 35 129q-1 72 -35 129q-34 58 -92 92q-57 34 -129 35v0zM256 -16q-88 2 -147 61v0q-59 59 -61 147q2 88 61 147t147 61
q88 -2 147 -61t61 -147q-2 -88 -61 -147t-147 -61v0zM352 240q-1 34 -23 57v0q-23 22 -57 23h-88q-22 -2 -24 -24v-208q2 -22 24 -24q22 2 24 24v72h60l38 -82q7 -14 22 -14q5 0 10 2q19 11 12 32l-35 75q35 23 37 67v0zM272 208h-64v64h64q14 0 23 -9t9 -23t-9 -23t-23 -9
v0z" />
    <glyph glyph-name="registered" unicode="&#xae;" 
d="M256 448q-72 -1 -129 -35v0q-58 -34 -92 -92v0q-34 -57 -35 -129q1 -72 35 -129q34 -58 92 -92q57 -34 129 -35q72 1 129 35q58 34 92 92q34 57 35 129q-1 72 -35 129q-34 58 -92 92q-57 34 -129 35v0zM256 -16q-88 2 -147 61v0q-59 59 -61 147q2 88 61 147t147 61
q88 -2 147 -61t61 -147q-2 -88 -61 -147t-147 -61v0zM352 240q-1 34 -23 57v0q-23 22 -57 23h-88q-22 -2 -24 -24v-208q2 -22 24 -24q22 2 24 24v72h60l38 -82q7 -14 22 -14q5 0 10 2q19 11 12 32l-35 75q35 23 37 67v0zM272 208h-64v64h64q14 0 23 -9t9 -23t-9 -23t-23 -9
v0z" />
    <glyph glyph-name="plus-minus" unicode="&#xb1;" horiz-adv-x="384" 
d="M40 248h128v-128q2 -22 24 -24q22 2 24 24v128h128q22 2 24 24q-2 22 -24 24h-128v128q-2 22 -24 24q-22 -2 -24 -24v-128h-128q-22 -2 -24 -24q2 -22 24 -24v0zM352 -16h-320q-22 -2 -24 -24q2 -22 24 -24h320q22 2 24 24q-2 22 -24 24v0z" />
    <glyph glyph-name="paragraph" unicode="&#xf1dd;" horiz-adv-x="448" 
d="M424 416h-228q-67 -2 -113 -45q-47 -43 -51 -109q0 -70 45 -117t115 -49h48v-104q2 -22 24 -24q22 2 24 24v376h48v-376q2 -22 24 -24q22 2 24 24v376h40q22 2 24 24q-2 22 -24 24v0zM240 144h-48q-48 1 -79 33q-32 31 -33 79q1 48 33 79q31 32 79 33h48v-224v0z" />
    <glyph glyph-name="paragraph" unicode="&#xb6;" horiz-adv-x="448" 
d="M424 416h-228q-67 -2 -113 -45q-47 -43 -51 -109q0 -70 45 -117t115 -49h48v-104q2 -22 24 -24q22 2 24 24v376h48v-376q2 -22 24 -24q22 2 24 24v376h40q22 2 24 24q-2 22 -24 24v0zM240 144h-48q-48 1 -79 33q-32 31 -33 79q1 48 33 79q31 32 79 33h48v-224v0z" />
    <glyph glyph-name="angles-right" unicode="&#xf101;" horiz-adv-x="448" 
d="M238 333l122 -137l-122 -136q-6 -7 -6 -16q0 -10 7 -18q18 -13 34 2l135 152q12 16 0 32l-135 152q-15 15 -34 2q-14 -17 -1 -33v0zM218 180q12 16 0 32l-136 152q-16 15 -34 2q-15 -17 -2 -33l122 -137l-122 -136q-6 -7 -6 -16q0 -10 7 -18q18 -13 34 2l137 152v0z" />
    <glyph glyph-name="angles-right" unicode="&#xbb;" horiz-adv-x="448" 
d="M238 333l122 -137l-122 -136q-6 -7 -6 -16q0 -10 7 -18q18 -13 34 2l135 152q12 16 0 32l-135 152q-15 15 -34 2q-14 -17 -1 -33v0zM218 180q12 16 0 32l-136 152q-16 15 -34 2q-15 -17 -2 -33l122 -137l-122 -136q-6 -7 -6 -16q0 -10 7 -18q18 -13 34 2l137 152v0z" />
    <glyph glyph-name="xmark" unicode="&#x1f5d9;" horiz-adv-x="320" 
d="M312 73q14 -17 0 -34q-17 -14 -34 0l-118 119l-119 -119q-17 -14 -34 0q-14 17 0 34l119 119l-119 120q-14 17 0 34q17 14 34 0l119 -120l119 119q17 14 34 0q14 -17 0 -34l-119 -119l118 -119v0z" />
    <glyph glyph-name="xmark" unicode="&#xf00d;" horiz-adv-x="320" 
d="M312 73q14 -17 0 -34q-17 -14 -34 0l-118 119l-119 -119q-17 -14 -34 0q-14 17 0 34l119 119l-119 120q-14 17 0 34q17 14 34 0l119 -120l119 119q17 14 34 0q14 -17 0 -34l-119 -119l118 -119v0z" />
    <glyph glyph-name="xmark" unicode="&#x274c;" horiz-adv-x="320" 
d="M312 73q14 -17 0 -34q-17 -14 -34 0l-118 119l-119 -119q-17 -14 -34 0q-14 17 0 34l119 119l-119 120q-14 17 0 34q17 14 34 0l119 -120l119 119q17 14 34 0q14 -17 0 -34l-119 -119l118 -119v0z" />
    <glyph glyph-name="xmark" unicode="&#x2716;" horiz-adv-x="320" 
d="M312 73q14 -17 0 -34q-17 -14 -34 0l-118 119l-119 -119q-17 -14 -34 0q-14 17 0 34l119 119l-119 120q-14 17 0 34q17 14 34 0l119 -120l119 119q17 14 34 0q14 -17 0 -34l-119 -119l118 -119v0z" />
    <glyph glyph-name="xmark" unicode="&#x2715;" horiz-adv-x="320" 
d="M312 73q14 -17 0 -34q-17 -14 -34 0l-118 119l-119 -119q-17 -14 -34 0q-14 17 0 34l119 119l-119 120q-14 17 0 34q17 14 34 0l119 -120l119 119q17 14 34 0q14 -17 0 -34l-119 -119l118 -119v0z" />
    <glyph glyph-name="xmark" unicode="&#xd7;" horiz-adv-x="320" 
d="M312 73q14 -17 0 -34q-17 -14 -34 0l-118 119l-119 -119q-17 -14 -34 0q-14 17 0 34l119 119l-119 120q-14 17 0 34q17 14 34 0l119 -120l119 119q17 14 34 0q14 -17 0 -34l-119 -119l118 -119v0z" />
    <glyph glyph-name="empty-set" unicode="&#xf656;" 
d="M504 441q-17 14 -34 0l-74 -75q-58 48 -140 50q-63 -1 -113 -31q-51 -29 -80 -80q-30 -50 -31 -113q2 -81 50 -140l-75 -75q-14 -17 0 -34q7 -7 17 -7t17 7l75 75q58 -48 140 -50q63 1 113 31q51 29 80 80q30 50 31 113q-2 81 -50 140l75 75q14 17 -1 34v0zM80 192
q2 75 52 124v0q49 50 124 52q61 -1 106 -36l-246 -246q-35 45 -36 106v0zM432 192q-2 -75 -52 -124v0q-49 -50 -124 -52q-61 1 -106 36l246 246q35 -45 36 -106v0z" />
    <glyph glyph-name="empty-set" unicode="&#x2205;" 
d="M504 441q-17 14 -34 0l-74 -75q-58 48 -140 50q-63 -1 -113 -31q-51 -29 -80 -80q-30 -50 -31 -113q2 -81 50 -140l-75 -75q-14 -17 0 -34q7 -7 17 -7t17 7l75 75q58 -48 140 -50q63 1 113 31q51 29 80 80q30 50 31 113q-2 81 -50 140l75 75q14 17 -1 34v0zM80 192
q2 75 52 124v0q49 50 124 52q61 -1 106 -36l-246 -246q-35 45 -36 106v0zM432 192q-2 -75 -52 -124v0q-49 -50 -124 -52q-61 1 -106 36l246 246q35 -45 36 -106v0z" />
    <glyph glyph-name="empty-set" unicode="&#xd8;" 
d="M504 441q-17 14 -34 0l-74 -75q-58 48 -140 50q-63 -1 -113 -31q-51 -29 -80 -80q-30 -50 -31 -113q2 -81 50 -140l-75 -75q-14 -17 0 -34q7 -7 17 -7t17 7l75 75q58 -48 140 -50q63 1 113 31q51 29 80 80q30 50 31 113q-2 81 -50 140l75 75q14 17 -1 34v0zM80 192
q2 75 52 124v0q49 50 124 52q61 -1 106 -36l-246 -246q-35 45 -36 106v0zM432 192q-2 -75 -52 -124v0q-49 -50 -124 -52q-61 1 -106 36l246 246q35 -45 36 -106v0z" />
    <glyph glyph-name="divide" unicode="&#xf529;" horiz-adv-x="448" 
d="M424 216h-400q-22 -2 -24 -24q2 -22 24 -24h400q22 2 24 24q-2 22 -24 24v0zM224 304q20 1 34 14v0q13 14 14 34q-1 20 -14 34q-14 13 -34 14q-20 -1 -34 -14q-13 -14 -14 -34q1 -20 14 -34q14 -13 34 -14v0zM224 80q-20 -1 -34 -14v0q-13 -14 -14 -34q1 -20 14 -34
q14 -13 34 -14q20 1 34 14q13 14 14 34q-1 20 -14 34q-14 13 -34 14v0z" />
    <glyph glyph-name="divide" unicode="&#x2797;" horiz-adv-x="448" 
d="M424 216h-400q-22 -2 -24 -24q2 -22 24 -24h400q22 2 24 24q-2 22 -24 24v0zM224 304q20 1 34 14v0q13 14 14 34q-1 20 -14 34q-14 13 -34 14q-20 -1 -34 -14q-13 -14 -14 -34q1 -20 14 -34q14 -13 34 -14v0zM224 80q-20 -1 -34 -14v0q-13 -14 -14 -34q1 -20 14 -34
q14 -13 34 -14q20 1 34 14q13 14 14 34q-1 20 -14 34q-14 13 -34 14v0z" />
    <glyph glyph-name="divide" unicode="&#xf7;" horiz-adv-x="448" 
d="M424 216h-400q-22 -2 -24 -24q2 -22 24 -24h400q22 2 24 24q-2 22 -24 24v0zM224 304q20 1 34 14v0q13 14 14 34q-1 20 -14 34q-14 13 -34 14q-20 -1 -34 -14q-13 -14 -14 -34q1 -20 14 -34q14 -13 34 -14v0zM224 80q-20 -1 -34 -14v0q-13 -14 -14 -34q1 -20 14 -34
q14 -13 34 -14q20 1 34 14q13 14 14 34q-1 20 -14 34q-14 13 -34 14v0z" />
    <glyph glyph-name="minus" unicode="&#xf068;" horiz-adv-x="448" 
d="M432 192q-2 -22 -24 -24h-368q-22 2 -24 24q2 22 24 24h368q22 -2 24 -24v0z" />
    <glyph glyph-name="minus" unicode="&#x2796;" horiz-adv-x="448" 
d="M432 192q-2 -22 -24 -24h-368q-22 2 -24 24q2 22 24 24h368q22 -2 24 -24v0z" />
    <glyph glyph-name="minus" unicode="&#x2212;" horiz-adv-x="448" 
d="M432 192q-2 -22 -24 -24h-368q-22 2 -24 24q2 22 24 24h368q22 -2 24 -24v0z" />
    <glyph glyph-name="minus" unicode="&#x2013;" horiz-adv-x="448" 
d="M432 192q-2 -22 -24 -24h-368q-22 2 -24 24q2 22 24 24h368q22 -2 24 -24v0z" />
    <glyph glyph-name="dash" unicode="&#x2014;" 
d="M512 192q-2 -22 -24 -24h-464q-22 2 -24 24q2 22 24 24h464q22 -2 24 -24v0z" />
    <glyph glyph-name="horizontal-rule" unicode="&#xf86c;" horiz-adv-x="640" 
d="M616 168h-592q-22 2 -24 24q2 22 24 24h592q22 -2 24 -24q-2 -22 -24 -24v0z" />
    <glyph glyph-name="horizontal-rule" unicode="&#x2015;" horiz-adv-x="640" 
d="M616 168h-592q-22 2 -24 24q2 22 24 24h592q22 -2 24 -24q-2 -22 -24 -24v0z" />
    <glyph glyph-name="quote-left" unicode="&#xf10d;" horiz-adv-x="448" 
d="M96 32q41 1 68 28v0q27 27 28 68q-1 41 -28 68t-68 28q-27 -1 -48 -13v21q1 31 21 51t51 21h16q22 2 24 24q-2 22 -24 24h-16q-51 -1 -85 -35t-35 -85v-104q1 -41 28 -68t68 -28v0zM96 176q20 -1 34 -14v0q13 -14 14 -34q-1 -20 -14 -34q-14 -13 -34 -14q-20 1 -34 14
q-13 14 -14 34q1 20 14 34q14 13 34 14v0zM352 32q41 1 68 28v0q27 27 28 68q-1 41 -28 68t-68 28q-27 0 -48 -13v21q1 31 21 51t51 21h16q22 2 24 24q-2 22 -24 24h-16q-51 -1 -85 -35t-35 -85v-104q1 -41 28 -68t68 -28v0zM352 176q20 -1 34 -14v0q13 -14 14 -34
q-1 -20 -14 -34q-14 -13 -34 -14q-20 1 -34 14q-13 14 -14 34q1 20 14 34q14 13 34 14v0z" />
    <glyph glyph-name="quote-left" unicode="&#x201c;" horiz-adv-x="448" 
d="M96 32q41 1 68 28v0q27 27 28 68q-1 41 -28 68t-68 28q-27 -1 -48 -13v21q1 31 21 51t51 21h16q22 2 24 24q-2 22 -24 24h-16q-51 -1 -85 -35t-35 -85v-104q1 -41 28 -68t68 -28v0zM96 176q20 -1 34 -14v0q13 -14 14 -34q-1 -20 -14 -34q-14 -13 -34 -14q-20 1 -34 14
q-13 14 -14 34q1 20 14 34q14 13 34 14v0zM352 32q41 1 68 28v0q27 27 28 68q-1 41 -28 68t-68 28q-27 0 -48 -13v21q1 31 21 51t51 21h16q22 2 24 24q-2 22 -24 24h-16q-51 -1 -85 -35t-35 -85v-104q1 -41 28 -68t68 -28v0zM352 176q20 -1 34 -14v0q13 -14 14 -34
q-1 -20 -14 -34q-14 -13 -34 -14q-20 1 -34 14q-13 14 -14 34q1 20 14 34q14 13 34 14v0z" />
    <glyph glyph-name="quote-right" unicode="&#xf10e;" horiz-adv-x="448" 
d="M352 352q-41 -1 -68 -28v0q-27 -27 -28 -68q1 -41 28 -68t68 -28q27 0 48 13v-21q-1 -31 -21 -51t-51 -21h-16q-22 -2 -24 -24q2 -22 24 -24h16q51 1 85 35t35 85v104q-1 41 -28 68t-68 28v0zM352 208q-20 1 -34 14v0q-13 14 -14 34q1 20 14 34q14 13 34 14q20 -1 34 -14
q13 -14 14 -34q-1 -20 -14 -34q-14 -13 -34 -14v0zM96 352q-41 -1 -68 -28v0q-27 -27 -28 -68q1 -41 28 -68t68 -28q27 0 48 13v-21q-1 -31 -21 -51t-51 -21h-16q-22 -2 -24 -24q2 -22 24 -24h16q51 1 85 35t35 85v104q-1 41 -28 68t-68 28v0zM96 208q-20 1 -34 14v0
q-13 14 -14 34q1 20 14 34q14 13 34 14q20 -1 34 -14q13 -14 14 -34q-1 -20 -14 -34q-14 -13 -34 -14v0z" />
    <glyph glyph-name="quote-right" unicode="&#x201d;" horiz-adv-x="448" 
d="M352 352q-41 -1 -68 -28v0q-27 -27 -28 -68q1 -41 28 -68t68 -28q27 0 48 13v-21q-1 -31 -21 -51t-51 -21h-16q-22 -2 -24 -24q2 -22 24 -24h16q51 1 85 35t35 85v104q-1 41 -28 68t-68 28v0zM352 208q-20 1 -34 14v0q-13 14 -14 34q1 20 14 34q14 13 34 14q20 -1 34 -14
q13 -14 14 -34q-1 -20 -14 -34q-14 -13 -34 -14v0zM96 352q-41 -1 -68 -28v0q-27 -27 -28 -68q1 -41 28 -68t68 -28q27 0 48 13v-21q-1 -31 -21 -51t-51 -21h-16q-22 -2 -24 -24q2 -22 24 -24h16q51 1 85 35t35 85v104q-1 41 -28 68t-68 28v0zM96 208q-20 1 -34 14v0
q-13 14 -14 34q1 20 14 34q14 13 34 14q20 -1 34 -14q13 -14 14 -34q-1 -20 -14 -34q-14 -13 -34 -14v0z" />
    <glyph glyph-name="angle-left" unicode="&#xf104;" horiz-adv-x="256" 
d="M167 23l-144 152q-6 8 -6 17t6 16l144 152q16 15 33 1q15 -16 1 -34l-128 -135l128 -136q14 -17 -1 -33q-17 -14 -33 0v0z" />
    <glyph glyph-name="angle-left" unicode="&#x2039;" horiz-adv-x="256" 
d="M167 23l-144 152q-6 8 -6 17t6 16l144 152q16 15 33 1q15 -16 1 -34l-128 -135l128 -136q14 -17 -1 -33q-17 -14 -33 0v0z" />
    <glyph glyph-name="angle-right" unicode="&#xf105;" horiz-adv-x="256" 
d="M89 360l144 -152q6 -7 6 -16t-6 -17l-144 -152q-16 -14 -33 0q-15 16 -1 34l128 135l-128 136q-14 17 1 33q17 14 33 -1v0z" />
    <glyph glyph-name="angle-right" unicode="&#x203a;" horiz-adv-x="256" 
d="M89 360l144 -152q6 -7 6 -16t-6 -17l-144 -152q-16 -14 -33 0q-15 16 -1 34l128 135l-128 136q-14 17 1 33q17 14 33 -1v0z" />
    <glyph glyph-name="lira-sign" unicode="&#xf195;" horiz-adv-x="320" 
d="M320 -8q-2 -22 -24 -24h-272q-15 1 -21 13q-6 13 2 25q32 44 40 98h-21q-22 2 -24 24q2 22 24 24h24v48h-24q-22 2 -24 24q2 22 24 24h24v41q1 54 37 90t90 37q21 0 41 -7l80 -26q20 -9 15 -31q-9 -20 -31 -15l-80 27q-12 4 -25 4q-33 -1 -56 -23q-22 -23 -23 -56v-41
h136q22 -2 24 -24q-2 -22 -24 -24h-136v-48h136q22 -2 24 -24q-2 -22 -24 -24h-138q-6 -46 -27 -88h229q22 -2 24 -24v0z" />
    <glyph glyph-name="lira-sign" unicode="&#x20a4;" horiz-adv-x="320" 
d="M320 -8q-2 -22 -24 -24h-272q-15 1 -21 13q-6 13 2 25q32 44 40 98h-21q-22 2 -24 24q2 22 24 24h24v48h-24q-22 2 -24 24q2 22 24 24h24v41q1 54 37 90t90 37q21 0 41 -7l80 -26q20 -9 15 -31q-9 -20 -31 -15l-80 27q-12 4 -25 4q-33 -1 -56 -23q-22 -23 -23 -56v-41
h136q22 -2 24 -24q-2 -22 -24 -24h-136v-48h136q22 -2 24 -24q-2 -22 -24 -24h-138q-6 -46 -27 -88h229q22 -2 24 -24v0z" />
    <glyph glyph-name="rupee-sign" unicode="&#xf156;" 
d="M400 135l-8 3q-26 9 -34 18t-5 26q1 13 10 19q15 10 41 5q10 -2 26 -9q21 -7 32 13q7 21 -13 31q-21 10 -36 13q-46 8 -77 -14q-26 -18 -31 -52q-4 -48 22 -69q26 -20 48 -26v0l9 -4q30 -10 40 -19q11 -9 7 -28q-1 -13 -11 -19q-14 -10 -40 -5q-17 4 -36 13v0l-6 3
q-21 7 -32 -12q-7 -21 12 -32l7 -3q22 -11 46 -17q13 -2 25 -2q30 0 52 15q26 19 31 53q4 49 -23 70t-56 29v0zM287 280q-1 58 -40 96v0q-38 39 -95 40h-97q-21 -2 -23 -24v-400q2 -22 23 -24q22 2 23 24v152h72q4 0 7 1h4l46 -160q8 -16 24 -17q3 0 7 1q20 8 16 30l-44 158
q35 17 56 49q21 33 21 74v0zM151 192h-71v176h72q37 -1 62 -26t26 -62q-1 -37 -26 -62t-63 -26v0z" />
    <glyph glyph-name="rupee-sign" unicode="&#x20a8;" 
d="M400 135l-8 3q-26 9 -34 18t-5 26q1 13 10 19q15 10 41 5q10 -2 26 -9q21 -7 32 13q7 21 -13 31q-21 10 -36 13q-46 8 -77 -14q-26 -18 -31 -52q-4 -48 22 -69q26 -20 48 -26v0l9 -4q30 -10 40 -19q11 -9 7 -28q-1 -13 -11 -19q-14 -10 -40 -5q-17 4 -36 13v0l-6 3
q-21 7 -32 -12q-7 -21 12 -32l7 -3q22 -11 46 -17q13 -2 25 -2q30 0 52 15q26 19 31 53q4 49 -23 70t-56 29v0zM287 280q-1 58 -40 96v0q-38 39 -95 40h-97q-21 -2 -23 -24v-400q2 -22 23 -24q22 2 23 24v152h72q4 0 7 1h4l46 -160q8 -16 24 -17q3 0 7 1q20 8 16 30l-44 158
q35 17 56 49q21 33 21 74v0zM151 192h-71v176h72q37 -1 62 -26t26 -62q-1 -37 -26 -62t-63 -26v0z" />
    <glyph glyph-name="won-sign" unicode="&#xf159;" 
d="M488 192h-55l54 194q4 21 -17 29q-21 4 -29 -17l-58 -206h-54l-50 206q-5 17 -23 18q-18 -1 -23 -18l-50 -206h-54l-58 206q-8 21 -29 17q-21 -8 -17 -29l54 -194h-55q-22 -2 -24 -23q2 -21 24 -23h68l44 -159q6 -16 24 -17q18 1 23 18l38 158h70l38 -158q5 -17 23 -18h1
q17 1 23 17l44 159h68q22 2 24 23q-2 21 -24 23v0zM158 87l-17 57h30l-13 -57v0zM232 192l24 98l24 -98h-48v0zM354 87l-13 57h29l-16 -57v0z" />
    <glyph glyph-name="won-sign" unicode="&#x20a9;" 
d="M488 192h-55l54 194q4 21 -17 29q-21 4 -29 -17l-58 -206h-54l-50 206q-5 17 -23 18q-18 -1 -23 -18l-50 -206h-54l-58 206q-8 21 -29 17q-21 -8 -17 -29l54 -194h-55q-22 -2 -24 -23q2 -21 24 -23h68l44 -159q6 -16 24 -17q18 1 23 18l38 158h70l38 -158q5 -17 23 -18h1
q17 1 23 17l44 159h68q22 2 24 23q-2 21 -24 23v0zM158 87l-17 57h30l-13 -57v0zM232 192l24 98l24 -98h-48v0zM354 87l-13 57h29l-16 -57v0z" />
    <glyph glyph-name="shekel-sign" unicode="&#xf20b;" horiz-adv-x="448" 
d="M256 296v-176q2 -22 24 -24q22 2 24 24v176q-1 51 -35 85t-85 35h-144q-22 -2 -24 -24v-400q2 -22 24 -24q22 2 24 24v376h120q31 -1 51 -21t21 -51v0zM408 416q-22 -2 -24 -24v-304q-1 -31 -21 -51t-51 -21h-120v248q-2 22 -24 24q-22 -2 -24 -24v-272q2 -22 24 -24h144
q51 1 85 35t35 85v304q-2 22 -24 24v0z" />
    <glyph glyph-name="shekel-sign" unicode="&#x20aa;" horiz-adv-x="448" 
d="M256 296v-176q2 -22 24 -24q22 2 24 24v176q-1 51 -35 85t-85 35h-144q-22 -2 -24 -24v-400q2 -22 24 -24q22 2 24 24v376h120q31 -1 51 -21t21 -51v0zM408 416q-22 -2 -24 -24v-304q-1 -31 -21 -51t-51 -21h-120v248q-2 22 -24 24q-22 -2 -24 -24v-272q2 -22 24 -24h144
q51 1 85 35t35 85v304q-2 22 -24 24v0z" />
    <glyph glyph-name="euro-sign" unicode="&#xf153;" horiz-adv-x="384" 
d="M336 1q2 -22 -19 -28q-23 -5 -46 -5q-44 0 -85 17q-40 17 -72 49q-38 38 -54 86h-20q-22 2 -24 24q2 22 24 24h9q-2 24 0 47h-9q-22 2 -24 24q2 22 24 24h20q16 48 53 86q41 41 94 57q54 16 110 4q21 -6 19 -28q-7 -21 -29 -19q-44 9 -86 -3q-42 -13 -74 -44
q-23 -23 -35 -51h152q22 -2 24 -24q-2 -22 -24 -24h-166q-3 -24 0 -47h166q22 -2 24 -24q-2 -22 -24 -24h-152q12 -29 35 -53q32 -31 74 -44q42 -12 86 -4q22 1 29 -20v0z" />
    <glyph glyph-name="euro-sign" unicode="&#x20ac;" horiz-adv-x="384" 
d="M336 1q2 -22 -19 -28q-23 -5 -46 -5q-44 0 -85 17q-40 17 -72 49q-38 38 -54 86h-20q-22 2 -24 24q2 22 24 24h9q-2 24 0 47h-9q-22 2 -24 24q2 22 24 24h20q16 48 53 86q41 41 94 57q54 16 110 4q21 -6 19 -28q-7 -21 -29 -19q-44 9 -86 -3q-42 -13 -74 -44
q-23 -23 -35 -51h152q22 -2 24 -24q-2 -22 -24 -24h-166q-3 -24 0 -47h166q22 -2 24 -24q-2 -22 -24 -24h-152q12 -29 35 -53q32 -31 74 -44q42 -12 86 -4q22 1 29 -20v0z" />
    <glyph glyph-name="hryvnia-sign" unicode="&#xf6f2;" horiz-adv-x="384" 
d="M384 144q-2 -22 -24 -24h-242q-21 -18 -22 -44q1 -26 19 -42q18 -17 46 -18h43q43 1 73 28q17 14 34 -1q14 -17 -1 -34q-44 -40 -106 -41h-43q-48 1 -80 32q-32 30 -33 76q0 23 10 44h-34q-22 2 -24 24q2 22 24 24h79l83 48h-162q-22 2 -24 24q2 22 24 24h242
q21 18 22 44q-1 26 -19 42q-18 17 -46 18h-43q-43 -1 -73 -28q-17 -14 -34 1q-14 17 1 34q44 40 106 41h43q48 -1 80 -32q32 -30 33 -76q0 -23 -10 -44h34q22 -2 24 -24q-2 -22 -24 -24h-79l-83 -48h162q22 -2 24 -24v0z" />
    <glyph glyph-name="hryvnia-sign" unicode="&#x20b4;" horiz-adv-x="384" 
d="M384 144q-2 -22 -24 -24h-242q-21 -18 -22 -44q1 -26 19 -42q18 -17 46 -18h43q43 1 73 28q17 14 34 -1q14 -17 -1 -34q-44 -40 -106 -41h-43q-48 1 -80 32q-32 30 -33 76q0 23 10 44h-34q-22 2 -24 24q2 22 24 24h79l83 48h-162q-22 2 -24 24q2 22 24 24h242
q21 18 22 44q-1 26 -19 42q-18 17 -46 18h-43q-43 -1 -73 -28q-17 -14 -34 1q-14 17 1 34q44 40 106 41h43q48 -1 80 -32q32 -30 33 -76q0 -23 -10 -44h34q22 -2 24 -24q-2 -22 -24 -24h-79l-83 -48h162q22 -2 24 -24v0z" />
    <glyph glyph-name="tenge-sign" unicode="&#xf7d7;" horiz-adv-x="384" 
d="M24 368h336q22 2 24 24q-2 22 -24 24h-336q-22 -2 -24 -24q2 -22 24 -24v0zM360 288h-336q-22 -2 -24 -24q2 -22 24 -24h144v-248q2 -22 24 -24q22 2 24 24v248h144q22 2 24 24q-2 22 -24 24v0z" />
    <glyph glyph-name="tenge-sign" unicode="&#x20b8;" horiz-adv-x="384" 
d="M24 368h336q22 2 24 24q-2 22 -24 24h-336q-22 -2 -24 -24q2 -22 24 -24v0zM360 288h-336q-22 -2 -24 -24q2 -22 24 -24h144v-248q2 -22 24 -24q22 2 24 24v248h144q22 2 24 24q-2 22 -24 24v0z" />
    <glyph glyph-name="ruble-sign" unicode="&#xf158;" horiz-adv-x="384" 
d="M240 128q65 2 106 47v0q42 45 37 111q-7 58 -49 93q-42 36 -100 37l-130 1q-17 -1 -28 -12q-12 -12 -12 -28v-201h-40q-22 -2 -24 -24q2 -22 24 -24h40v-48h-40q-22 -2 -24 -24q2 -22 24 -24h40v-40q2 -22 24 -24q22 2 24 24v40h184q22 2 24 24q-2 22 -24 24h-184v48h128
v0zM112 176v192h124q36 -1 63 -21q28 -21 35 -56q8 -47 -20 -80q-28 -34 -74 -35h-128v0z" />
    <glyph glyph-name="ruble-sign" unicode="&#x20bd;" horiz-adv-x="384" 
d="M240 128q65 2 106 47v0q42 45 37 111q-7 58 -49 93q-42 36 -100 37l-130 1q-17 -1 -28 -12q-12 -12 -12 -28v-201h-40q-22 -2 -24 -24q2 -22 24 -24h40v-48h-40q-22 -2 -24 -24q2 -22 24 -24h40v-40q2 -22 24 -24q22 2 24 24v40h184q22 2 24 24q-2 22 -24 24h-184v48h128
v0zM112 176v192h124q36 -1 63 -21q28 -21 35 -56q8 -47 -20 -80q-28 -34 -74 -35h-128v0z" />
    <glyph glyph-name="trademark" unicode="&#xf25c;" horiz-adv-x="640" 
d="M232 352h-208q-22 -2 -24 -24q2 -22 24 -24h81q0 -1 -1 -1v-2v-245q2 -22 24 -24q22 2 24 24v245v2q-1 0 -1 1h81q22 2 24 24q-2 22 -24 24v0zM624 351q-16 4 -27 -9l-133 -178l-133 178q-10 13 -27 9q-15 -6 -16 -23v-272q2 -22 24 -24q22 2 24 24v200l109 -146
q7 -9 19 -9t19 9l109 146v-200q2 -22 24 -24q22 2 24 24v272q-1 17 -16 23v0z" />
    <glyph glyph-name="trademark" unicode="&#x2122;" horiz-adv-x="640" 
d="M232 352h-208q-22 -2 -24 -24q2 -22 24 -24h81q0 -1 -1 -1v-2v-245q2 -22 24 -24q22 2 24 24v245v2q-1 0 -1 1h81q22 2 24 24q-2 22 -24 24v0zM624 351q-16 4 -27 -9l-133 -178l-133 178q-10 13 -27 9q-15 -6 -16 -23v-272q2 -22 24 -24q22 2 24 24v200l109 -146
q7 -9 19 -9t19 9l109 146v-200q2 -22 24 -24q22 2 24 24v272q-1 17 -16 23v0z" />
    <glyph glyph-name="square-info" unicode="&#xf30f;" horiz-adv-x="448" 
d="M384 416h-320q-27 -1 -45 -19t-19 -45v-320q1 -27 19 -45t45 -19h320q27 1 45 19t19 45v320q-1 27 -19 45t-45 19v0zM400 32q-1 -15 -16 -16h-320q-15 1 -16 16v320q1 15 16 16h320q15 -1 16 -16v-320v0zM264 112h-16v88q-2 22 -24 24h-32q-22 -2 -24 -24q2 -22 24 -24h8
v-64h-16q-22 -2 -24 -24q2 -22 24 -24h80q22 2 24 24q-2 22 -24 24v0zM224 256q14 0 23 9v0q9 9 9 23t-9 23t-23 9t-23 -9t-9 -23t9 -23t23 -9v0z" />
    <glyph glyph-name="square-info" unicode="&#x2139;" horiz-adv-x="448" 
d="M384 416h-320q-27 -1 -45 -19t-19 -45v-320q1 -27 19 -45t45 -19h320q27 1 45 19t19 45v320q-1 27 -19 45t-45 19v0zM400 32q-1 -15 -16 -16h-320q-15 1 -16 16v320q1 15 16 16h320q15 -1 16 -16v-320v0zM264 112h-16v88q-2 22 -24 24h-32q-22 -2 -24 -24q2 -22 24 -24h8
v-64h-16q-22 -2 -24 -24q2 -22 24 -24h80q22 2 24 24q-2 22 -24 24v0zM224 256q14 0 23 9v0q9 9 9 23t-9 23t-23 9t-23 -9t-9 -23t9 -23t23 -9v0z" />
    <glyph glyph-name="arrow-left" unicode="&#xf060;" horiz-adv-x="448" 
d="M447 192q-2 -22 -24 -24h-339l133 -127q14 -16 0 -34q-16 -14 -34 0l-176 168q-7 7 -7 17t7 17l176 168q18 14 34 0q14 -18 0 -34l-133 -127h340q21 -2 23 -24v0z" />
    <glyph glyph-name="arrow-left" unicode="&#x2190;" horiz-adv-x="448" 
d="M447 192q-2 -22 -24 -24h-339l133 -127q14 -16 0 -34q-16 -14 -34 0l-176 168q-7 7 -7 17t7 17l176 168q18 14 34 0q14 -18 0 -34l-133 -127h340q21 -2 23 -24v0z" />
    <glyph glyph-name="arrow-up" unicode="&#xf062;" horiz-adv-x="384" 
d="M7 232l168 176q7 8 17 8t17 -7l168 -176q14 -18 0 -34q-18 -14 -34 0l-127 133v-340q-2 -21 -23 -23q-10 0 -17 6q-8 7 -8 17v340l-127 -133q-16 -14 -34 0q-14 16 0 33v0z" />
    <glyph glyph-name="arrow-up" unicode="&#x2191;" horiz-adv-x="384" 
d="M7 232l168 176q7 8 17 8t17 -7l168 -176q14 -18 0 -34q-18 -14 -34 0l-127 133v-340q-2 -21 -23 -23q-10 0 -17 6q-8 7 -8 17v340l-127 -133q-16 -14 -34 0q-14 16 0 33v0z" />
    <glyph glyph-name="arrow-right" unicode="&#xf061;" horiz-adv-x="448" 
d="M265 377l176 -168q7 -7 7 -17t-7 -17l-176 -168q-18 -14 -34 0q-14 18 0 34l133 127h-340q-22 2 -24 24q2 22 24 24h340l-133 127q-14 16 0 34q16 14 34 0v0z" />
    <glyph glyph-name="arrow-right" unicode="&#x2192;" horiz-adv-x="448" 
d="M265 377l176 -168q7 -7 7 -17t-7 -17l-176 -168q-18 -14 -34 0q-14 18 0 34l133 127h-340q-22 2 -24 24q2 22 24 24h340l-133 127q-14 16 0 34q16 14 34 0v0z" />
    <glyph glyph-name="arrow-down" unicode="&#xf063;" horiz-adv-x="384" 
d="M377 151l-168 -176q-7 -7 -17 -7t-17 7l-168 176q-14 18 0 34q18 14 34 0l127 -133v340q2 22 23 24q10 0 17 -7q8 -7 8 -17v-340l127 133q16 14 34 0q14 -16 0 -34v0z" />
    <glyph glyph-name="arrow-down" unicode="&#x2193;" horiz-adv-x="384" 
d="M377 151l-168 -176q-7 -7 -17 -7t-17 7l-168 176q-14 18 0 34q18 14 34 0l127 -133v340q2 22 23 24q10 0 17 -7q8 -7 8 -17v-340l127 133q16 14 34 0q14 -16 0 -34v0z" />
    <glyph glyph-name="left-right" unicode="&#xf337;" 
d="M504 210l-112 104q-7 6 -17 6q-5 0 -9 -2q-14 -7 -15 -22v-80h-192v80q-1 15 -14 22q-4 2 -9 2q-9 0 -16 -6l-112 -104q-8 -8 -8 -18t8 -18l112 -104q7 -6 16 -6q5 0 10 2q13 7 14 22v80h192v-80q1 -15 14 -22q5 -2 9 -2q9 0 16 6l112 104q8 8 9 18q0 10 -8 18v0z" />
    <glyph glyph-name="left-right" unicode="&#x2194;" 
d="M504 210l-112 104q-7 6 -17 6q-5 0 -9 -2q-14 -7 -15 -22v-80h-192v80q-1 15 -14 22q-4 2 -9 2q-9 0 -16 -6l-112 -104q-8 -8 -8 -18t8 -18l112 -104q7 -6 16 -6q5 0 10 2q13 7 14 22v80h192v-80q1 -15 14 -22q5 -2 9 -2q9 0 16 6l112 104q8 8 9 18q0 10 -8 18v0z" />
    <glyph glyph-name="up-down" unicode="&#xf338;" horiz-adv-x="256" 
d="M254 82q-7 13 -22 14h-80v192h80q16 1 21 14q6 15 -4 26l-104 112q-7 8 -17 8t-18 -8l-104 -112q-10 -11 -4 -26q7 -13 22 -14h80v-192h-80q-15 -1 -22 -14q-6 -15 4 -26l104 -112q7 -8 17 -8t18 8l104 112q11 11 5 26v0z" />
    <glyph glyph-name="up-down" unicode="&#x2b0d;" horiz-adv-x="256" 
d="M254 82q-7 13 -22 14h-80v192h80q16 1 21 14q6 15 -4 26l-104 112q-7 8 -17 8t-18 -8l-104 -112q-10 -11 -4 -26q7 -13 22 -14h80v-192h-80q-15 -1 -22 -14q-6 -15 4 -26l104 -112q7 -8 17 -8t18 8l104 112q11 11 5 26v0z" />
    <glyph glyph-name="up-down" unicode="&#x2195;" horiz-adv-x="256" 
d="M254 82q-7 13 -22 14h-80v192h80q16 1 21 14q6 15 -4 26l-104 112q-7 8 -17 8t-18 -8l-104 -112q-10 -11 -4 -26q7 -13 22 -14h80v-192h-80q-15 -1 -22 -14q-6 -15 4 -26l104 -112q7 -8 17 -8t18 8l104 112q11 11 5 26v0z" />
    <glyph glyph-name="square-up-right" unicode="&#xf360;" horiz-adv-x="448" 
d="M128 141q-14 -17 0 -34l11 -11q17 -14 34 0l65 64l41 -41q7 -7 17 -7q5 0 9 2q14 6 15 22v128q-2 22 -24 24h-128q-16 -1 -22 -15q-5 -15 5 -25l41 -41l-64 -66v0zM0 352v-320q1 -27 19 -45t45 -19h320q27 1 45 19t19 45v320q-1 27 -19 45t-45 19h-320q-27 -1 -45 -19
t-19 -45v0zM48 352q1 15 16 16h320q15 -1 16 -16v-320q-1 -15 -16 -16h-320q-15 1 -16 16v320v0z" />
    <glyph glyph-name="square-up-right" unicode="&#x2197;" horiz-adv-x="448" 
d="M128 141q-14 -17 0 -34l11 -11q17 -14 34 0l65 64l41 -41q7 -7 17 -7q5 0 9 2q14 6 15 22v128q-2 22 -24 24h-128q-16 -1 -22 -15q-5 -15 5 -25l41 -41l-64 -66v0zM0 352v-320q1 -27 19 -45t45 -19h320q27 1 45 19t19 45v320q-1 27 -19 45t-45 19h-320q-27 -1 -45 -19
t-19 -45v0zM48 352q1 15 16 16h320q15 -1 16 -16v-320q-1 -15 -16 -16h-320q-15 1 -16 16v320v0z" />
    <glyph glyph-name="arrow-left-from-line" unicode="&#xf344;" horiz-adv-x="448" 
d="M399 360v-336q2 -22 24 -24q23 2 25 24v336q-2 22 -25 24q-22 -2 -24 -24v0zM176 81l-92 87h244q22 2 24 24q-2 22 -24 24h-244l92 87q8 7 8 17q0 9 -7 16q-16 15 -34 1l-136 -128q-7 -7 -7 -17t7 -17l136 -128q18 -14 34 1q13 17 -1 33v0z" />
    <glyph glyph-name="arrow-left-from-line" unicode="&#x21a4;" horiz-adv-x="448" 
d="M399 360v-336q2 -22 24 -24q23 2 25 24v336q-2 22 -25 24q-22 -2 -24 -24v0zM176 81l-92 87h244q22 2 24 24q-2 22 -24 24h-244l92 87q8 7 8 17q0 9 -7 16q-16 15 -34 1l-136 -128q-7 -7 -7 -17t7 -17l136 -128q18 -14 34 1q13 17 -1 33v0z" />
    <glyph glyph-name="arrow-up-from-line" unicode="&#xf342;" horiz-adv-x="384" 
d="M360 17h-336q-22 -2 -24 -24q2 -23 24 -25h336q22 2 24 24q-2 22 -24 25v0zM81 240l87 92v-244q2 -22 24 -24q22 2 24 24v244l87 -92q7 -8 17 -8q9 0 16 7q15 16 1 34l-128 136q-7 7 -17 7t-17 -7l-128 -136q-14 -18 1 -34q17 -13 33 1v0z" />
    <glyph glyph-name="arrow-up-from-line" unicode="&#x21a5;" horiz-adv-x="384" 
d="M360 17h-336q-22 -2 -24 -24q2 -23 24 -25h336q22 2 24 24q-2 22 -24 25v0zM81 240l87 92v-244q2 -22 24 -24q22 2 24 24v244l87 -92q7 -8 17 -8q9 0 16 7q15 16 1 34l-128 136q-7 7 -17 7t-17 -7l-128 -136q-14 -18 1 -34q17 -13 33 1v0z" />
    <glyph glyph-name="arrow-right-from-line" unicode="&#xf343;" horiz-adv-x="448" 
d="M48 24v336q-2 22 -24 24q-22 -2 -24 -24v-336q2 -22 24 -24q22 2 24 24v0zM272 302l92 -86h-244q-22 -2 -24 -24q2 -22 24 -24h244l-92 -87q-8 -7 -8 -17q0 -9 7 -16q16 -15 34 -1l136 128q7 7 7 17t-7 17l-136 128q-18 14 -34 -1q-14 -17 1 -34v0z" />
    <glyph glyph-name="arrow-right-from-line" unicode="&#x21a6;" horiz-adv-x="448" 
d="M48 24v336q-2 22 -24 24q-22 -2 -24 -24v-336q2 -22 24 -24q22 2 24 24v0zM272 302l92 -86h-244q-22 -2 -24 -24q2 -22 24 -24h244l-92 -87q-8 -7 -8 -17q0 -9 7 -16q16 -15 34 -1l136 128q7 7 7 17t-7 17l-136 128q-18 14 -34 -1q-14 -17 1 -34v0z" />
    <glyph glyph-name="arrow-down-from-line" unicode="&#xf345;" horiz-adv-x="384" 
d="M24 368h336q22 2 24 24q-2 22 -24 24h-336q-22 -2 -24 -24q2 -22 24 -24v0zM303 144l-87 -92v244q-2 22 -24 24q-22 -2 -24 -24v-244l-87 92q-7 8 -17 8q-9 0 -16 -7q-15 -16 -1 -34l127 -136q7 -7 17 -7t18 7l128 136q13 18 -1 34q-17 14 -33 -1v0z" />
    <glyph glyph-name="arrow-down-from-line" unicode="&#x21a7;" horiz-adv-x="384" 
d="M24 368h336q22 2 24 24q-2 22 -24 24h-336q-22 -2 -24 -24q2 -22 24 -24v0zM303 144l-87 -92v244q-2 22 -24 24q-22 -2 -24 -24v-244l-87 92q-7 8 -17 8q-9 0 -16 -7q-15 -16 -1 -34l127 -136q7 -7 17 -7t18 7l128 136q13 18 -1 34q-17 14 -33 -1v0z" />
    <glyph glyph-name="arrow-rotate-left" unicode="&#xf0e2;" 
d="M40 432q22 -2 24 -24v-102q31 50 81 80q50 29 111 30q63 -1 113 -31q51 -30 80 -80q30 -51 31 -113q-1 -62 -31 -113q-29 -50 -80 -80q-50 -30 -113 -31q-81 1 -143 52q-16 16 -3 34q15 15 33 3q50 -40 113 -41q75 2 124 52q50 49 52 124q-2 75 -52 124q-49 50 -124 52
q-51 -1 -92 -26q-41 -26 -64 -70h100q22 -2 24 -24q-2 -22 -24 -24h-160q-22 2 -24 24v160q2 22 24 24v0z" />
    <glyph glyph-name="arrow-rotate-left" unicode="&#x21ba;" 
d="M40 432q22 -2 24 -24v-102q31 50 81 80q50 29 111 30q63 -1 113 -31q51 -30 80 -80q30 -51 31 -113q-1 -62 -31 -113q-29 -50 -80 -80q-50 -30 -113 -31q-81 1 -143 52q-16 16 -3 34q15 15 33 3q50 -40 113 -41q75 2 124 52q50 49 52 124q-2 75 -52 124q-49 50 -124 52
q-51 -1 -92 -26q-41 -26 -64 -70h100q22 -2 24 -24q-2 -22 -24 -24h-160q-22 2 -24 24v160q2 22 24 24v0z" />
    <glyph glyph-name="arrow-rotate-right" unicode="&#xf01e;" 
d="M496 408v-160q-2 -22 -24 -24h-160q-22 2 -24 24q2 22 24 24h101q-24 44 -65 70q-41 25 -92 26q-75 -2 -125 -51q-49 -50 -51 -125q2 -75 52 -125q49 -49 124 -51q63 1 113 41q18 12 33 -3q13 -18 -3 -34q-62 -51 -143 -52q-63 1 -113 31q-51 30 -80 80q-30 51 -31 113
q1 62 31 113q29 50 80 80q50 30 113 31q61 -1 111 -30t81 -79v101q2 22 24 24q22 -2 24 -24v0z" />
    <glyph glyph-name="arrow-rotate-right" unicode="&#x21bb;" 
d="M496 408v-160q-2 -22 -24 -24h-160q-22 2 -24 24q2 22 24 24h101q-24 44 -65 70q-41 25 -92 26q-75 -2 -125 -51q-49 -50 -51 -125q2 -75 52 -125q49 -49 124 -51q63 1 113 41q18 12 33 -3q13 -18 -3 -34q-62 -51 -143 -52q-63 1 -113 31q-51 30 -80 80q-30 51 -31 113
q1 62 31 113q29 50 80 80q50 30 113 31q61 -1 111 -30t81 -79v101q2 22 24 24q22 -2 24 -24v0z" />
    <glyph glyph-name="arrow-right-arrow-left" unicode="&#xf0ec;" 
d="M488 104h-409l75 80q13 17 -2 33q-17 14 -33 -1l-112 -120q-13 -16 0 -32l112 -120q7 -8 17 -8q9 0 16 6q15 17 2 34l-75 80h409q22 2 24 24q-2 22 -24 24v0zM24 280h409l-74 -80q-14 -17 1 -34q17 -13 34 2l112 120q13 16 0 32l-112 120q-8 8 -18 8q-9 0 -16 -6
q-15 -17 -2 -34l75 -80h-409q-22 -2 -24 -24q2 -22 24 -24v0z" />
    <glyph glyph-name="arrow-right-arrow-left" unicode="&#x21c4;" 
d="M488 104h-409l75 80q13 17 -2 33q-17 14 -33 -1l-112 -120q-13 -16 0 -32l112 -120q7 -8 17 -8q9 0 16 6q15 17 2 34l-75 80h409q22 2 24 24q-2 22 -24 24v0zM24 280h409l-74 -80q-14 -17 1 -34q17 -13 34 2l112 120q13 16 0 32l-112 120q-8 8 -18 8q-9 0 -16 -6
q-15 -17 -2 -34l75 -80h-409q-22 -2 -24 -24q2 -22 24 -24v0z" />
    <glyph glyph-name="arrow-left-to-line" unicode="&#xf33e;" horiz-adv-x="448" 
d="M48 24v336q-2 22 -24 24q-22 -2 -24 -24v-336q2 -22 24 -24q22 2 24 24v0zM272 81l-92 87h244q22 2 24 24q-2 22 -24 23h-244l92 87q8 7 8 17q0 9 -7 17q-16 14 -34 1l-136 -128q-7 -8 -7 -18t7 -17l136 -128q18 -14 34 1q14 18 -1 34v0z" />
    <glyph glyph-name="arrow-left-to-line" unicode="&#x21e4;" horiz-adv-x="448" 
d="M48 24v336q-2 22 -24 24q-22 -2 -24 -24v-336q2 -22 24 -24q22 2 24 24v0zM272 81l-92 87h244q22 2 24 24q-2 22 -24 23h-244l92 87q8 7 8 17q0 9 -7 17q-16 14 -34 1l-136 -128q-7 -8 -7 -18t7 -17l136 -128q18 -14 34 1q14 18 -1 34v0z" />
    <glyph glyph-name="arrow-right-to-line" unicode="&#xf340;" horiz-adv-x="448" 
d="M399 360v-336q2 -22 24 -24q23 2 25 24v336q-2 22 -25 24q-10 0 -17 -7t-7 -17v0zM176 302l92 -86h-244q-22 -2 -24 -24q2 -22 24 -24h244l-92 -87q-8 -7 -8 -17q0 -9 7 -16q16 -15 34 -1l136 128q7 7 7 17t-7 17l-136 128q-18 14 -34 -1q-15 -17 1 -34v0z" />
    <glyph glyph-name="arrow-right-to-line" unicode="&#x21e5;" horiz-adv-x="448" 
d="M399 360v-336q2 -22 24 -24q23 2 25 24v336q-2 22 -25 24q-10 0 -17 -7t-7 -17v0zM176 302l92 -86h-244q-22 -2 -24 -24q2 -22 24 -24h244l-92 -87q-8 -7 -8 -17q0 -9 7 -16q16 -15 34 -1l136 128q7 7 7 17t-7 17l-136 128q-18 14 -34 -1q-15 -17 1 -34v0z" />
    <glyph glyph-name="sigma" unicode="&#xf68b;" horiz-adv-x="384" 
d="M335 312v56h-251l165 -159q6 -7 6 -17t-7 -17l-164 -159h252v56q2 22 24 24q22 -2 24 -24v-80q-2 -22 -24 -24h-336q-16 1 -22 15q-5 15 5 26l190 183l-190 183q-10 11 -5 26q6 14 22 15h336q22 -2 24 -24v-80q-2 -22 -25 -24q-10 0 -17 7t-7 17v0z" />
    <glyph glyph-name="sigma" unicode="&#x2211;" horiz-adv-x="384" 
d="M335 312v56h-251l165 -159q6 -7 6 -17t-7 -17l-164 -159h252v56q2 22 24 24q22 -2 24 -24v-80q-2 -22 -24 -24h-336q-16 1 -22 15q-5 15 5 26l190 183l-190 183q-10 11 -5 26q6 14 22 15h336q22 -2 24 -24v-80q-2 -22 -25 -24q-10 0 -17 7t-7 17v0z" />
    <glyph glyph-name="square-root" unicode="&#xf697;" horiz-adv-x="576" 
d="M576 424q-2 -22 -24 -24h-213l-108 -446q-4 -15 -21 -18h-2q-15 1 -22 14l-105 226h-57q-22 2 -24 24q2 22 24 24h72q15 -1 22 -14l83 -178l96 398q5 17 23 18h232q22 -2 24 -24v0z" />
    <glyph glyph-name="square-root" unicode="&#x221a;" horiz-adv-x="576" 
d="M576 424q-2 -22 -24 -24h-213l-108 -446q-4 -15 -21 -18h-2q-15 1 -22 14l-105 226h-57q-22 2 -24 24q2 22 24 24h72q15 -1 22 -14l83 -178l96 398q5 17 23 18h232q22 -2 24 -24v0z" />
    <glyph glyph-name="infinity" unicode="&#xf534;" horiz-adv-x="640" 
d="M484 352q-58 -3 -100 -40v0q-42 -36 -64 -73q-22 37 -64 73q-42 37 -100 40q-66 -2 -110 -47t-46 -113q2 -68 46 -113t110 -47q58 3 100 40q42 36 64 72q22 -36 64 -72q42 -37 100 -40q66 2 110 47t46 113q-2 68 -46 113t-110 47v0zM156 80q-46 1 -76 33v0q-31 31 -32 79
q1 48 32 79q30 32 76 33q34 -1 62 -22q27 -22 47 -48q19 -26 28 -42q-9 -16 -28 -42q-20 -26 -47 -48q-28 -21 -62 -22v0zM484 80q-34 1 -62 22v0q-27 22 -47 48v0q-19 26 -28 42q9 16 28 42q20 26 47 48q28 21 62 22q46 -1 76 -33q31 -31 32 -79q-1 -48 -32 -79
q-30 -32 -76 -33v0z" />
    <glyph glyph-name="infinity" unicode="&#x267e;" horiz-adv-x="640" 
d="M484 352q-58 -3 -100 -40v0q-42 -36 -64 -73q-22 37 -64 73q-42 37 -100 40q-66 -2 -110 -47t-46 -113q2 -68 46 -113t110 -47q58 3 100 40q42 36 64 72q22 -36 64 -72q42 -37 100 -40q66 2 110 47t46 113q-2 68 -46 113t-110 47v0zM156 80q-46 1 -76 33v0q-31 31 -32 79
q1 48 32 79q30 32 76 33q34 -1 62 -22q27 -22 47 -48q19 -26 28 -42q-9 -16 -28 -42q-20 -26 -47 -48q-28 -21 -62 -22v0zM484 80q-34 1 -62 22v0q-27 22 -47 48v0q-19 26 -28 42q9 16 28 42q20 26 47 48q28 21 62 22q46 -1 76 -33q31 -31 32 -79q-1 -48 -32 -79
q-30 -32 -76 -33v0z" />
    <glyph glyph-name="infinity" unicode="&#x221e;" horiz-adv-x="640" 
d="M484 352q-58 -3 -100 -40v0q-42 -36 -64 -73q-22 37 -64 73q-42 37 -100 40q-66 -2 -110 -47t-46 -113q2 -68 46 -113t110 -47q58 3 100 40q42 36 64 72q22 -36 64 -72q42 -37 100 -40q66 2 110 47t46 113q-2 68 -46 113t-110 47v0zM156 80q-46 1 -76 33v0q-31 31 -32 79
q1 48 32 79q30 32 76 33q34 -1 62 -22q27 -22 47 -48q19 -26 28 -42q-9 -16 -28 -42q-20 -26 -47 -48q-28 -21 -62 -22v0zM484 80q-34 1 -62 22v0q-27 22 -47 48v0q-19 26 -28 42q9 16 28 42q20 26 47 48q28 21 62 22q46 -1 76 -33q31 -31 32 -79q-1 -48 -32 -79
q-30 -32 -76 -33v0z" />
    <glyph glyph-name="wave-sine" unicode="&#xf899;" horiz-adv-x="640" 
d="M639 170q-3 -13 -23 -57v0q-20 -44 -57 -85v0q-37 -41 -92 -44q-47 1 -78 31q-32 30 -53 76q-22 45 -39 93q-22 63 -50 114q-29 52 -74 55q-28 -1 -53 -26t-44 -60q-18 -35 -28 -66q-9 -18 -24 -17q-4 0 -6 1q-10 3 -15 12q-5 8 -2 17q3 13 23 57t57 85t92 44
q47 -1 78 -31q32 -30 53 -76q22 -45 39 -93q22 -63 50 -114q29 -52 74 -55q28 1 53 26t44 60q18 35 28 66q9 18 24 17q4 0 6 -1q10 -3 15 -12q5 -8 2 -17v0z" />
    <glyph glyph-name="wave-sine" unicode="&#x223f;" horiz-adv-x="640" 
d="M639 170q-3 -13 -23 -57v0q-20 -44 -57 -85v0q-37 -41 -92 -44q-47 1 -78 31q-32 30 -53 76q-22 45 -39 93q-22 63 -50 114q-29 52 -74 55q-28 -1 -53 -26t-44 -60q-18 -35 -28 -66q-9 -18 -24 -17q-4 0 -6 1q-10 3 -15 12q-5 8 -2 17q3 13 23 57t57 85t92 44
q47 -1 78 -31q32 -30 53 -76q22 -45 39 -93q22 -63 50 -114q29 -52 74 -55q28 1 53 26t44 60q18 35 28 66q9 18 24 17q4 0 6 -1q10 -3 15 -12q5 -8 2 -17v0z" />
    <glyph glyph-name="intersection" unicode="&#xf668;" horiz-adv-x="384" 
d="M384 224v-232q-2 -22 -24 -24q-22 2 -24 24v232q-2 61 -42 102q-41 40 -102 42q-61 -2 -102 -42q-40 -41 -42 -102v-232q-2 -22 -24 -24q-22 2 -24 24v232q2 81 56 136q55 54 136 56q81 -2 136 -56q54 -55 56 -136v0z" />
    <glyph glyph-name="intersection" unicode="&#x22c2;" horiz-adv-x="384" 
d="M384 224v-232q-2 -22 -24 -24q-22 2 -24 24v232q-2 61 -42 102q-41 40 -102 42q-61 -2 -102 -42q-40 -41 -42 -102v-232q-2 -22 -24 -24q-22 2 -24 24v232q2 81 56 136q55 54 136 56q81 -2 136 -56q54 -55 56 -136v0z" />
    <glyph glyph-name="union" unicode="&#xf6a2;" horiz-adv-x="384" 
d="M0 160v232q2 22 24 24q22 -2 24 -24v-232q2 -61 42 -102q41 -40 102 -42q61 2 102 42q40 41 42 102v232q2 22 24 24q22 -2 24 -24v-232q-2 -81 -56 -135q-55 -54 -136 -56q-81 2 -136 56q-54 54 -56 135v0z" />
    <glyph glyph-name="union" unicode="&#x22c3;" horiz-adv-x="384" 
d="M0 160v232q2 22 24 24q22 -2 24 -24v-232q2 -61 42 -102q41 -40 102 -42q61 2 102 42q40 41 42 102v232q2 22 24 24q22 -2 24 -24v-232q-2 -81 -56 -135q-55 -54 -136 -56q-81 2 -136 56q-54 54 -56 135v0z" />
    <glyph glyph-name="angle-up" unicode="&#xf106;" horiz-adv-x="384" 
d="M24 153l152 144q7 7 16 7t17 -7l152 -143q14 -16 0 -34q-16 -14 -34 -1l-135 129l-136 -129q-17 -13 -33 1q-14 17 1 33v0z" />
    <glyph glyph-name="angle-up" unicode="&#x2303;" horiz-adv-x="384" 
d="M24 153l152 144q7 7 16 7t17 -7l152 -143q14 -16 0 -34q-16 -14 -34 -1l-135 129l-136 -129q-17 -13 -33 1q-14 17 1 33v0z" />
    <glyph glyph-name="angle-down" unicode="&#xf107;" horiz-adv-x="384" 
d="M361 230l-152 -143q-8 -7 -17 -7t-16 7l-152 143q-15 17 -1 34q16 15 34 1l135 -128l136 128q17 14 33 0q14 -18 0 -35v0z" />
    <glyph glyph-name="angle-down" unicode="&#x2304;" horiz-adv-x="384" 
d="M361 230l-152 -143q-8 -7 -17 -7t-16 7l-152 143q-15 17 -1 34q16 15 34 1l135 -128l136 128q17 14 33 0q14 -18 0 -35v0z" />
    <glyph glyph-name="watch" unicode="&#xf2e1;" horiz-adv-x="384" 
d="M216 211v61q-2 22 -24 24q-22 -2 -24 -24v-72q0 -11 9 -18l48 -40q7 -6 15 -6q11 0 18 9q13 18 -3 33l-39 33v0zM320 335v65q-1 20 -14 34q-14 13 -34 14h-160q-20 -1 -34 -14q-13 -14 -14 -34v-65q-30 -27 -47 -63q-17 -37 -17 -80t17 -80q17 -36 47 -63v-65
q1 -20 14 -34q14 -13 34 -14h160q20 1 34 14q13 14 14 34v65q30 27 47 63q17 37 17 80t-17 80q-17 36 -47 63v0zM192 48q-61 2 -102 42v0q-40 41 -42 102q2 61 42 102q41 40 102 42q61 -2 102 -42q40 -41 42 -102q-2 -61 -42 -102q-41 -40 -102 -42v0z" />
    <glyph glyph-name="watch" unicode="&#x231a;" horiz-adv-x="384" 
d="M216 211v61q-2 22 -24 24q-22 -2 -24 -24v-72q0 -11 9 -18l48 -40q7 -6 15 -6q11 0 18 9q13 18 -3 33l-39 33v0zM320 335v65q-1 20 -14 34q-14 13 -34 14h-160q-20 -1 -34 -14q-13 -14 -14 -34v-65q-30 -27 -47 -63q-17 -37 -17 -80t17 -80q17 -36 47 -63v-65
q1 -20 14 -34q14 -13 34 -14h160q20 1 34 14q13 14 14 34v65q30 27 47 63q17 37 17 80t-17 80q-17 36 -47 63v0zM192 48q-61 2 -102 42v0q-40 41 -42 102q2 61 42 102q41 40 102 42q61 -2 102 -42q40 -41 42 -102q-2 -61 -42 -102q-41 -40 -102 -42v0z" />
    <glyph glyph-name="hourglass-end" unicode="&#xf253;" horiz-adv-x="384" 
d="M360 -16h-8v19q-1 63 -45 107l-81 82l81 82q44 44 45 107v19h8q22 2 24 24q-2 22 -24 24h-336q-22 -2 -24 -24q2 -22 24 -24h8v-21q1 -60 41 -104l78 -83l-78 -83q-40 -44 -41 -104v-21h-8q-22 -2 -24 -24q2 -22 24 -24h336q22 2 24 24q-2 22 -24 24v0zM108 307
q-28 31 -28 72v21h224v-19q0 -43 -30 -74l-86 -85l-80 85v0z" />
    <glyph glyph-name="hourglass-end" unicode="&#x231b;" horiz-adv-x="384" 
d="M360 -16h-8v19q-1 63 -45 107l-81 82l81 82q44 44 45 107v19h8q22 2 24 24q-2 22 -24 24h-336q-22 -2 -24 -24q2 -22 24 -24h8v-21q1 -60 41 -104l78 -83l-78 -83q-40 -44 -41 -104v-21h-8q-22 -2 -24 -24q2 -22 24 -24h336q22 2 24 24q-2 22 -24 24v0zM108 307
q-28 31 -28 72v21h224v-19q0 -43 -30 -74l-86 -85l-80 85v0z" />
    <glyph glyph-name="keyboard" unicode="&#xf11c;" horiz-adv-x="576" 
d="M512 384h-448q-27 -1 -45 -19t-19 -45v-256q1 -27 19 -45t45 -19h448q27 1 45 19t19 45v256q-1 27 -19 45t-45 19v0zM528 64q-1 -15 -16 -16h-448q-15 1 -16 16v256q1 15 16 16h448q15 -1 16 -16v-256v0zM140 296h-24q-11 -1 -12 -12v-24q1 -11 12 -12h24q11 1 12 12v24
q-1 11 -12 12v0zM196 248h24q11 1 12 12v24q-1 11 -12 12h-24q-11 -1 -12 -12v-24q1 -11 12 -12v0zM276 248h24q11 1 12 12v24q-1 11 -12 12h-24q-11 -1 -12 -12v-24q1 -11 12 -12v0zM356 248h24q11 1 12 12v24q-1 11 -12 12h-24q-11 -1 -12 -12v-24q1 -11 12 -12v0z
M460 296h-24q-11 -1 -12 -12v-24q1 -11 12 -12h24q11 1 12 12v24q-1 11 -12 12v0zM140 216h-24q-11 -1 -12 -12v-24q1 -11 12 -12h24q11 1 12 12v24q-1 11 -12 12v0zM196 168h24q11 1 12 12v24q-1 11 -12 12h-24q-11 -1 -12 -12v-24q1 -11 12 -12v0zM276 168h24q11 1 12 12
v24q-1 11 -12 12h-24q-11 -1 -12 -12v-24q1 -11 12 -12v0zM356 168h24q11 1 12 12v24q-1 11 -12 12h-24q-11 -1 -12 -12v-24q1 -11 12 -12v0zM460 216h-24q-11 -1 -12 -12v-24q1 -11 12 -12h24q11 1 12 12v24q-1 11 -12 12v0zM400 128h-224q-15 -1 -16 -16v-16q1 -15 16 -16
h224q15 1 16 16v16q-1 15 -16 16v0z" />
    <glyph glyph-name="keyboard" unicode="&#x2328;" horiz-adv-x="576" 
d="M512 384h-448q-27 -1 -45 -19t-19 -45v-256q1 -27 19 -45t45 -19h448q27 1 45 19t19 45v256q-1 27 -19 45t-45 19v0zM528 64q-1 -15 -16 -16h-448q-15 1 -16 16v256q1 15 16 16h448q15 -1 16 -16v-256v0zM140 296h-24q-11 -1 -12 -12v-24q1 -11 12 -12h24q11 1 12 12v24
q-1 11 -12 12v0zM196 248h24q11 1 12 12v24q-1 11 -12 12h-24q-11 -1 -12 -12v-24q1 -11 12 -12v0zM276 248h24q11 1 12 12v24q-1 11 -12 12h-24q-11 -1 -12 -12v-24q1 -11 12 -12v0zM356 248h24q11 1 12 12v24q-1 11 -12 12h-24q-11 -1 -12 -12v-24q1 -11 12 -12v0z
M460 296h-24q-11 -1 -12 -12v-24q1 -11 12 -12h24q11 1 12 12v24q-1 11 -12 12v0zM140 216h-24q-11 -1 -12 -12v-24q1 -11 12 -12h24q11 1 12 12v24q-1 11 -12 12v0zM196 168h24q11 1 12 12v24q-1 11 -12 12h-24q-11 -1 -12 -12v-24q1 -11 12 -12v0zM276 168h24q11 1 12 12
v24q-1 11 -12 12h-24q-11 -1 -12 -12v-24q1 -11 12 -12v0zM356 168h24q11 1 12 12v24q-1 11 -12 12h-24q-11 -1 -12 -12v-24q1 -11 12 -12v0zM460 216h-24q-11 -1 -12 -12v-24q1 -11 12 -12h24q11 1 12 12v24q-1 11 -12 12v0zM400 128h-224q-15 -1 -16 -16v-16q1 -15 16 -16
h224q15 1 16 16v16q-1 15 -16 16v0z" />
    <glyph glyph-name="chevron-left" unicode="&#xf053;" horiz-adv-x="320" 
d="M207 -17l-183 191q-8 10 -8 18q0 9 7 17l183 191q16 14 34 0q14 -16 0 -34l-167 -174l168 -175q14 -18 0 -34q-18 -14 -34 0v0z" />
    <glyph glyph-name="chevron-left" unicode="&#x2329;" horiz-adv-x="320" 
d="M207 -17l-183 191q-8 10 -8 18q0 9 7 17l183 191q16 14 34 0q14 -16 0 -34l-167 -174l168 -175q14 -18 0 -34q-18 -14 -34 0v0z" />
    <glyph glyph-name="chevron-right" unicode="&#xf054;" horiz-adv-x="320" 
d="M113 401l183 -192q7 -7 7 -16t-7 -17l-183 -191q-16 -14 -34 -1q-14 17 0 34l168 176l-168 173q-14 18 0 34q18 14 34 0v0z" />
    <glyph glyph-name="chevron-right" unicode="&#x232a;" horiz-adv-x="320" 
d="M113 401l183 -192q7 -7 7 -16t-7 -17l-183 -191q-16 -14 -34 -1q-14 17 0 34l168 176l-168 173q-14 18 0 34q18 14 34 0v0z" />
    <glyph glyph-name="delete-left" unicode="&#xf55a;" horiz-adv-x="576" 
d="M512 384h-307q-26 0 -45 -19l-151 -150q-9 -10 -9 -23t9 -23l151 -150q19 -19 45 -19h307q27 1 45 19t19 45v256q-1 27 -19 45t-45 19v0zM528 64q-1 -15 -16 -16h-307q-6 0 -11 5l-139 139l139 139q3 5 11 5h307q15 -1 16 -16v-256v0zM432 273q-17 14 -34 0l-46 -47
l-47 47q-17 14 -34 0q-14 -17 0 -34l47 -47l-47 -47q-14 -17 0 -34q17 -14 34 0l47 47l47 -47q17 -14 34 0q14 17 0 34l-47 47l47 47q14 17 -1 34v0z" />
    <glyph glyph-name="delete-left" unicode="&#x232b;" horiz-adv-x="576" 
d="M512 384h-307q-26 0 -45 -19l-151 -150q-9 -10 -9 -23t9 -23l151 -150q19 -19 45 -19h307q27 1 45 19t19 45v256q-1 27 -19 45t-45 19v0zM528 64q-1 -15 -16 -16h-307q-6 0 -11 5l-139 139l139 139q3 5 11 5h307q15 -1 16 -16v-256v0zM432 273q-17 14 -34 0l-46 -47
l-47 47q-17 14 -34 0q-14 -17 0 -34l47 -47l-47 -47q-14 -17 0 -34q17 -14 34 0l47 47l47 -47q17 -14 34 0q14 17 0 34l-47 47l47 47q14 17 -1 34v0z" />
    <glyph glyph-name="print" unicode="&#x1f5b6;" 
d="M111 400h254l35 -34v-78h48v78q0 20 -14 34l-34 34q-14 14 -34 14h-255q-20 -1 -33 -14q-13 -14 -14 -34v-82v0v0v-30h48l-1 112v0zM440 256h-368q-31 -1 -51 -21t-21 -51v-112q2 -22 24 -24h56v-80q0 -14 9 -23t23 -9h288q14 0 23 9t9 23v80h56q22 2 24 24v112
q-1 31 -21 51t-51 21v0zM384 -16h-256v96h256v-96v0zM464 96h-32q0 14 -9 23t-23 9h-288q-14 0 -23 -9t-9 -23h-32v88q2 22 24 24h368q22 -2 24 -24v-88v0z" />
    <glyph glyph-name="print" unicode="&#x1f5a8;" 
d="M111 400h254l35 -34v-78h48v78q0 20 -14 34l-34 34q-14 14 -34 14h-255q-20 -1 -33 -14q-13 -14 -14 -34v-82v0v0v-30h48l-1 112v0zM440 256h-368q-31 -1 -51 -21t-21 -51v-112q2 -22 24 -24h56v-80q0 -14 9 -23t23 -9h288q14 0 23 9t9 23v80h56q22 2 24 24v112
q-1 31 -21 51t-51 21v0zM384 -16h-256v96h256v-96v0zM464 96h-32q0 14 -9 23t-23 9h-288q-14 0 -23 -9t-9 -23h-32v88q2 22 24 24h368q22 -2 24 -24v-88v0z" />
    <glyph glyph-name="print" unicode="&#xf02f;" 
d="M111 400h254l35 -34v-78h48v78q0 20 -14 34l-34 34q-14 14 -34 14h-255q-20 -1 -33 -14q-13 -14 -14 -34v-82v0v0v-30h48l-1 112v0zM440 256h-368q-31 -1 -51 -21t-21 -51v-112q2 -22 24 -24h56v-80q0 -14 9 -23t23 -9h288q14 0 23 9t9 23v80h56q22 2 24 24v112
q-1 31 -21 51t-51 21v0zM384 -16h-256v96h256v-96v0zM464 96h-32q0 14 -9 23t-23 9h-288q-14 0 -23 -9t-9 -23h-32v88q2 22 24 24h368q22 -2 24 -24v-88v0z" />
    <glyph glyph-name="print" unicode="&#x2399;" 
d="M111 400h254l35 -34v-78h48v78q0 20 -14 34l-34 34q-14 14 -34 14h-255q-20 -1 -33 -14q-13 -14 -14 -34v-82v0v0v-30h48l-1 112v0zM440 256h-368q-31 -1 -51 -21t-21 -51v-112q2 -22 24 -24h56v-80q0 -14 9 -23t23 -9h288q14 0 23 9t9 23v80h56q22 2 24 24v112
q-1 31 -21 51t-51 21v0zM384 -16h-256v96h256v-96v0zM464 96h-32q0 14 -9 23t-23 9h-288q-14 0 -23 -9t-9 -23h-32v88q2 22 24 24h368q22 -2 24 -24v-88v0z" />
    <glyph glyph-name="eject" unicode="&#xf052;" horiz-adv-x="448" 
d="M48 97h351q32 2 44 29q12 26 -9 51l-175 192q-15 15 -35 15t-35 -15l-176 -193q-21 -25 -9 -51t44 -28v0zM224 336v0v0v0l175 -192h-351l176 192v0zM424 48h-400q-22 -2 -24 -24q2 -22 24 -24h400q22 2 24 24q-2 22 -24 24v0z" />
    <glyph glyph-name="eject" unicode="&#x23cf;" horiz-adv-x="448" 
d="M48 97h351q32 2 44 29q12 26 -9 51l-175 192q-15 15 -35 15t-35 -15l-176 -193q-21 -25 -9 -51t44 -28v0zM224 336v0v0v0l175 -192h-351l176 192v0zM424 48h-400q-22 -2 -24 -24q2 -22 24 -24h400q22 2 24 24q-2 22 -24 24v0z" />
    <glyph glyph-name="forward" unicode="&#xf04e;" 
d="M256 352v-320q0 -15 10 -23q9 -9 22 -9q11 0 20 7l192 160q12 10 12 24t-12 25l-192 159q-9 10 -20 9q-13 0 -22 -9q-10 -8 -10 -23v0zM304 318l151 -126l-151 -126v252v0zM0 352v-320q1 -19 17 -28q7 -4 15 -4q9 0 17 5l164 104q17 14 7 33q-13 18 -33 8l-139 -89v262
l139 -89q20 -10 33 8q10 19 -7 33l-164 104q-16 9 -32 1q-16 -9 -17 -28v0z" />
    <glyph glyph-name="forward" unicode="&#x23e9;" 
d="M256 352v-320q0 -15 10 -23q9 -9 22 -9q11 0 20 7l192 160q12 10 12 24t-12 25l-192 159q-9 10 -20 9q-13 0 -22 -9q-10 -8 -10 -23v0zM304 318l151 -126l-151 -126v252v0zM0 352v-320q1 -19 17 -28q7 -4 15 -4q9 0 17 5l164 104q17 14 7 33q-13 18 -33 8l-139 -89v262
l139 -89q20 -10 33 8q10 19 -7 33l-164 104q-16 9 -32 1q-16 -9 -17 -28v0z" />
    <glyph glyph-name="backward" unicode="&#xf04a;" 
d="M224 384q-11 0 -20 -7l-193 -160q-11 -11 -11 -25t11 -25l192 -159q10 -8 21 -8q13 0 22 9q10 8 10 23v320q-1 15 -10 23q-9 9 -22 9v0zM207 66l-150 126l151 126v-252h-1zM495 380q-16 8 -32 -1l-164 -104q-17 -14 -7 -33q13 -18 33 -8l139 89v-262l-139 89
q-20 10 -33 -8q-10 -19 7 -33l164 -104q8 -5 17 -5q8 0 15 4q16 9 17 29v319q-1 19 -17 28v0z" />
    <glyph glyph-name="backward" unicode="&#x23ea;" 
d="M224 384q-11 0 -20 -7l-193 -160q-11 -11 -11 -25t11 -25l192 -159q10 -8 21 -8q13 0 22 9q10 8 10 23v320q-1 15 -10 23q-9 9 -22 9v0zM207 66l-150 126l151 126v-252h-1zM495 380q-16 8 -32 -1l-164 -104q-17 -14 -7 -33q13 -18 33 -8l139 89v-262l-139 89
q-20 10 -33 -8q-10 -19 7 -33l164 -104q8 -5 17 -5q8 0 15 4q16 9 17 29v319q-1 19 -17 28v0z" />
    <glyph glyph-name="forward-fast" unicode="&#xf050;" 
d="M0 352v-320q0 -15 10 -23q9 -9 22 -9q11 0 21 7l171 156v-131q0 -15 10 -23q9 -9 22 -9q11 0 20 7l172 156v-139q2 -22 24 -24q22 2 24 24v336q-2 21 -23 23q-22 -2 -24 -24v-140l-172 157q-10 8 -21 8q-13 0 -22 -9q-10 -8 -10 -23v-132l-171 157q-10 7 -21 7
q-13 0 -22 -9q-10 -8 -10 -23v0zM272 316l136 -125l-136 -123v248v0zM48 316l136 -125l-136 -123v248v0z" />
    <glyph glyph-name="forward-fast" unicode="&#x23ed;" 
d="M0 352v-320q0 -15 10 -23q9 -9 22 -9q11 0 21 7l171 156v-131q0 -15 10 -23q9 -9 22 -9q11 0 20 7l172 156v-139q2 -22 24 -24q22 2 24 24v336q-2 21 -23 23q-22 -2 -24 -24v-140l-172 157q-10 8 -21 8q-13 0 -22 -9q-10 -8 -10 -23v-132l-171 157q-10 7 -21 7
q-13 0 -22 -9q-10 -8 -10 -23v0zM272 316l136 -125l-136 -123v248v0zM48 316l136 -125l-136 -123v248v0z" />
    <glyph glyph-name="backward-fast" unicode="&#xf049;" 
d="M480 384q-11 0 -20 -7l-172 -157v132q0 15 -10 23q-9 9 -22 9q-11 0 -20 -7l-172 -157v140q-2 22 -24 24q-22 -2 -24 -23v-336q2 -22 24 -24q22 2 24 24v138l172 -156q9 -7 20 -7q13 0 22 9q10 9 10 24v130l172 -156q9 -7 20 -7q13 0 22 9q10 9 10 24v319q0 15 -10 23
q-9 9 -22 9v0zM240 68l-136 123l136 125v-248v0zM464 68l-136 123l136 125v-248v0z" />
    <glyph glyph-name="backward-fast" unicode="&#x23ee;" 
d="M480 384q-11 0 -20 -7l-172 -157v132q0 15 -10 23q-9 9 -22 9q-11 0 -20 -7l-172 -157v140q-2 22 -24 24q-22 -2 -24 -23v-336q2 -22 24 -24q22 2 24 24v138l172 -156q9 -7 20 -7q13 0 22 9q10 9 10 24v130l172 -156q9 -7 20 -7q13 0 22 9q10 9 10 24v319q0 15 -10 23
q-9 9 -22 9v0zM240 68l-136 123l136 125v-248v0zM464 68l-136 123l136 125v-248v0z" />
    <glyph glyph-name="alarm-clock" unicode="&#xf34e;" 
d="M95 448q-41 -1 -68 -28v0q-27 -27 -28 -68q1 -29 15 -51l146 121q-25 25 -65 26v0zM415 448q-38 -1 -65 -26l146 -121q15 22 15 51q-1 41 -28 68t-68 28v0zM256 384q-63 -1 -113 -31v0q-51 -29 -80 -80v0q-30 -50 -31 -113q2 -81 50 -140l-43 -43q-7 -7 -7 -17
q2 -22 24 -24q10 0 17 7l43 43q58 -48 140 -50q81 2 140 50l43 -43q7 -7 17 -7q22 2 24 24q0 10 -7 17l-43 43q48 59 50 140q-1 63 -31 113q-30 51 -80 80q-50 30 -113 31v0zM256 -16q-75 2 -124 52v0q-50 49 -52 124q2 75 51 124q50 50 125 52q75 -2 125 -52
q49 -49 51 -124q-2 -75 -52 -124q-49 -50 -124 -52v0zM280 156v108q-2 22 -24 24q-22 -2 -24 -24v-120q0 -12 10 -19l64 -48q6 -5 13 -5q22 2 24 24q0 12 -9 19l-54 41v0z" />
    <glyph glyph-name="alarm-clock" unicode="&#x23f0;" 
d="M95 448q-41 -1 -68 -28v0q-27 -27 -28 -68q1 -29 15 -51l146 121q-25 25 -65 26v0zM415 448q-38 -1 -65 -26l146 -121q15 22 15 51q-1 41 -28 68t-68 28v0zM256 384q-63 -1 -113 -31v0q-51 -29 -80 -80v0q-30 -50 -31 -113q2 -81 50 -140l-43 -43q-7 -7 -7 -17
q2 -22 24 -24q10 0 17 7l43 43q58 -48 140 -50q81 2 140 50l43 -43q7 -7 17 -7q22 2 24 24q0 10 -7 17l-43 43q48 59 50 140q-1 63 -31 113q-30 51 -80 80q-50 30 -113 31v0zM256 -16q-75 2 -124 52v0q-50 49 -52 124q2 75 51 124q50 50 125 52q75 -2 125 -52
q49 -49 51 -124q-2 -75 -52 -124q-49 -50 -124 -52v0zM280 156v108q-2 22 -24 24q-22 -2 -24 -24v-120q0 -12 10 -19l64 -48q6 -5 13 -5q22 2 24 24q0 12 -9 19l-54 41v0z" />
    <glyph glyph-name="stopwatch" unicode="&#xf2f2;" horiz-adv-x="448" 
d="M424 296q14 17 0 34q-17 14 -34 0l-29 -30q-48 43 -114 51v49h32q22 2 24 24q-1 22 -23 24h-112q-22 -2 -24 -24q2 -22 24 -24h32v-49q-79 -11 -131 -68q-51 -57 -53 -139q2 -88 61 -147t147 -61q88 2 147 61t61 147q-1 68 -38 120l30 32v0zM224 -16q-68 2 -113 47v0
q-45 45 -47 113q2 68 47 113t113 47q68 -2 113 -47t47 -113q-2 -68 -47 -113t-113 -47v0zM224 256q-22 -2 -24 -24v-112q2 -22 24 -24q22 2 24 24v112q-2 22 -24 24v0z" />
    <glyph glyph-name="stopwatch" unicode="&#x23f1;" horiz-adv-x="448" 
d="M424 296q14 17 0 34q-17 14 -34 0l-29 -30q-48 43 -114 51v49h32q22 2 24 24q-1 22 -23 24h-112q-22 -2 -24 -24q2 -22 24 -24h32v-49q-79 -11 -131 -68q-51 -57 -53 -139q2 -88 61 -147t147 -61q88 2 147 61t61 147q-1 68 -38 120l30 32v0zM224 -16q-68 2 -113 47v0
q-45 45 -47 113q2 68 47 113t113 47q68 -2 113 -47t47 -113q-2 -68 -47 -113t-113 -47v0zM224 256q-22 -2 -24 -24v-112q2 -22 24 -24q22 2 24 24v112q-2 22 -24 24v0z" />
    <glyph glyph-name="hourglass" unicode="&#xf254;" horiz-adv-x="384" 
d="M360 -16h-8v19q-1 63 -45 107l-81 82l81 82q44 44 45 107v19h8q22 2 24 24q-2 22 -24 24h-336q-22 -2 -24 -24q2 -22 24 -24h8v-21q1 -60 41 -104l78 -83l-78 -83q-40 -44 -41 -104v-21h-8q-22 -2 -24 -24q2 -22 24 -24h336q22 2 24 24q-2 22 -24 24v0zM99 320
q-19 26 -19 59v21h224v-19q0 -34 -20 -61h-185v0zM99 64q4 7 9 13l80 85l86 -85q5 -6 10 -13h-185v0z" />
    <glyph glyph-name="hourglass" unicode="&#xf250;" horiz-adv-x="384" 
d="M360 -16h-8v19q-1 63 -45 107l-81 82l81 82q44 44 45 107v19h8q22 2 24 24q-2 22 -24 24h-336q-22 -2 -24 -24q2 -22 24 -24h8v-21q1 -60 41 -104l78 -83l-78 -83q-40 -44 -41 -104v-21h-8q-22 -2 -24 -24q2 -22 24 -24h336q22 2 24 24q-2 22 -24 24v0zM99 320
q-19 26 -19 59v21h224v-19q0 -34 -20 -61h-185v0zM99 64q4 7 9 13l80 85l86 -85q5 -6 10 -13h-185v0z" />
    <glyph glyph-name="hourglass" unicode="&#x23f3;" horiz-adv-x="384" 
d="M360 -16h-8v19q-1 63 -45 107l-81 82l81 82q44 44 45 107v19h8q22 2 24 24q-2 22 -24 24h-336q-22 -2 -24 -24q2 -22 24 -24h8v-21q1 -60 41 -104l78 -83l-78 -83q-40 -44 -41 -104v-21h-8q-22 -2 -24 -24q2 -22 24 -24h336q22 2 24 24q-2 22 -24 24v0zM99 320
q-19 26 -19 59v21h224v-19q0 -34 -20 -61h-185v0zM99 64q4 7 9 13l80 85l86 -85q5 -6 10 -13h-185v0z" />
    <glyph glyph-name="pause" unicode="&#xf04c;" horiz-adv-x="320" 
d="M56 384q-22 -2 -24 -24v-336q2 -22 24 -24q22 2 24 24v336q-2 22 -24 24v0zM264 384q-22 -2 -24 -24v-336q2 -22 24 -24q22 2 24 24v336q-2 22 -24 24v0z" />
    <glyph glyph-name="pause" unicode="&#x23f8;" horiz-adv-x="320" 
d="M56 384q-22 -2 -24 -24v-336q2 -22 24 -24q22 2 24 24v336q-2 22 -24 24v0zM264 384q-22 -2 -24 -24v-336q2 -22 24 -24q22 2 24 24v336q-2 22 -24 24v0z" />
    <glyph glyph-name="stop" unicode="&#xf04d;" horiz-adv-x="384" 
d="M320 384h-256q-27 -1 -45 -19t-19 -45v-255q1 -27 19 -45t45 -19h256q27 1 45 19t19 45v255q-1 27 -19 45t-45 19v0zM336 64q-1 -15 -16 -16h-256q-15 1 -16 16v256q1 15 16 16h256q15 -1 16 -16v-256v0z" />
    <glyph glyph-name="stop" unicode="&#x23f9;" horiz-adv-x="384" 
d="M320 384h-256q-27 -1 -45 -19t-19 -45v-255q1 -27 19 -45t45 -19h256q27 1 45 19t19 45v255q-1 27 -19 45t-45 19v0zM336 64q-1 -15 -16 -16h-256q-15 1 -16 16v256q1 15 16 16h256q15 -1 16 -16v-256v0z" />
    <glyph glyph-name="power-off" unicode="&#xf011;" 
d="M381 396q-19 10 -33 -7q-9 -20 8 -33q44 -28 68 -70q24 -43 24 -94q-2 -81 -56 -136q-55 -54 -136 -56q-81 2 -136 56q-54 55 -56 136q0 51 25 94q24 43 67 70q18 13 9 33q-14 18 -33 8q-55 -34 -85 -87q-31 -54 -31 -118q1 -67 33 -121t86 -86t121 -33q67 1 121 33
t86 86t33 121q0 64 -30 117q-30 54 -85 87v0zM255 160q23 2 25 24v240q-2 22 -23 24q-10 0 -17 -7q-8 -7 -8 -17v-240q2 -22 23 -24v0z" />
    <glyph glyph-name="power-off" unicode="&#x23fb;" 
d="M381 396q-19 10 -33 -7q-9 -20 8 -33q44 -28 68 -70q24 -43 24 -94q-2 -81 -56 -136q-55 -54 -136 -56q-81 2 -136 56q-54 55 -56 136q0 51 25 94q24 43 67 70q18 13 9 33q-14 18 -33 8q-55 -34 -85 -87q-31 -54 -31 -118q1 -67 33 -121t86 -86t121 -33q67 1 121 33
t86 86t33 121q0 64 -30 117q-30 54 -85 87v0zM255 160q23 2 25 24v240q-2 22 -23 24q-10 0 -17 -7q-8 -7 -8 -17v-240q2 -22 23 -24v0z" />
    <glyph glyph-name="moon" unicode="&#x1f319;" 
d="M422 68h-2q-17 -3 -34 -3q-73 1 -122 51q-50 49 -52 124q1 48 24 88q23 41 65 65q6 4 5 11q-1 6 -8 8q-9 2 -21 3q-11 1 -20 1q-63 0 -114 -30q-50 -30 -80 -81q-30 -50 -31 -113q1 -63 31 -113q29 -51 80 -80q50 -30 113 -31q52 0 97 22t77 61q4 6 1 12q-3 5 -9 5v0z
M256 16q-75 2 -124 52v0q-50 49 -52 124q1 58 33 102q32 45 84 64q-33 -53 -34 -118q1 -76 44 -133t111 -80q-30 -11 -62 -11v0z" />
    <glyph glyph-name="moon" unicode="&#xf186;" 
d="M422 68h-2q-17 -3 -34 -3q-73 1 -122 51q-50 49 -52 124q1 48 24 88q23 41 65 65q6 4 5 11q-1 6 -8 8q-9 2 -21 3q-11 1 -20 1q-63 0 -114 -30q-50 -30 -80 -81q-30 -50 -31 -113q1 -63 31 -113q29 -51 80 -80q50 -30 113 -31q52 0 97 22t77 61q4 6 1 12q-3 5 -9 5v0z
M256 16q-75 2 -124 52v0q-50 49 -52 124q1 58 33 102q32 45 84 64q-33 -53 -34 -118q1 -76 44 -133t111 -80q-30 -11 -62 -11v0z" />
    <glyph glyph-name="moon" unicode="&#x23fe;" 
d="M422 68h-2q-17 -3 -34 -3q-73 1 -122 51q-50 49 -52 124q1 48 24 88q23 41 65 65q6 4 5 11q-1 6 -8 8q-9 2 -21 3q-11 1 -20 1q-63 0 -114 -30q-50 -30 -80 -81q-30 -50 -31 -113q1 -63 31 -113q29 -51 80 -80q50 -30 113 -31q52 0 97 22t77 61q4 6 1 12q-3 5 -9 5v0z
M256 16q-75 2 -124 52v0q-50 49 -52 124q1 58 33 102q32 45 84 64q-33 -53 -34 -118q1 -76 44 -133t111 -80q-30 -11 -62 -11v0z" />
    <glyph glyph-name="circle-h" unicode="&#xf47e;" 
d="M256 448q-72 -1 -129 -35v0q-58 -34 -92 -92v0q-34 -57 -35 -129q1 -72 35 -129q34 -58 92 -92q57 -34 129 -35q72 1 129 35q58 34 92 92q34 57 35 129q-1 72 -35 129q-34 58 -92 92q-57 34 -129 35v0zM256 -16q-88 2 -147 61v0q-59 59 -61 147q2 88 61 147t147 61
q88 -2 147 -61t61 -147q-2 -88 -61 -147t-147 -61v0zM344 320q-22 -2 -24 -24v-80h-128v80q-2 22 -24 24q-22 -2 -24 -24v-208q2 -22 24 -24q22 2 24 24v80h128v-80q2 -22 24 -24q22 2 24 24v208q-2 22 -24 24v0z" />
    <glyph glyph-name="circle-h" unicode="&#x24bd;" 
d="M256 448q-72 -1 -129 -35v0q-58 -34 -92 -92v0q-34 -57 -35 -129q1 -72 35 -129q34 -58 92 -92q57 -34 129 -35q72 1 129 35q58 34 92 92q34 57 35 129q-1 72 -35 129q-34 58 -92 92q-57 34 -129 35v0zM256 -16q-88 2 -147 61v0q-59 59 -61 147q2 88 61 147t147 61
q88 -2 147 -61t61 -147q-2 -88 -61 -147t-147 -61v0zM344 320q-22 -2 -24 -24v-80h-128v80q-2 22 -24 24q-22 -2 -24 -24v-208q2 -22 24 -24q22 2 24 24v80h128v-80q2 -22 24 -24q22 2 24 24v208q-2 22 -24 24v0z" />
    <glyph glyph-name="square" unicode="&#xf0c8;" horiz-adv-x="448" 
d="M384 417h-320q-27 -1 -45 -19t-19 -44v-320q1 -27 19 -45q18 -19 45 -19h320q27 0 45 19q18 18 19 45v320q-1 26 -19 44t-45 19v0zM400 32q-1 -15 -16 -16h-320q-15 1 -16 16v320q1 15 16 16h320q15 -1 16 -16v-320v0z" />
    <glyph glyph-name="square" unicode="&#xf096;" horiz-adv-x="448" 
d="M384 417h-320q-27 -1 -45 -19t-19 -44v-320q1 -27 19 -45q18 -19 45 -19h320q27 0 45 19q18 18 19 45v320q-1 26 -19 44t-45 19v0zM400 32q-1 -15 -16 -16h-320q-15 1 -16 16v320q1 15 16 16h320q15 -1 16 -16v-320v0z" />
    <glyph glyph-name="square" unicode="&#x25fc;" horiz-adv-x="448" 
d="M384 417h-320q-27 -1 -45 -19t-19 -44v-320q1 -27 19 -45q18 -19 45 -19h320q27 0 45 19q18 18 19 45v320q-1 26 -19 44t-45 19v0zM400 32q-1 -15 -16 -16h-320q-15 1 -16 16v320q1 15 16 16h320q15 -1 16 -16v-320v0z" />
    <glyph glyph-name="square" unicode="&#x25fb;" horiz-adv-x="448" 
d="M384 417h-320q-27 -1 -45 -19t-19 -44v-320q1 -27 19 -45q18 -19 45 -19h320q27 0 45 19q18 18 19 45v320q-1 26 -19 44t-45 19v0zM400 32q-1 -15 -16 -16h-320q-15 1 -16 16v320q1 15 16 16h320q15 -1 16 -16v-320v0z" />
    <glyph glyph-name="square" unicode="&#x25a0;" horiz-adv-x="448" 
d="M384 417h-320q-27 -1 -45 -19t-19 -44v-320q1 -27 19 -45q18 -19 45 -19h320q27 0 45 19q18 18 19 45v320q-1 26 -19 44t-45 19v0zM400 32q-1 -15 -16 -16h-320q-15 1 -16 16v320q1 15 16 16h320q15 -1 16 -16v-320v0z" />
    <glyph glyph-name="rectangle" unicode="&#xf2fa;" 
d="M448 336q15 -1 16 -16v-256q-1 -15 -16 -16h-384q-15 1 -16 16v256q1 15 16 16h384v0zM448 385h-384q-27 -1 -45 -19t-19 -44v-256q1 -27 19 -45q18 -19 45 -19h384q27 0 45 19q18 18 19 45v256q-1 26 -19 44t-45 19v0z" />
    <glyph glyph-name="rectangle" unicode="&#x25ac;" 
d="M448 336q15 -1 16 -16v-256q-1 -15 -16 -16h-384q-15 1 -16 16v256q1 15 16 16h384v0zM448 385h-384q-27 -1 -45 -19t-19 -44v-256q1 -27 19 -45q18 -19 45 -19h384q27 0 45 19q18 18 19 45v256q-1 26 -19 44t-45 19v0z" />
    <glyph glyph-name="triangle" unicode="&#xf2ec;" 
d="M255 363l204 -347h-406l202 347v0zM255 416q-22 0 -37 -21l-213 -364q-12 -22 0 -42q11 -20 36 -21h428q26 1 37 21q12 20 -1 42l-213 364q-12 21 -37 21v0z" />
    <glyph glyph-name="triangle" unicode="&#x25b2;" 
d="M255 363l204 -347h-406l202 347v0zM255 416q-22 0 -37 -21l-213 -364q-12 -22 0 -42q11 -20 36 -21h428q26 1 37 21q12 20 -1 42l-213 364q-12 21 -37 21v0z" />
    <glyph glyph-name="play" unicode="&#xf04b;" 
d="M489 233l-288 176q-12 7 -25 7q-21 -1 -34 -14q-14 -14 -14 -34v-352q0 -20 14 -34q13 -13 34 -14q13 0 25 7l288 176q22 15 23 41q-1 26 -23 41v0zM176 16v352l288 -175l-288 -177v0z" />
    <glyph glyph-name="play" unicode="&#x25b6;" 
d="M489 233l-288 176q-12 7 -25 7q-21 -1 -34 -14q-14 -14 -14 -34v-352q0 -20 14 -34q13 -13 34 -14q13 0 25 7l288 176q22 15 23 41q-1 26 -23 41v0zM176 16v352l288 -175l-288 -177v0z" />
    <glyph glyph-name="circle" unicode="&#x1f7e4;" 
d="M256 448q-72 -1 -129 -35v0q-58 -34 -92 -92v0q-34 -57 -35 -129q1 -72 35 -129q34 -58 92 -92q57 -34 129 -35q72 1 129 35q58 34 92 92q34 57 35 129q-1 72 -35 129q-34 58 -92 92q-57 34 -129 35v0zM256 -16q-88 2 -147 61v0q-59 59 -61 147q2 88 61 147t147 61
q88 -2 147 -61t61 -147q-2 -88 -61 -147t-147 -61v0z" />
    <glyph glyph-name="circle" unicode="&#x1f7e3;" 
d="M256 448q-72 -1 -129 -35v0q-58 -34 -92 -92v0q-34 -57 -35 -129q1 -72 35 -129q34 -58 92 -92q57 -34 129 -35q72 1 129 35q58 34 92 92q34 57 35 129q-1 72 -35 129q-34 58 -92 92q-57 34 -129 35v0zM256 -16q-88 2 -147 61v0q-59 59 -61 147q2 88 61 147t147 61
q88 -2 147 -61t61 -147q-2 -88 -61 -147t-147 -61v0z" />
    <glyph glyph-name="circle" unicode="&#x1f7e2;" 
d="M256 448q-72 -1 -129 -35v0q-58 -34 -92 -92v0q-34 -57 -35 -129q1 -72 35 -129q34 -58 92 -92q57 -34 129 -35q72 1 129 35q58 34 92 92q34 57 35 129q-1 72 -35 129q-34 58 -92 92q-57 34 -129 35v0zM256 -16q-88 2 -147 61v0q-59 59 -61 147q2 88 61 147t147 61
q88 -2 147 -61t61 -147q-2 -88 -61 -147t-147 -61v0z" />
    <glyph glyph-name="circle" unicode="&#x1f7e1;" 
d="M256 448q-72 -1 -129 -35v0q-58 -34 -92 -92v0q-34 -57 -35 -129q1 -72 35 -129q34 -58 92 -92q57 -34 129 -35q72 1 129 35q58 34 92 92q34 57 35 129q-1 72 -35 129q-34 58 -92 92q-57 34 -129 35v0zM256 -16q-88 2 -147 61v0q-59 59 -61 147q2 88 61 147t147 61
q88 -2 147 -61t61 -147q-2 -88 -61 -147t-147 -61v0z" />
    <glyph glyph-name="circle" unicode="&#x1f7e0;" 
d="M256 448q-72 -1 -129 -35v0q-58 -34 -92 -92v0q-34 -57 -35 -129q1 -72 35 -129q34 -58 92 -92q57 -34 129 -35q72 1 129 35q58 34 92 92q34 57 35 129q-1 72 -35 129q-34 58 -92 92q-57 34 -129 35v0zM256 -16q-88 2 -147 61v0q-59 59 -61 147q2 88 61 147t147 61
q88 -2 147 -61t61 -147q-2 -88 -61 -147t-147 -61v0z" />
    <glyph glyph-name="circle" unicode="&#x1f535;" 
d="M256 448q-72 -1 -129 -35v0q-58 -34 -92 -92v0q-34 -57 -35 -129q1 -72 35 -129q34 -58 92 -92q57 -34 129 -35q72 1 129 35q58 34 92 92q34 57 35 129q-1 72 -35 129q-34 58 -92 92q-57 34 -129 35v0zM256 -16q-88 2 -147 61v0q-59 59 -61 147q2 88 61 147t147 61
q88 -2 147 -61t61 -147q-2 -88 -61 -147t-147 -61v0z" />
    <glyph glyph-name="circle" unicode="&#x1f534;" 
d="M256 448q-72 -1 -129 -35v0q-58 -34 -92 -92v0q-34 -57 -35 -129q1 -72 35 -129q34 -58 92 -92q57 -34 129 -35q72 1 129 35q58 34 92 92q34 57 35 129q-1 72 -35 129q-34 58 -92 92q-57 34 -129 35v0zM256 -16q-88 2 -147 61v0q-59 59 -61 147q2 88 61 147t147 61
q88 -2 147 -61t61 -147q-2 -88 -61 -147t-147 -61v0z" />
    <glyph glyph-name="circle" unicode="&#xf1db;" 
d="M256 448q-72 -1 -129 -35v0q-58 -34 -92 -92v0q-34 -57 -35 -129q1 -72 35 -129q34 -58 92 -92q57 -34 129 -35q72 1 129 35q58 34 92 92q34 57 35 129q-1 72 -35 129q-34 58 -92 92q-57 34 -129 35v0zM256 -16q-88 2 -147 61v0q-59 59 -61 147q2 88 61 147t147 61
q88 -2 147 -61t61 -147q-2 -88 -61 -147t-147 -61v0z" />
    <glyph glyph-name="circle" unicode="&#xf111;" 
d="M256 448q-72 -1 -129 -35v0q-58 -34 -92 -92v0q-34 -57 -35 -129q1 -72 35 -129q34 -58 92 -92q57 -34 129 -35q72 1 129 35q58 34 92 92q34 57 35 129q-1 72 -35 129q-34 58 -92 92q-57 34 -129 35v0zM256 -16q-88 2 -147 61v0q-59 59 -61 147q2 88 61 147t147 61
q88 -2 147 -61t61 -147q-2 -88 -61 -147t-147 -61v0z" />
    <glyph glyph-name="circle" unicode="&#xf10c;" 
d="M256 448q-72 -1 -129 -35v0q-58 -34 -92 -92v0q-34 -57 -35 -129q1 -72 35 -129q34 -58 92 -92q57 -34 129 -35q72 1 129 35q58 34 92 92q34 57 35 129q-1 72 -35 129q-34 58 -92 92q-57 34 -129 35v0zM256 -16q-88 2 -147 61v0q-59 59 -61 147q2 88 61 147t147 61
q88 -2 147 -61t61 -147q-2 -88 -61 -147t-147 -61v0z" />
    <glyph glyph-name="circle" unicode="&#x2b24;" 
d="M256 448q-72 -1 -129 -35v0q-58 -34 -92 -92v0q-34 -57 -35 -129q1 -72 35 -129q34 -58 92 -92q57 -34 129 -35q72 1 129 35q58 34 92 92q34 57 35 129q-1 72 -35 129q-34 58 -92 92q-57 34 -129 35v0zM256 -16q-88 2 -147 61v0q-59 59 -61 147q2 88 61 147t147 61
q88 -2 147 -61t61 -147q-2 -88 -61 -147t-147 -61v0z" />
    <glyph glyph-name="circle" unicode="&#x26ab;" 
d="M256 448q-72 -1 -129 -35v0q-58 -34 -92 -92v0q-34 -57 -35 -129q1 -72 35 -129q34 -58 92 -92q57 -34 129 -35q72 1 129 35q58 34 92 92q34 57 35 129q-1 72 -35 129q-34 58 -92 92q-57 34 -129 35v0zM256 -16q-88 2 -147 61v0q-59 59 -61 147q2 88 61 147t147 61
q88 -2 147 -61t61 -147q-2 -88 -61 -147t-147 -61v0z" />
    <glyph glyph-name="circle" unicode="&#x26aa;" 
d="M256 448q-72 -1 -129 -35v0q-58 -34 -92 -92v0q-34 -57 -35 -129q1 -72 35 -129q34 -58 92 -92q57 -34 129 -35q72 1 129 35q58 34 92 92q34 57 35 129q-1 72 -35 129q-34 58 -92 92q-57 34 -129 35v0zM256 -16q-88 2 -147 61v0q-59 59 -61 147q2 88 61 147t147 61
q88 -2 147 -61t61 -147q-2 -88 -61 -147t-147 -61v0z" />
    <glyph glyph-name="circle" unicode="&#x25cf;" 
d="M256 448q-72 -1 -129 -35v0q-58 -34 -92 -92v0q-34 -57 -35 -129q1 -72 35 -129q34 -58 92 -92q57 -34 129 -35q72 1 129 35q58 34 92 92q34 57 35 129q-1 72 -35 129q-34 58 -92 92q-57 34 -129 35v0zM256 -16q-88 2 -147 61v0q-59 59 -61 147q2 88 61 147t147 61
q88 -2 147 -61t61 -147q-2 -88 -61 -147t-147 -61v0z" />
    <glyph glyph-name="circle-half-stroke" unicode="&#xf042;" 
d="M256 448q-72 -1 -129 -35v0q-58 -34 -92 -92v0q-34 -57 -35 -129q1 -72 35 -129q34 -58 92 -92q57 -34 129 -35q72 1 129 35q58 34 92 92q34 57 35 129q-1 72 -35 129q-34 58 -92 92q-57 34 -129 35v0zM256 -16v416q88 -2 147 -61t61 -147q-2 -88 -61 -147t-147 -61v0z
" />
    <glyph glyph-name="circle-half-stroke" unicode="&#x25d0;" 
d="M256 448q-72 -1 -129 -35v0q-58 -34 -92 -92v0q-34 -57 -35 -129q1 -72 35 -129q34 -58 92 -92q57 -34 129 -35q72 1 129 35q58 34 92 92q34 57 35 129q-1 72 -35 129q-34 58 -92 92q-57 34 -129 35v0zM256 -16v416q88 -2 147 -61t61 -147q-2 -88 -61 -147t-147 -61v0z
" />
    <glyph glyph-name="sun" unicode="&#xf185;" 
d="M505 123l-48 69l48 69q11 17 4 36q-8 18 -28 23l-83 14l-14 83q-5 20 -23 28q-19 7 -36 -4l-69 -47l-69 47q-17 11 -36 4q-18 -8 -23 -28l-14 -83l-83 -14q-20 -5 -28 -23q-7 -19 4 -36l48 -69l-48 -69q-11 -17 -4 -36q8 -18 28 -23l83 -14l14 -83q5 -20 23 -28
q19 -7 36 4l69 47l69 -47q10 -7 21 -7q8 0 15 3q18 8 23 28l14 83l83 14q20 5 28 23q7 19 -4 36v0zM457 109l-100 -18l-18 -100l-83 58l-83 -58l-18 100l-100 18l58 84l-58 82l100 18l18 100l83 -58l83 58l18 -100l100 -18l-58 -82l58 -84v0zM256 305q-48 -1 -79 -33v0
q-31 -31 -32 -78q1 -48 33 -79q31 -31 78 -32q47 1 78 32q32 32 33 79q-1 46 -32 78t-79 33v0zM256 129q-27 1 -45 19v0q-18 18 -19 45q1 27 19 45q18 17 45 18q27 -1 45 -19t19 -44q-1 -27 -19 -45t-45 -19v0z" />
    <glyph glyph-name="sun" unicode="&#x2600;" 
d="M505 123l-48 69l48 69q11 17 4 36q-8 18 -28 23l-83 14l-14 83q-5 20 -23 28q-19 7 -36 -4l-69 -47l-69 47q-17 11 -36 4q-18 -8 -23 -28l-14 -83l-83 -14q-20 -5 -28 -23q-7 -19 4 -36l48 -69l-48 -69q-11 -17 -4 -36q8 -18 28 -23l83 -14l14 -83q5 -20 23 -28
q19 -7 36 4l69 47l69 -47q10 -7 21 -7q8 0 15 3q18 8 23 28l14 83l83 14q20 5 28 23q7 19 -4 36v0zM457 109l-100 -18l-18 -100l-83 58l-83 -58l-18 100l-100 18l58 84l-58 82l100 18l18 100l83 -58l83 58l18 -100l100 -18l-58 -82l58 -84v0zM256 305q-48 -1 -79 -33v0
q-31 -31 -32 -78q1 -48 33 -79q31 -31 78 -32q47 1 78 32q32 32 33 79q-1 46 -32 78t-79 33v0zM256 129q-27 1 -45 19v0q-18 18 -19 45q1 27 19 45q18 17 45 18q27 -1 45 -19t19 -44q-1 -27 -19 -45t-45 -19v0z" />
    <glyph glyph-name="cloud" unicode="&#xf0c2;" horiz-adv-x="640" 
d="M543 233q0 2 1 3v0v4q-1 48 -33 79q-31 32 -79 33q-17 0 -33 -5q-23 31 -58 50t-77 19q-72 -2 -119 -50q-48 -47 -49 -119q-43 -15 -69 -51t-27 -84q2 -61 42 -102q41 -40 102 -42h360q58 1 96 40q39 38 40 96q-1 47 -27 81q-27 35 -70 48v0zM504 16h-360q-41 1 -68 28
t-28 68q0 31 18 55q17 24 46 35l32 11v19v15v4q2 50 36 83t84 34q60 -1 97 -50l20 -27l32 10q38 9 61 -12q22 -22 21 -53l-2 -37l36 -11q29 -9 46 -32t17 -52q-1 -37 -26 -62t-62 -26v0z" />
    <glyph glyph-name="cloud" unicode="&#x2601;" horiz-adv-x="640" 
d="M543 233q0 2 1 3v0v4q-1 48 -33 79q-31 32 -79 33q-17 0 -33 -5q-23 31 -58 50t-77 19q-72 -2 -119 -50q-48 -47 -49 -119q-43 -15 -69 -51t-27 -84q2 -61 42 -102q41 -40 102 -42h360q58 1 96 40q39 38 40 96q-1 47 -27 81q-27 35 -70 48v0zM504 16h-360q-41 1 -68 28
t-28 68q0 31 18 55q17 24 46 35l32 11v19v15v4q2 50 36 83t84 34q60 -1 97 -50l20 -27l32 10q38 9 61 -12q22 -22 21 -53l-2 -37l36 -11q29 -9 46 -32t17 -52q-1 -37 -26 -62t-62 -26v0z" />
    <glyph glyph-name="snowman" unicode="&#xf7d0;" 
d="M255 160q-14 -2 -16 -16q2 -15 16 -16q15 1 16 16q-1 14 -16 16v0zM255 224q-14 -2 -16 -16q2 -15 16 -16q15 1 16 16q-1 14 -16 16v0zM223 360q-14 -1 -16 -16q2 -15 16 -16q15 1 16 16q-1 15 -16 16v0zM255 96q-14 -2 -16 -16q2 -15 16 -16q15 1 16 16q-1 14 -16 16v0z
M511 264l-6 14q-7 13 -21 9l-28 -12v29q-1 15 -16 16h-16q-15 -1 -16 -16v-47v0v-1l-26 -11q-5 14 -14 27q12 25 12 52q-2 53 -37 88t-88 36q-53 -1 -88 -36t-36 -88q0 -27 12 -52q-9 -13 -14 -27l-26 11v1v0v47q-1 15 -16 16h-15q-15 -1 -16 -16v-29l-28 12q-14 5 -21 -9
l-6 -14q-4 -14 9 -21l110 -45v-1v-1q0 -11 2 -22q-28 -41 -28 -91q0 -42 20 -77q20 -36 56 -59q17 -11 41 -11h90q26 0 47 15q40 28 58 71q17 43 9 91q-6 33 -25 61q2 11 2 22v1v1l110 45q13 7 9 21v0zM321 -9q-10 -6 -20 -6h-90q-8 -1 -16 3q-25 17 -39 42t-14 54
q0 39 25 70l7 10l-4 10q-3 13 -3 22q0 20 7 35q7 14 15 23l12 14l-10 15q-11 19 -11 41q1 32 22 54q22 21 54 22q32 -1 54 -22q21 -22 22 -54q0 -22 -12 -41l-10 -15l12 -14q8 -9 15 -23q6 -15 7 -35q0 -10 -3 -22l-3 -11l7 -9q18 -23 23 -49q6 -35 -7 -65q-12 -30 -40 -49
v0zM287 360q-14 -1 -16 -16q2 -15 16 -16q15 1 16 16q-1 15 -16 16v0zM255 320q-14 -2 -16 -16q1 -8 8 -19q7 -12 8 -13q1 1 8 13q7 11 8 19q-1 14 -16 16v0z" />
    <glyph glyph-name="snowman" unicode="&#x26c4;" 
d="M255 160q-14 -2 -16 -16q2 -15 16 -16q15 1 16 16q-1 14 -16 16v0zM255 224q-14 -2 -16 -16q2 -15 16 -16q15 1 16 16q-1 14 -16 16v0zM223 360q-14 -1 -16 -16q2 -15 16 -16q15 1 16 16q-1 15 -16 16v0zM255 96q-14 -2 -16 -16q2 -15 16 -16q15 1 16 16q-1 14 -16 16v0z
M511 264l-6 14q-7 13 -21 9l-28 -12v29q-1 15 -16 16h-16q-15 -1 -16 -16v-47v0v-1l-26 -11q-5 14 -14 27q12 25 12 52q-2 53 -37 88t-88 36q-53 -1 -88 -36t-36 -88q0 -27 12 -52q-9 -13 -14 -27l-26 11v1v0v47q-1 15 -16 16h-15q-15 -1 -16 -16v-29l-28 12q-14 5 -21 -9
l-6 -14q-4 -14 9 -21l110 -45v-1v-1q0 -11 2 -22q-28 -41 -28 -91q0 -42 20 -77q20 -36 56 -59q17 -11 41 -11h90q26 0 47 15q40 28 58 71q17 43 9 91q-6 33 -25 61q2 11 2 22v1v1l110 45q13 7 9 21v0zM321 -9q-10 -6 -20 -6h-90q-8 -1 -16 3q-25 17 -39 42t-14 54
q0 39 25 70l7 10l-4 10q-3 13 -3 22q0 20 7 35q7 14 15 23l12 14l-10 15q-11 19 -11 41q1 32 22 54q22 21 54 22q32 -1 54 -22q21 -22 22 -54q0 -22 -12 -41l-10 -15l12 -14q8 -9 15 -23q6 -15 7 -35q0 -10 -3 -22l-3 -11l7 -9q18 -23 23 -49q6 -35 -7 -65q-12 -30 -40 -49
v0zM287 360q-14 -1 -16 -16q2 -15 16 -16q15 1 16 16q-1 15 -16 16v0zM255 320q-14 -2 -16 -16q1 -8 8 -19q7 -12 8 -13q1 1 8 13q7 11 8 19q-1 14 -16 16v0z" />
    <glyph glyph-name="snowman" unicode="&#x2603;" 
d="M255 160q-14 -2 -16 -16q2 -15 16 -16q15 1 16 16q-1 14 -16 16v0zM255 224q-14 -2 -16 -16q2 -15 16 -16q15 1 16 16q-1 14 -16 16v0zM223 360q-14 -1 -16 -16q2 -15 16 -16q15 1 16 16q-1 15 -16 16v0zM255 96q-14 -2 -16 -16q2 -15 16 -16q15 1 16 16q-1 14 -16 16v0z
M511 264l-6 14q-7 13 -21 9l-28 -12v29q-1 15 -16 16h-16q-15 -1 -16 -16v-47v0v-1l-26 -11q-5 14 -14 27q12 25 12 52q-2 53 -37 88t-88 36q-53 -1 -88 -36t-36 -88q0 -27 12 -52q-9 -13 -14 -27l-26 11v1v0v47q-1 15 -16 16h-15q-15 -1 -16 -16v-29l-28 12q-14 5 -21 -9
l-6 -14q-4 -14 9 -21l110 -45v-1v-1q0 -11 2 -22q-28 -41 -28 -91q0 -42 20 -77q20 -36 56 -59q17 -11 41 -11h90q26 0 47 15q40 28 58 71q17 43 9 91q-6 33 -25 61q2 11 2 22v1v1l110 45q13 7 9 21v0zM321 -9q-10 -6 -20 -6h-90q-8 -1 -16 3q-25 17 -39 42t-14 54
q0 39 25 70l7 10l-4 10q-3 13 -3 22q0 20 7 35q7 14 15 23l12 14l-10 15q-11 19 -11 41q1 32 22 54q22 21 54 22q32 -1 54 -22q21 -22 22 -54q0 -22 -12 -41l-10 -15l12 -14q8 -9 15 -23q6 -15 7 -35q0 -10 -3 -22l-3 -11l7 -9q18 -23 23 -49q6 -35 -7 -65q-12 -30 -40 -49
v0zM287 360q-14 -1 -16 -16q2 -15 16 -16q15 1 16 16q-1 15 -16 16v0zM255 320q-14 -2 -16 -16q1 -8 8 -19q7 -12 8 -13q1 1 8 13q7 11 8 19q-1 14 -16 16v0z" />
    <glyph glyph-name="meteor" unicode="&#xf753;" 
d="M511 405q-7 -22 -21 -65v0q-14 -43 -32 -88q16 -6 23 -22q5 -17 -2 -32q-12 -22 -33 -59q-21 -36 -48 -76q-27 -39 -56 -68q-62 -59 -142 -59t-141 59q-59 61 -59 142q0 80 59 141q29 29 68 56q40 27 76 48q37 21 59 33q15 8 32 1q15 -7 22 -23q45 18 88 32q42 14 65 21
q19 5 33 -9q14 -13 9 -32v0zM393 221l11 25q16 37 29 77q14 39 24 70q-31 -10 -70 -24q-40 -13 -77 -29l-25 -11q0 2 -5 18q-4 15 -6 20q-33 -17 -87 -51q-55 -34 -94 -72q-45 -47 -45 -107q0 -61 45 -108q45 -44 108 -45q62 1 107 45q38 39 71 92t52 89l-12 4l-26 7v0z
M311 137q-1 -48 -33 -79v0q-31 -32 -79 -33q-48 1 -79 33q-32 31 -33 79q1 48 33 79q32 32 79 33q48 -1 80 -33q31 -32 32 -79v0zM199 161q-2 22 -24 24q-22 -2 -24 -24q2 -22 24 -24q10 0 17 7q8 6 7 17v0zM231 89q-1 15 -16 16q-14 -1 -16 -16q2 -15 16 -16q15 1 16 16v0z
" />
    <glyph glyph-name="meteor" unicode="&#x2604;" 
d="M511 405q-7 -22 -21 -65v0q-14 -43 -32 -88q16 -6 23 -22q5 -17 -2 -32q-12 -22 -33 -59q-21 -36 -48 -76q-27 -39 -56 -68q-62 -59 -142 -59t-141 59q-59 61 -59 142q0 80 59 141q29 29 68 56q40 27 76 48q37 21 59 33q15 8 32 1q15 -7 22 -23q45 18 88 32q42 14 65 21
q19 5 33 -9q14 -13 9 -32v0zM393 221l11 25q16 37 29 77q14 39 24 70q-31 -10 -70 -24q-40 -13 -77 -29l-25 -11q0 2 -5 18q-4 15 -6 20q-33 -17 -87 -51q-55 -34 -94 -72q-45 -47 -45 -107q0 -61 45 -108q45 -44 108 -45q62 1 107 45q38 39 71 92t52 89l-12 4l-26 7v0z
M311 137q-1 -48 -33 -79v0q-31 -32 -79 -33q-48 1 -79 33q-32 31 -33 79q1 48 33 79q32 32 79 33q48 -1 80 -33q31 -32 32 -79v0zM199 161q-2 22 -24 24q-22 -2 -24 -24q2 -22 24 -24q10 0 17 7q8 6 7 17v0zM231 89q-1 15 -16 16q-14 -1 -16 -16q2 -15 16 -16q15 1 16 16v0z
" />
    <glyph glyph-name="phone-rotary" unicode="&#xf8d3;" 
d="M370 256q-19 31 -55 32h-118q-36 -1 -55 -32l-106 -185q-4 -7 -4 -16v-55q0 -14 9 -23t23 -9h384q14 0 23 9t9 23v55q0 9 -4 16l-106 185v0zM432 16h-352v35l103 181q5 8 14 8h118q9 0 14 -8l103 -181v-35v0zM256 192q-27 -1 -45 -19v0q-18 -18 -19 -45q1 -27 19 -45
t45 -19q27 1 45 19t19 45q-1 27 -19 45t-45 19v0zM506 325q-52 44 -117 67v0q-64 24 -133 24t-133 -24q-65 -23 -117 -67q-6 -5 -6 -13v-56q1 -15 16 -16h70q10 0 14 9l28 71q60 25 128 24q68 1 128 -24l28 -71q4 -9 14 -9h70q15 1 16 16v56q0 8 -6 13v0z" />
    <glyph glyph-name="phone-rotary" unicode="&#x260e;" 
d="M370 256q-19 31 -55 32h-118q-36 -1 -55 -32l-106 -185q-4 -7 -4 -16v-55q0 -14 9 -23t23 -9h384q14 0 23 9t9 23v55q0 9 -4 16l-106 185v0zM432 16h-352v35l103 181q5 8 14 8h118q9 0 14 -8l103 -181v-35v0zM256 192q-27 -1 -45 -19v0q-18 -18 -19 -45q1 -27 19 -45
t45 -19q27 1 45 19t19 45q-1 27 -19 45t-45 19v0zM506 325q-52 44 -117 67v0q-64 24 -133 24t-133 -24q-65 -23 -117 -67q-6 -5 -6 -13v-56q1 -15 16 -16h70q10 0 14 9l28 71q60 25 128 24q68 1 128 -24l28 -71q4 -9 14 -9h70q15 1 16 16v56q0 8 -6 13v0z" />
    <glyph glyph-name="square-check" unicode="&#xf14a;" horiz-adv-x="448" 
d="M384 416h-320q-27 -1 -45 -19t-19 -45v-320q1 -27 19 -45t45 -19h320q27 1 45 19t19 45v320q-1 27 -19 45t-45 19v0zM400 32q-1 -15 -16 -16h-320q-15 1 -16 16v320q1 15 16 16h320q15 -1 16 -16v-320v0zM303 273l-111 -111l-48 47q-17 14 -34 0q-14 -17 0 -34l64 -64
q9 -7 18 -7q10 0 17 7l128 128q14 17 0 34q-17 14 -34 0v0z" />
    <glyph glyph-name="square-check" unicode="&#xf046;" horiz-adv-x="448" 
d="M384 416h-320q-27 -1 -45 -19t-19 -45v-320q1 -27 19 -45t45 -19h320q27 1 45 19t19 45v320q-1 27 -19 45t-45 19v0zM400 32q-1 -15 -16 -16h-320q-15 1 -16 16v320q1 15 16 16h320q15 -1 16 -16v-320v0zM303 273l-111 -111l-48 47q-17 14 -34 0q-14 -17 0 -34l64 -64
q9 -7 18 -7q10 0 17 7l128 128q14 17 0 34q-17 14 -34 0v0z" />
    <glyph glyph-name="square-check" unicode="&#x2705;" horiz-adv-x="448" 
d="M384 416h-320q-27 -1 -45 -19t-19 -45v-320q1 -27 19 -45t45 -19h320q27 1 45 19t19 45v320q-1 27 -19 45t-45 19v0zM400 32q-1 -15 -16 -16h-320q-15 1 -16 16v320q1 15 16 16h320q15 -1 16 -16v-320v0zM303 273l-111 -111l-48 47q-17 14 -34 0q-14 -17 0 -34l64 -64
q9 -7 18 -7q10 0 17 7l128 128q14 17 0 34q-17 14 -34 0v0z" />
    <glyph glyph-name="square-check" unicode="&#x2611;" horiz-adv-x="448" 
d="M384 416h-320q-27 -1 -45 -19t-19 -45v-320q1 -27 19 -45t45 -19h320q27 1 45 19t19 45v320q-1 27 -19 45t-45 19v0zM400 32q-1 -15 -16 -16h-320q-15 1 -16 16v320q1 15 16 16h320q15 -1 16 -16v-320v0zM303 273l-111 -111l-48 47q-17 14 -34 0q-14 -17 0 -34l64 -64
q9 -7 18 -7q10 0 17 7l128 128q14 17 0 34q-17 14 -34 0v0z" />
    <glyph glyph-name="mug-hot" unicode="&#xf7b6;" 
d="M400 256h-368q-14 0 -23 -9t-9 -23v-192q1 -41 28 -68t68 -28h192q41 1 68 28t28 68h16q48 1 79 33q32 31 33 79q-1 48 -33 79q-31 32 -79 33v0zM336 32q-1 -20 -14 -34v0q-14 -13 -34 -14h-192q-20 1 -34 14q-13 14 -14 34v176h288v-176v0zM400 80h-16v128h16
q27 -1 45 -19t19 -45q-1 -27 -19 -45t-45 -19v0zM108 347q19 -11 20 -35q2 -22 24 -24q10 0 17 8q7 7 7 16q0 24 -12 44q-11 21 -32 33q-19 12 -20 35q-2 22 -24 24q-22 -2 -24 -24q0 -24 12 -44q11 -21 32 -33v0zM220 347q19 -11 20 -35q2 -22 24 -24q10 0 17 8q7 7 7 16
q0 24 -12 44q-11 21 -32 33q-19 12 -20 35q-2 22 -24 24q-22 -2 -24 -24q0 -24 12 -44q11 -21 32 -33v0z" />
    <glyph glyph-name="mug-hot" unicode="&#x2615;" 
d="M400 256h-368q-14 0 -23 -9t-9 -23v-192q1 -41 28 -68t68 -28h192q41 1 68 28t28 68h16q48 1 79 33q32 31 33 79q-1 48 -33 79q-31 32 -79 33v0zM336 32q-1 -20 -14 -34v0q-14 -13 -34 -14h-192q-20 1 -34 14q-13 14 -14 34v176h288v-176v0zM400 80h-16v128h16
q27 -1 45 -19t19 -45q-1 -27 -19 -45t-45 -19v0zM108 347q19 -11 20 -35q2 -22 24 -24q10 0 17 8q7 7 7 16q0 24 -12 44q-11 21 -32 33q-19 12 -20 35q-2 22 -24 24q-22 -2 -24 -24q0 -24 12 -44q11 -21 32 -33v0zM220 347q19 -11 20 -35q2 -22 24 -24q10 0 17 8q7 7 7 16
q0 24 -12 44q-11 21 -32 33q-19 12 -20 35q-2 22 -24 24q-22 -2 -24 -24q0 -24 12 -44q11 -21 32 -33v0z" />
    <glyph glyph-name="hand-point-up" unicode="&#xf0a6;" horiz-adv-x="448" 
d="M376 256q-10 0 -19 -2q-20 32 -61 34q-10 0 -19 -2q-20 32 -61 34h-8v56q-1 31 -21 51t-51 21q-31 -1 -51 -21t-21 -51v-196q-31 -26 -32 -68v-50q0 -24 12 -45q12 -20 33 -32l55 -31q32 -18 68 -18h108q59 2 99 42q39 41 41 102v104q-1 31 -21 51t-51 21v0zM272 216
q2 22 24 24q22 -2 24 -24v-48q-2 -22 -24 -24q-22 2 -24 24v48v0zM192 248q2 22 24 24q22 -2 24 -24v-48q0 -5 -2 -9q-15 9 -34 9h-12v48v0zM112 376q2 22 24 24q22 -2 24 -24v-176h-40h-5q-1 -1 -3 -1v1v0v176v0zM308 -16h-108q-23 0 -44 12l-56 31q-19 12 -20 35v50
q0 17 12 28q11 12 28 12h84q12 0 20 -8t8 -20t-8 -20t-20 -8h-52q-22 -2 -24 -24q2 -22 24 -24h52q25 0 44 15q19 14 28 36q9 -3 20 -3q7 0 13 2h2q18 -39 65 -42q12 0 22 4q-8 -33 -32 -54t-58 -22v0zM400 128q-2 -22 -24 -24q-22 2 -24 24v56q2 22 24 24q22 -2 24 -24v-56
v0z" />
    <glyph glyph-name="hand-point-up" unicode="&#x261d;" horiz-adv-x="448" 
d="M376 256q-10 0 -19 -2q-20 32 -61 34q-10 0 -19 -2q-20 32 -61 34h-8v56q-1 31 -21 51t-51 21q-31 -1 -51 -21t-21 -51v-196q-31 -26 -32 -68v-50q0 -24 12 -45q12 -20 33 -32l55 -31q32 -18 68 -18h108q59 2 99 42q39 41 41 102v104q-1 31 -21 51t-51 21v0zM272 216
q2 22 24 24q22 -2 24 -24v-48q-2 -22 -24 -24q-22 2 -24 24v48v0zM192 248q2 22 24 24q22 -2 24 -24v-48q0 -5 -2 -9q-15 9 -34 9h-12v48v0zM112 376q2 22 24 24q22 -2 24 -24v-176h-40h-5q-1 -1 -3 -1v1v0v176v0zM308 -16h-108q-23 0 -44 12l-56 31q-19 12 -20 35v50
q0 17 12 28q11 12 28 12h84q12 0 20 -8t8 -20t-8 -20t-20 -8h-52q-22 -2 -24 -24q2 -22 24 -24h52q25 0 44 15q19 14 28 36q9 -3 20 -3q7 0 13 2h2q18 -39 65 -42q12 0 22 4q-8 -33 -32 -54t-58 -22v0zM400 128q-2 -22 -24 -24q-22 2 -24 24v56q2 22 24 24q22 -2 24 -24v-56
v0z" />
    <glyph glyph-name="skull-crossbones" unicode="&#x1f571;" horiz-adv-x="448" 
d="M263 289q22 2 23 23q0 10 -7 17q-6 7 -16 7q-21 -2 -23 -24q2 -21 23 -23v0zM184 289q21 2 23 23q0 10 -7 17q-6 7 -16 7q-21 -2 -23 -24q2 -21 23 -23v0zM136 219l-7 -34q-3 -22 16 -24h158q9 0 13 8q5 7 4 17l-8 34q26 18 41 44t15 57q-2 54 -42 90q-41 36 -102 37
q-61 -1 -102 -37q-40 -36 -42 -90q0 -31 15 -57q15 -27 41 -45v0zM224 401q41 -1 68 -24v0q27 -22 28 -56q-1 -36 -35 -61l-26 -18l7 -33h-83l6 33l-26 17q-34 24 -35 62q1 33 28 56t68 24v0zM435 -19l-159 83l159 83q19 12 10 32q-12 19 -32 10l-189 -97l-189 97
q-20 9 -32 -10q-9 -20 10 -32l158 -83l-159 -83q-19 -12 -10 -32q8 -13 22 -13q6 0 11 3l189 98l189 -98q6 -3 10 -3q14 0 21 13q10 20 -9 32v0z" />
    <glyph glyph-name="skull-crossbones" unicode="&#xf714;" horiz-adv-x="448" 
d="M263 289q22 2 23 23q0 10 -7 17q-6 7 -16 7q-21 -2 -23 -24q2 -21 23 -23v0zM184 289q21 2 23 23q0 10 -7 17q-6 7 -16 7q-21 -2 -23 -24q2 -21 23 -23v0zM136 219l-7 -34q-3 -22 16 -24h158q9 0 13 8q5 7 4 17l-8 34q26 18 41 44t15 57q-2 54 -42 90q-41 36 -102 37
q-61 -1 -102 -37q-40 -36 -42 -90q0 -31 15 -57q15 -27 41 -45v0zM224 401q41 -1 68 -24v0q27 -22 28 -56q-1 -36 -35 -61l-26 -18l7 -33h-83l6 33l-26 17q-34 24 -35 62q1 33 28 56t68 24v0zM435 -19l-159 83l159 83q19 12 10 32q-12 19 -32 10l-189 -97l-189 97
q-20 9 -32 -10q-9 -20 10 -32l158 -83l-159 -83q-19 -12 -10 -32q8 -13 22 -13q6 0 11 3l189 98l189 -98q6 -3 10 -3q14 0 21 13q10 20 -9 32v0z" />
    <glyph glyph-name="skull-crossbones" unicode="&#x2620;" horiz-adv-x="448" 
d="M263 289q22 2 23 23q0 10 -7 17q-6 7 -16 7q-21 -2 -23 -24q2 -21 23 -23v0zM184 289q21 2 23 23q0 10 -7 17q-6 7 -16 7q-21 -2 -23 -24q2 -21 23 -23v0zM136 219l-7 -34q-3 -22 16 -24h158q9 0 13 8q5 7 4 17l-8 34q26 18 41 44t15 57q-2 54 -42 90q-41 36 -102 37
q-61 -1 -102 -37q-40 -36 -42 -90q0 -31 15 -57q15 -27 41 -45v0zM224 401q41 -1 68 -24v0q27 -22 28 -56q-1 -36 -35 -61l-26 -18l7 -33h-83l6 33l-26 17q-34 24 -35 62q1 33 28 56t68 24v0zM435 -19l-159 83l159 83q19 12 10 32q-12 19 -32 10l-189 -97l-189 97
q-20 9 -32 -10q-9 -20 10 -32l158 -83l-159 -83q-19 -12 -10 -32q8 -13 22 -13q6 0 11 3l189 98l189 -98q6 -3 10 -3q14 0 21 13q10 20 -9 32v0z" />
    <glyph glyph-name="circle-radiation" unicode="&#xf7ba;" 
d="M256 432q-67 -1 -121 -33v0q-54 -32 -86 -86v0q-32 -54 -33 -121q1 -67 33 -121t86 -86t121 -33q67 1 121 33t86 86t33 121q-1 67 -33 121t-86 86t-121 33v0zM256 0q-81 2 -136 56v0q-54 55 -56 136q2 81 56 136q55 54 136 56q81 -2 136 -56q54 -55 56 -136
q-2 -81 -56 -136q-55 -54 -136 -56v0zM226 239l-41 67q-10 13 -24 4q-47 -38 -56 -99q0 -17 16 -19h79q1 31 26 47v0zM256 160q14 0 23 9v0q9 9 9 23t-9 23t-23 9t-23 -9t-9 -23t9 -23t23 -9v0zM286 145q-14 -9 -30 -9q-17 0 -30 9l-41 -67q-7 -15 7 -23q29 -15 64 -15
t64 15q14 8 7 23l-41 67v0zM351 310q-13 9 -24 -4l-41 -67q25 -16 26 -47h79q16 2 16 19q-9 61 -56 99v0z" />
    <glyph glyph-name="circle-radiation" unicode="&#x2622;" 
d="M256 432q-67 -1 -121 -33v0q-54 -32 -86 -86v0q-32 -54 -33 -121q1 -67 33 -121t86 -86t121 -33q67 1 121 33t86 86t33 121q-1 67 -33 121t-86 86t-121 33v0zM256 0q-81 2 -136 56v0q-54 55 -56 136q2 81 56 136q55 54 136 56q81 -2 136 -56q54 -55 56 -136
q-2 -81 -56 -136q-55 -54 -136 -56v0zM226 239l-41 67q-10 13 -24 4q-47 -38 -56 -99q0 -17 16 -19h79q1 31 26 47v0zM256 160q14 0 23 9v0q9 9 9 23t-9 23t-23 9t-23 -9t-9 -23t9 -23t23 -9v0zM286 145q-14 -9 -30 -9q-17 0 -30 9l-41 -67q-7 -15 7 -23q29 -15 64 -15
t64 15q14 8 7 23l-41 67v0zM351 310q-13 9 -24 -4l-41 -67q25 -16 26 -47h79q16 2 16 19q-9 61 -56 99v0z" />
    <glyph glyph-name="biohazard" unicode="&#xf780;" horiz-adv-x="576" 
d="M287 336q28 0 53 -10q20 16 29 41q-37 17 -81 17t-82 -17q9 -25 30 -41q24 10 51 10v0zM388 52q6 -24 24 -43q36 27 58 67q22 39 25 87q-10 3 -22 3q-14 0 -26 -5q-8 -67 -59 -109v0zM164 9q18 19 24 43q-51 41 -59 109q-12 5 -26 5q-12 0 -23 -3q4 -47 26 -87
q22 -39 58 -67v0zM576 164q-21 61 -75 93q-26 15 -55 20q10 26 10 56q-1 63 -41 112q-4 5 -10 2q-5 -4 -4 -10q7 -20 7 -38q-1 -52 -35 -87t-85 -36q-51 1 -85 36t-35 87q0 18 7 38q1 6 -4 10q-6 3 -10 -2q-40 -49 -41 -112q1 -30 10 -56q-29 -5 -55 -20q-53 -32 -75 -92
q-1 -7 4 -10q6 -3 10 1q14 17 29 25q45 25 91 13q46 -13 73 -58q24 -45 12 -92q-12 -48 -56 -75q-15 -9 -36 -14q-6 -2 -6 -8t6 -8q62 -11 116 20q27 16 45 40q18 -24 45 -40q54 -31 115 -20q7 2 7 8t-6 8q-21 5 -36 14q-44 27 -56 74q-12 48 12 93q26 45 73 58
q46 12 91 -13q15 -9 29 -25q4 -4 10 -1q5 3 4 9v0zM287 128q-20 0 -34 14v0q-13 13 -14 34q1 20 14 34q14 13 34 14q20 -1 34 -14q14 -14 14 -34t-14 -34q-13 -14 -34 -14v0z" />
    <glyph glyph-name="biohazard" unicode="&#x2623;" horiz-adv-x="576" 
d="M287 336q28 0 53 -10q20 16 29 41q-37 17 -81 17t-82 -17q9 -25 30 -41q24 10 51 10v0zM388 52q6 -24 24 -43q36 27 58 67q22 39 25 87q-10 3 -22 3q-14 0 -26 -5q-8 -67 -59 -109v0zM164 9q18 19 24 43q-51 41 -59 109q-12 5 -26 5q-12 0 -23 -3q4 -47 26 -87
q22 -39 58 -67v0zM576 164q-21 61 -75 93q-26 15 -55 20q10 26 10 56q-1 63 -41 112q-4 5 -10 2q-5 -4 -4 -10q7 -20 7 -38q-1 -52 -35 -87t-85 -36q-51 1 -85 36t-35 87q0 18 7 38q1 6 -4 10q-6 3 -10 -2q-40 -49 -41 -112q1 -30 10 -56q-29 -5 -55 -20q-53 -32 -75 -92
q-1 -7 4 -10q6 -3 10 1q14 17 29 25q45 25 91 13q46 -13 73 -58q24 -45 12 -92q-12 -48 -56 -75q-15 -9 -36 -14q-6 -2 -6 -8t6 -8q62 -11 116 20q27 16 45 40q18 -24 45 -40q54 -31 115 -20q7 2 7 8t-6 8q-21 5 -36 14q-44 27 -56 74q-12 48 12 93q26 45 73 58
q46 12 91 -13q15 -9 29 -25q4 -4 10 -1q5 3 4 9v0zM287 128q-20 0 -34 14v0q-13 13 -14 34q1 20 14 34q14 13 34 14q20 -1 34 -14q14 -14 14 -34t-14 -34q-13 -14 -34 -14v0z" />
    <glyph glyph-name="ankh" unicode="&#xf644;" horiz-adv-x="320" 
d="M296 176h-69q23 28 39 63q15 36 16 72q-1 64 -36 100q-34 36 -86 37q-52 -1 -86 -37q-35 -36 -36 -100q1 -36 16 -72q16 -35 39 -63h-70q-21 -2 -23 -23q0 -10 7 -17q7 -8 16 -8h113v-168q2 -22 24 -24q22 2 24 23v169h112q22 2 24 24q-2 22 -24 24v0zM160 400
q34 -1 54 -25v0q19 -24 20 -64q-2 -43 -28 -82q-25 -39 -46 -52q-20 13 -46 52t-28 82q1 40 20 64q20 24 54 25v0z" />
    <glyph glyph-name="ankh" unicode="&#x2625;" horiz-adv-x="320" 
d="M296 176h-69q23 28 39 63q15 36 16 72q-1 64 -36 100q-34 36 -86 37q-52 -1 -86 -37q-35 -36 -36 -100q1 -36 16 -72q16 -35 39 -63h-70q-21 -2 -23 -23q0 -10 7 -17q7 -8 16 -8h113v-168q2 -22 24 -24q22 2 24 23v169h112q22 2 24 24q-2 22 -24 24v0zM160 400
q34 -1 54 -25v0q19 -24 20 -64q-2 -43 -28 -82q-25 -39 -46 -52q-20 13 -46 52t-28 82q1 40 20 64q20 24 54 25v0z" />
    <glyph glyph-name="star-and-crescent" unicode="&#xf699;" 
d="M341 -18q-2 0 -4 -1v0h-6q-89 2 -149 62q-59 60 -62 149q3 89 62 149q60 60 149 62h6q2 -1 4 -1q11 1 14 12q2 12 -9 18q-44 16 -90 16q-71 -1 -129 -35t-92 -92t-35 -129q1 -71 35 -129t92 -92t129 -35q46 0 89 16q10 4 11 15q-1 13 -15 15v0zM47 192q1 53 24 97v0
q24 44 64 72q-29 -34 -46 -77q-16 -43 -16 -92q2 -100 63 -170q-40 29 -64 73t-25 97v0zM504 234l-77 11l-34 69q-3 6 -9 6t-9 -6l-34 -69l-77 -11q-6 -1 -8 -7q-1 -5 3 -10l55 -54l-13 -76q-1 -11 10 -12q2 0 5 2l68 36l68 -36q3 -2 5 -2q10 1 10 12l-13 76l55 54q4 5 2 11
q-1 5 -7 6v0zM420 198l-18 -18l4 -25l-22 12l-22 -12l4 25l-18 18l25 3l11 23l11 -23l25 -3v0z" />
    <glyph glyph-name="star-and-crescent" unicode="&#x262a;" 
d="M341 -18q-2 0 -4 -1v0h-6q-89 2 -149 62q-59 60 -62 149q3 89 62 149q60 60 149 62h6q2 -1 4 -1q11 1 14 12q2 12 -9 18q-44 16 -90 16q-71 -1 -129 -35t-92 -92t-35 -129q1 -71 35 -129t92 -92t129 -35q46 0 89 16q10 4 11 15q-1 13 -15 15v0zM47 192q1 53 24 97v0
q24 44 64 72q-29 -34 -46 -77q-16 -43 -16 -92q2 -100 63 -170q-40 29 -64 73t-25 97v0zM504 234l-77 11l-34 69q-3 6 -9 6t-9 -6l-34 -69l-77 -11q-6 -1 -8 -7q-1 -5 3 -10l55 -54l-13 -76q-1 -11 10 -12q2 0 5 2l68 36l68 -36q3 -2 5 -2q10 1 10 12l-13 76l55 54q4 5 2 11
q-1 5 -7 6v0zM420 198l-18 -18l4 -25l-22 12l-22 -12l4 25l-18 18l25 3l11 23l11 -23l25 -3v0z" />
    <glyph glyph-name="khanda" unicode="&#xf66d;" horiz-adv-x="576" 
d="M448 383h-2v0q-3 1 -7 1q-7 0 -11 -5q-8 -9 -2 -20q25 -40 25 -87q-1 -40 -19 -75q-19 -35 -52 -57l-77 -54v20l44 37q6 6 3 15l-7 17q26 15 41 40t16 57q-1 31 -15 56q-15 25 -40 40l5 11q4 9 -3 15l-59 54l-59 -53q-7 -7 -4 -16l5 -11q-24 -15 -39 -40t-15 -56
q0 -32 16 -57q15 -25 41 -40l-9 -17q-2 -9 4 -16l43 -36v-20l-76 54q-33 23 -52 57q-18 35 -19 75q0 47 25 87q6 11 -2 19q-5 5 -12 5q-4 0 -8 -2q-60 -34 -84 -96q-23 -63 2 -133q11 -27 31 -49l56 -65q5 -6 12 -6q4 0 7 2l80 42l29 -20l-47 -33q-1 0 -2 1h-2
q-22 -2 -24 -24q2 -21 24 -23q19 2 23 21l41 28v-30q-15 -9 -16 -27q0 -14 9 -22q9 -9 22 -9t22 9t9 22q-1 18 -16 27v30l41 -28q4 -19 23 -21q22 2 24 24q-2 22 -24 24q-2 0 -3 -1h-2l-47 33l29 20l80 -42q3 -2 7 -2q7 0 12 6l53 61q28 33 41 75q16 64 -8 120
q-25 56 -81 88v0zM152 88l-40 46q-15 18 -22 36q-12 31 -10 61q18 -82 88 -131l3 -1l-19 -11v0zM360 272q-2 -40 -34 -61l-9 20q-13 38 0 76l12 24q29 -21 31 -59v0zM216 272q1 38 31 59l11 -24q13 -38 0 -76l-9 -20q-31 21 -33 61v0zM492 186q-8 -28 -32 -56l-35 -42
l-20 10l2 2q35 23 58 57q22 34 31 74q1 -21 -4 -45v0z" />
    <glyph glyph-name="khanda" unicode="&#x262c;" horiz-adv-x="576" 
d="M448 383h-2v0q-3 1 -7 1q-7 0 -11 -5q-8 -9 -2 -20q25 -40 25 -87q-1 -40 -19 -75q-19 -35 -52 -57l-77 -54v20l44 37q6 6 3 15l-7 17q26 15 41 40t16 57q-1 31 -15 56q-15 25 -40 40l5 11q4 9 -3 15l-59 54l-59 -53q-7 -7 -4 -16l5 -11q-24 -15 -39 -40t-15 -56
q0 -32 16 -57q15 -25 41 -40l-9 -17q-2 -9 4 -16l43 -36v-20l-76 54q-33 23 -52 57q-18 35 -19 75q0 47 25 87q6 11 -2 19q-5 5 -12 5q-4 0 -8 -2q-60 -34 -84 -96q-23 -63 2 -133q11 -27 31 -49l56 -65q5 -6 12 -6q4 0 7 2l80 42l29 -20l-47 -33q-1 0 -2 1h-2
q-22 -2 -24 -24q2 -21 24 -23q19 2 23 21l41 28v-30q-15 -9 -16 -27q0 -14 9 -22q9 -9 22 -9t22 9t9 22q-1 18 -16 27v30l41 -28q4 -19 23 -21q22 2 24 24q-2 22 -24 24q-2 0 -3 -1h-2l-47 33l29 20l80 -42q3 -2 7 -2q7 0 12 6l53 61q28 33 41 75q16 64 -8 120
q-25 56 -81 88v0zM152 88l-40 46q-15 18 -22 36q-12 31 -10 61q18 -82 88 -131l3 -1l-19 -11v0zM360 272q-2 -40 -34 -61l-9 20q-13 38 0 76l12 24q29 -21 31 -59v0zM216 272q1 38 31 59l11 -24q13 -38 0 -76l-9 -20q-31 21 -33 61v0zM492 186q-8 -28 -32 -56l-35 -42
l-20 10l2 2q35 23 58 57q22 34 31 74q1 -21 -4 -45v0z" />
    <glyph glyph-name="peace" unicode="&#xf67c;" 
d="M256 448q-72 -1 -129 -35v0q-58 -34 -92 -92v0q-34 -57 -35 -129q1 -72 35 -129q34 -58 92 -92q57 -34 129 -35q72 1 129 35q58 34 92 92q34 57 35 129q-1 72 -35 129q-34 58 -92 92q-57 34 -129 35v0zM464 192q-1 -61 -32 -110l-152 122v194q79 -10 131 -67
q51 -57 53 -139v0zM232 -15q-72 10 -122 59l122 98v-157v0zM280 142l122 -98q-50 -49 -122 -58v156v0zM232 398v-194l-152 -122q-31 48 -32 110q2 82 53 139q52 57 131 67v0z" />
    <glyph glyph-name="peace" unicode="&#x262e;" 
d="M256 448q-72 -1 -129 -35v0q-58 -34 -92 -92v0q-34 -57 -35 -129q1 -72 35 -129q34 -58 92 -92q57 -34 129 -35q72 1 129 35q58 34 92 92q34 57 35 129q-1 72 -35 129q-34 58 -92 92q-57 34 -129 35v0zM464 192q-1 -61 -32 -110l-152 122v194q79 -10 131 -67
q51 -57 53 -139v0zM232 -15q-72 10 -122 59l122 98v-157v0zM280 142l122 -98q-50 -49 -122 -58v156v0zM232 398v-194l-152 -122q-31 48 -32 110q2 82 53 139q52 57 131 67v0z" />
    <glyph glyph-name="yin-yang" unicode="&#xf6ad;" 
d="M256 112q-14 0 -23 -9v0q-9 -9 -9 -23t9 -23t23 -9t23 9t9 23t-9 23t-23 9v0zM256 272q14 0 23 9v0q9 9 9 23t-9 23t-23 9t-23 -9t-9 -23t9 -23t23 -9v0zM256 448q-72 -1 -129 -35v0q-58 -34 -92 -92v0q-34 -57 -35 -129q1 -72 35 -129q34 -58 92 -92q57 -34 129 -35
q72 1 129 35q58 34 92 92q34 57 35 129q-1 72 -35 129q-34 58 -92 92q-57 34 -129 35v0zM123 31q-34 29 -55 71v0q-20 41 -20 90q2 88 61 147t147 61q39 -1 65 -27t27 -65q-1 -39 -27 -65t-65 -27q-59 -2 -99 -41q-39 -40 -41 -99q1 -24 7 -45v0zM256 -16q-39 1 -65 27v0
q-26 26 -27 65q1 39 27 65t65 27q59 2 99 41q39 40 41 99q0 23 -8 45q35 -29 55 -71q21 -41 21 -90q-2 -88 -61 -147t-147 -61v0z" />
    <glyph glyph-name="yin-yang" unicode="&#x262f;" 
d="M256 112q-14 0 -23 -9v0q-9 -9 -9 -23t9 -23t23 -9t23 9t9 23t-9 23t-23 9v0zM256 272q14 0 23 9v0q9 9 9 23t-9 23t-23 9t-23 -9t-9 -23t9 -23t23 -9v0zM256 448q-72 -1 -129 -35v0q-58 -34 -92 -92v0q-34 -57 -35 -129q1 -72 35 -129q34 -58 92 -92q57 -34 129 -35
q72 1 129 35q58 34 92 92q34 57 35 129q-1 72 -35 129q-34 58 -92 92q-57 34 -129 35v0zM123 31q-34 29 -55 71v0q-20 41 -20 90q2 88 61 147t147 61q39 -1 65 -27t27 -65q-1 -39 -27 -65t-65 -27q-59 -2 -99 -41q-39 -40 -41 -99q1 -24 7 -45v0zM256 -16q-39 1 -65 27v0
q-26 26 -27 65q1 39 27 65t65 27q59 2 99 41q39 40 41 99q0 23 -8 45q35 -29 55 -71q21 -41 21 -90q-2 -88 -61 -147t-147 -61v0z" />
    <glyph glyph-name="dharmachakra" unicode="&#xf655;" 
d="M499 216l-20 -1q-8 68 -50 118l15 14q8 9 0 18l-16 16q-9 8 -18 0l-14 -15q-49 41 -117 49l1 20q-1 12 -12 13h-24q-11 -1 -12 -13l1 -20q-68 -8 -118 -49l-14 15q-9 8 -18 0l-16 -16q-8 -9 0 -18l14 -14q-41 -50 -49 -118l-19 1q-12 -1 -13 -12v-24q1 -11 13 -12l20 1
q8 -68 49 -118l-14 -14q-8 -9 0 -18l16 -16q9 -8 18 0l14 14q50 -41 117 -49l-1 -19q1 -12 12 -13h24q11 1 12 13l-1 20q68 8 118 49l14 -14q9 -8 18 0l16 16q8 9 0 18l-15 14q41 50 49 117l20 -1q12 1 13 12v24q-1 11 -13 12v0zM431 214l-81 -3q-4 19 -14 34l59 55
q29 -37 36 -86v0zM256 144q-20 1 -34 14v0q-13 14 -14 34q1 20 14 34q14 13 34 14q20 -1 34 -14q13 -14 14 -34q-1 -20 -14 -34q-14 -13 -34 -14v0zM364 331l-55 -59q-15 10 -33 14l2 81q48 -7 86 -36v0zM234 366l3 -80q-19 -4 -34 -14l-55 59q37 29 86 35v0zM117 300
l59 -55q-10 -15 -15 -34l-79 3q6 49 35 86v0zM82 170l80 3q4 -19 14 -34l-59 -55q-29 37 -35 86v0zM148 53l55 59q15 -10 33 -14l-2 -81q-49 7 -86 36v0zM278 17l-3 81q19 4 34 14l55 -59q-38 -29 -86 -36v0zM395 84l-59 55q10 15 14 33l81 -2q-7 -49 -36 -86v0z" />
    <glyph glyph-name="dharmachakra" unicode="&#x2638;" 
d="M499 216l-20 -1q-8 68 -50 118l15 14q8 9 0 18l-16 16q-9 8 -18 0l-14 -15q-49 41 -117 49l1 20q-1 12 -12 13h-24q-11 -1 -12 -13l1 -20q-68 -8 -118 -49l-14 15q-9 8 -18 0l-16 -16q-8 -9 0 -18l14 -14q-41 -50 -49 -118l-19 1q-12 -1 -13 -12v-24q1 -11 13 -12l20 1
q8 -68 49 -118l-14 -14q-8 -9 0 -18l16 -16q9 -8 18 0l14 14q50 -41 117 -49l-1 -19q1 -12 12 -13h24q11 1 12 13l-1 20q68 8 118 49l14 -14q9 -8 18 0l16 16q8 9 0 18l-15 14q41 50 49 117l20 -1q12 1 13 12v24q-1 11 -13 12v0zM431 214l-81 -3q-4 19 -14 34l59 55
q29 -37 36 -86v0zM256 144q-20 1 -34 14v0q-13 14 -14 34q1 20 14 34q14 13 34 14q20 -1 34 -14q13 -14 14 -34q-1 -20 -14 -34q-14 -13 -34 -14v0zM364 331l-55 -59q-15 10 -33 14l2 81q48 -7 86 -36v0zM234 366l3 -80q-19 -4 -34 -14l-55 59q37 29 86 35v0zM117 300
l59 -55q-10 -15 -15 -34l-79 3q6 49 35 86v0zM82 170l80 3q4 -19 14 -34l-59 -55q-29 37 -35 86v0zM148 53l55 59q15 -10 33 -14l-2 -81q-49 7 -86 36v0zM278 17l-3 81q19 4 34 14l55 -59q-38 -29 -86 -36v0zM395 84l-59 55q10 15 14 33l81 -2q-7 -49 -36 -86v0z" />
    <glyph glyph-name="face-frown" unicode="&#xf119;" 
d="M256 448q-72 -1 -129 -35v0q-58 -34 -92 -92v0q-34 -57 -35 -129q1 -72 35 -129q34 -58 92 -92q57 -34 129 -35q72 1 129 35q58 34 92 92q34 57 35 129q-1 72 -35 129q-34 58 -92 92q-57 34 -129 35v0zM256 -16q-88 2 -147 61v0q-59 59 -61 147q2 88 61 147t147 61
q88 -2 147 -61t61 -147q-2 -88 -61 -147t-147 -61v0zM175 208q14 0 23 9v0q9 9 9 23t-9 23t-23 9t-23 -9t-9 -23q1 -14 10 -23t22 -9v0zM336 208q14 0 23 9v0q9 9 9 23t-9 23t-23 9t-23 -9t-9 -23t9 -23t23 -9v0zM256 176q-64 -3 -94 -37v0q-30 -34 -34 -63q-2 -21 20 -28
q21 -2 28 19q0 4 6 19q7 14 24 28q17 13 50 14q33 -1 50 -14q17 -14 24 -28q6 -14 6 -18q5 -19 23 -20h5q21 6 19 28q-4 29 -33 63q-30 34 -94 37v0z" />
    <glyph glyph-name="face-frown" unicode="&#x2639;" 
d="M256 448q-72 -1 -129 -35v0q-58 -34 -92 -92v0q-34 -57 -35 -129q1 -72 35 -129q34 -58 92 -92q57 -34 129 -35q72 1 129 35q58 34 92 92q34 57 35 129q-1 72 -35 129q-34 58 -92 92q-57 34 -129 35v0zM256 -16q-88 2 -147 61v0q-59 59 -61 147q2 88 61 147t147 61
q88 -2 147 -61t61 -147q-2 -88 -61 -147t-147 -61v0zM175 208q14 0 23 9v0q9 9 9 23t-9 23t-23 9t-23 -9t-9 -23q1 -14 10 -23t22 -9v0zM336 208q14 0 23 9v0q9 9 9 23t-9 23t-23 9t-23 -9t-9 -23t9 -23t23 -9v0zM256 176q-64 -3 -94 -37v0q-30 -34 -34 -63q-2 -21 20 -28
q21 -2 28 19q0 4 6 19q7 14 24 28q17 13 50 14q33 -1 50 -14q17 -14 24 -28q6 -14 6 -18q5 -19 23 -20h5q21 6 19 28q-4 29 -33 63q-30 34 -94 37v0z" />
    <glyph glyph-name="mercury" unicode="&#xf223;" horiz-adv-x="384" 
d="M368 225q-1 50 -25 90v0q-24 41 -65 64q19 12 36 30q13 17 -2 33q-17 14 -34 -1q-38 -39 -86 -39t-86 39q-17 15 -34 1q-15 -17 -2 -34q17 -18 36 -30q-41 -23 -65 -63q-24 -41 -25 -90q1 -68 44 -116q42 -48 108 -58v-26h-32q-22 -2 -24 -24q2 -22 24 -24h32v-16
q2 -23 24 -25q22 2 24 24v16h32q22 2 24 24q-2 22 -24 24h-32v26q66 10 108 58q43 48 44 117v0zM64 225q1 54 38 90v0q36 37 90 38q54 -1 90 -38q37 -36 38 -90q-1 -54 -38 -91q-36 -36 -90 -37q-54 1 -90 37q-37 36 -38 91v0z" />
    <glyph glyph-name="mercury" unicode="&#x263f;" horiz-adv-x="384" 
d="M368 225q-1 50 -25 90v0q-24 41 -65 64q19 12 36 30q13 17 -2 33q-17 14 -34 -1q-38 -39 -86 -39t-86 39q-17 15 -34 1q-15 -17 -2 -34q17 -18 36 -30q-41 -23 -65 -63q-24 -41 -25 -90q1 -68 44 -116q42 -48 108 -58v-26h-32q-22 -2 -24 -24q2 -22 24 -24h32v-16
q2 -23 24 -25q22 2 24 24v16h32q22 2 24 24q-2 22 -24 24h-32v26q66 10 108 58q43 48 44 117v0zM64 225q1 54 38 90v0q36 37 90 38q54 -1 90 -38q37 -36 38 -90q-1 -54 -38 -91q-36 -36 -90 -37q-54 1 -90 37q-37 36 -38 91v0z" />
    <glyph glyph-name="venus" unicode="&#xf221;" horiz-adv-x="384" 
d="M368 272q-2 75 -52 124v0q-49 50 -124 52q-75 -2 -124 -52q-50 -49 -52 -124q1 -68 44 -116q42 -48 108 -58v-42h-48q-22 -2 -24 -24q2 -22 24 -24h48v-48q2 -22 24 -24q22 2 24 24v48h48q22 2 24 24q-2 22 -24 24h-48v42q66 10 108 58q43 48 44 116v0zM64 272
q1 54 38 90v0q36 37 90 38q54 -1 90 -38q37 -36 38 -90q-1 -54 -38 -90q-36 -37 -90 -38q-54 1 -90 38q-37 36 -38 90v0z" />
    <glyph glyph-name="venus" unicode="&#x2640;" horiz-adv-x="384" 
d="M368 272q-2 75 -52 124v0q-49 50 -124 52q-75 -2 -124 -52q-50 -49 -52 -124q1 -68 44 -116q42 -48 108 -58v-42h-48q-22 -2 -24 -24q2 -22 24 -24h48v-48q2 -22 24 -24q22 2 24 24v48h48q22 2 24 24q-2 22 -24 24h-48v42q66 10 108 58q43 48 44 116v0zM64 272
q1 54 38 90v0q36 37 90 38q54 -1 90 -38q37 -36 38 -90q-1 -54 -38 -90q-36 -37 -90 -38q-54 1 -90 38q-37 36 -38 90v0z" />
    <glyph glyph-name="mars" unicode="&#xf222;" horiz-adv-x="448" 
d="M424 416h-112q-22 -2 -24 -24q2 -22 24 -24h54l-84 -84q-49 36 -106 36q-71 0 -124 -52q-52 -54 -52 -124t52 -124q53 -52 124 -52t124 52q47 49 51 112q4 64 -35 118l84 84v-54q2 -22 24 -24q22 2 24 24v112q-2 22 -24 24v0zM267 53q-38 -36 -91 -37q-53 1 -91 37
q-37 40 -37 91t37 90q38 37 91 38q53 -1 91 -38v0v0q37 -39 37 -90t-37 -91v0z" />
    <glyph glyph-name="mars" unicode="&#x2642;" horiz-adv-x="448" 
d="M424 416h-112q-22 -2 -24 -24q2 -22 24 -24h54l-84 -84q-49 36 -106 36q-71 0 -124 -52q-52 -54 -52 -124t52 -124q53 -52 124 -52t124 52q47 49 51 112q4 64 -35 118l84 84v-54q2 -22 24 -24q22 2 24 24v112q-2 22 -24 24v0zM267 53q-38 -36 -91 -37q-53 1 -91 37
q-37 40 -37 91t37 90q38 37 91 38q53 -1 91 -38v0v0q37 -39 37 -90t-37 -91v0z" />
    <glyph glyph-name="chess-king" unicode="&#xf43f;" horiz-adv-x="448" 
d="M392 -16h-336q-22 -2 -23 -23q0 -10 6 -17q7 -8 17 -8h335q22 2 23 23q0 10 -6 17q-6 8 -16 8v0zM448 232q0 18 -11 33q-17 22 -45 23h-144v56h31q22 2 24 24q-2 22 -23 24h-31v33q-3 21 -26 23q-22 -2 -23 -23v-33h-32q-22 -2 -24 -24q2 -22 24 -24h31v-56h-143
q-24 -1 -40 -16q-15 -16 -16 -40q0 -9 3 -17l65 -199h51l-71 214v2q0 7 8 8h336q8 -2 8 -8v-2l-71 -214h50l66 199q3 8 3 17v0z" />
    <glyph glyph-name="chess-king" unicode="&#x265a;" horiz-adv-x="448" 
d="M392 -16h-336q-22 -2 -23 -23q0 -10 6 -17q7 -8 17 -8h335q22 2 23 23q0 10 -6 17q-6 8 -16 8v0zM448 232q0 18 -11 33q-17 22 -45 23h-144v56h31q22 2 24 24q-2 22 -23 24h-31v33q-3 21 -26 23q-22 -2 -23 -23v-33h-32q-22 -2 -24 -24q2 -22 24 -24h31v-56h-143
q-24 -1 -40 -16q-15 -16 -16 -40q0 -9 3 -17l65 -199h51l-71 214v2q0 7 8 8h336q8 -2 8 -8v-2l-71 -214h50l66 199q3 8 3 17v0z" />
    <glyph glyph-name="chess-queen" unicode="&#xf445;" 
d="M256 336q24 1 40 16v0q15 16 16 40q-1 24 -16 40q-16 15 -40 16q-24 -1 -40 -16q-16 -16 -17 -40q1 -24 17 -40q16 -15 40 -16v0zM511 251q0 8 -7 13l-28 16q-3 2 -8 2q-9 0 -14 -7q-14 -18 -38 -19q-5 0 -9 1q-18 4 -28 18q-11 14 -11 32q-3 12 -13 13h-39
q-10 -1 -13 -10q-4 -17 -17 -27q-13 -11 -31 -11q-17 0 -30 11q-13 10 -17 27q-2 9 -12 10h-39q-13 -1 -14 -13q0 -16 -11 -33t-37 -18q-24 1 -38 19q-4 7 -13 7q-4 0 -8 -2l-29 -16q-7 -5 -7 -13q0 -4 2 -8l108 -227h53l-93 196q13 -4 26 -4v0q6 -2 34 6t51 46
q28 -35 75 -36q46 1 75 36q4 -9 24 -30q20 -20 61 -22q13 0 26 3l-93 -195h53l108 227q1 3 1 6v2v0zM424 -16h-336q-22 -2 -24 -23q0 -10 7 -17q7 -8 17 -8h336q22 2 24 23q0 10 -7 17q-7 8 -17 8v0z" />
    <glyph glyph-name="chess-queen" unicode="&#x265b;" 
d="M256 336q24 1 40 16v0q15 16 16 40q-1 24 -16 40q-16 15 -40 16q-24 -1 -40 -16q-16 -16 -17 -40q1 -24 17 -40q16 -15 40 -16v0zM511 251q0 8 -7 13l-28 16q-3 2 -8 2q-9 0 -14 -7q-14 -18 -38 -19q-5 0 -9 1q-18 4 -28 18q-11 14 -11 32q-3 12 -13 13h-39
q-10 -1 -13 -10q-4 -17 -17 -27q-13 -11 -31 -11q-17 0 -30 11q-13 10 -17 27q-2 9 -12 10h-39q-13 -1 -14 -13q0 -16 -11 -33t-37 -18q-24 1 -38 19q-4 7 -13 7q-4 0 -8 -2l-29 -16q-7 -5 -7 -13q0 -4 2 -8l108 -227h53l-93 196q13 -4 26 -4v0q6 -2 34 6t51 46
q28 -35 75 -36q46 1 75 36q4 -9 24 -30q20 -20 61 -22q13 0 26 3l-93 -195h53l108 227q1 3 1 6v2v0zM424 -16h-336q-22 -2 -24 -23q0 -10 7 -17q7 -8 17 -8h336q22 2 24 23q0 10 -7 17q-7 8 -17 8v0z" />
    <glyph glyph-name="chess-rook" unicode="&#xf447;" horiz-adv-x="384" 
d="M360 -16h-337q-21 -2 -23 -23q0 -10 7 -17q7 -8 16 -8h337q22 2 24 24q-2 22 -24 24v0zM345 416h-308q-15 0 -26 -11t-11 -27v-139q0 -15 11 -25l37 -32v-13v-13q0 -29 -2 -62q-2 -34 -10 -78h49q7 43 9 77t2 69v23v25l-48 41v117h64v-48h48v48h64v-48h48v48h64v-117
l-48 -41v-25v-22q0 -35 2 -70t9 -77h49q-8 44 -10 78q-2 33 -2 62v16v10l37 32q11 10 11 25v139q0 16 -11 27t-28 11v0zM192 224q-14 0 -23 -9v0q-9 -9 -9 -23v-64h64v64q0 14 -9 23t-23 9v0z" />
    <glyph glyph-name="chess-rook" unicode="&#x265c;" horiz-adv-x="384" 
d="M360 -16h-337q-21 -2 -23 -23q0 -10 7 -17q7 -8 16 -8h337q22 2 24 24q-2 22 -24 24v0zM345 416h-308q-15 0 -26 -11t-11 -27v-139q0 -15 11 -25l37 -32v-13v-13q0 -29 -2 -62q-2 -34 -10 -78h49q7 43 9 77t2 69v23v25l-48 41v117h64v-48h48v48h64v-48h48v48h64v-117
l-48 -41v-25v-22q0 -35 2 -70t9 -77h49q-8 44 -10 78q-2 33 -2 62v16v10l37 32q11 10 11 25v139q0 16 -11 27t-28 11v0zM192 224q-14 0 -23 -9v0q-9 -9 -9 -23v-64h64v64q0 14 -9 23t-23 9v0z" />
    <glyph glyph-name="chess-bishop" unicode="&#xf43a;" horiz-adv-x="320" 
d="M296 -16h-273q-21 -2 -23 -23q0 -10 7 -17q7 -8 16 -8h272q23 2 25 24q-2 22 -24 24v0zM0 144q1 -39 19 -63v0q19 -25 45 -33v-32h48v67l-33 11q-12 3 -21 15q-9 13 -10 35q2 44 25 91t50 81q26 33 38 34q10 -1 24 -18q15 -17 27 -37q13 -20 19 -30l-66 -66q-5 -5 -5 -12
q0 -6 5 -11l11 -11q5 -5 11 -5q7 0 12 5l54 54q18 -43 19 -75q-1 -22 -10 -35q-9 -12 -20 -15l-34 -11v-67h48v32q26 8 45 33q18 24 19 63q-1 38 -20 85q-18 48 -46 91q-27 42 -55 65q23 7 25 31q0 14 -9 23t-23 9h-64q-14 0 -23 -9t-9 -23q2 -24 25 -31q-28 -23 -55 -65
q-28 -43 -46 -91q-19 -47 -20 -85v0z" />
    <glyph glyph-name="chess-bishop" unicode="&#x265d;" horiz-adv-x="320" 
d="M296 -16h-273q-21 -2 -23 -23q0 -10 7 -17q7 -8 16 -8h272q23 2 25 24q-2 22 -24 24v0zM0 144q1 -39 19 -63v0q19 -25 45 -33v-32h48v67l-33 11q-12 3 -21 15q-9 13 -10 35q2 44 25 91t50 81q26 33 38 34q10 -1 24 -18q15 -17 27 -37q13 -20 19 -30l-66 -66q-5 -5 -5 -12
q0 -6 5 -11l11 -11q5 -5 11 -5q7 0 12 5l54 54q18 -43 19 -75q-1 -22 -10 -35q-9 -12 -20 -15l-34 -11v-67h48v32q26 8 45 33q18 24 19 63q-1 38 -20 85q-18 48 -46 91q-27 42 -55 65q23 7 25 31q0 14 -9 23t-23 9h-64q-14 0 -23 -9t-9 -23q2 -24 25 -31q-28 -23 -55 -65
q-28 -43 -46 -91q-19 -47 -20 -85v0z" />
    <glyph glyph-name="chess-knight" unicode="&#xf441;" horiz-adv-x="384" 
d="M44 127l15 -6q-26 -32 -27 -72v-16v-17v0h48v32q2 40 36 59l38 23q21 11 22 35v59l-15 -9q-8 -4 -10 -13l-8 -25q-4 -12 -15 -17l-11 -4q-5 -2 -10 -2t-10 2l-33 15q-15 8 -16 24v112q0 8 6 14l7 8l-11 23q-2 3 -2 6q1 9 10 10h105q67 -2 110 -46q44 -44 46 -111v-195h48
v195q-2 87 -59 145q-58 58 -145 60h-105q-25 -1 -41 -17t-17 -41q0 -13 5 -25q-5 -12 -5 -26v-112q0 -22 12 -40t32 -28v0zM80 284q2 -18 20 -20q18 2 20 20q-2 18 -20 20q-18 -2 -20 -20v0zM360 -16h-337q-21 -2 -23 -23q0 -10 7 -17q7 -8 16 -8h337q22 2 24 24
q-2 22 -24 24v0z" />
    <glyph glyph-name="chess-knight" unicode="&#x265e;" horiz-adv-x="384" 
d="M44 127l15 -6q-26 -32 -27 -72v-16v-17v0h48v32q2 40 36 59l38 23q21 11 22 35v59l-15 -9q-8 -4 -10 -13l-8 -25q-4 -12 -15 -17l-11 -4q-5 -2 -10 -2t-10 2l-33 15q-15 8 -16 24v112q0 8 6 14l7 8l-11 23q-2 3 -2 6q1 9 10 10h105q67 -2 110 -46q44 -44 46 -111v-195h48
v195q-2 87 -59 145q-58 58 -145 60h-105q-25 -1 -41 -17t-17 -41q0 -13 5 -25q-5 -12 -5 -26v-112q0 -22 12 -40t32 -28v0zM80 284q2 -18 20 -20q18 2 20 20q-2 18 -20 20q-18 -2 -20 -20v0zM360 -16h-337q-21 -2 -23 -23q0 -10 7 -17q7 -8 16 -8h337q22 2 24 24
q-2 22 -24 24v0z" />
    <glyph glyph-name="chess-pawn" unicode="&#xf443;" horiz-adv-x="320" 
d="M296 -15h-273q-21 -2 -23 -24q2 -22 23 -24h272q22 2 23 23q0 10 -6 17q-6 8 -16 8v0zM55 161h25v-30q0 -30 -4 -59q-5 -30 -19 -55h53q20 57 18 113v30h64v-30q-2 -57 18 -114h53q-14 25 -19 55q-4 29 -4 59v31h24q22 1 24 24q-2 22 -23 24h-24q37 34 38 87q0 14 -3 29
q-2 10 -13 31q-11 22 -36 40q-25 19 -68 20q-50 -1 -84 -35t-35 -84q2 -54 39 -88h-24q-9 0 -16 -7t-7 -17q2 -23 23 -24v0zM160 369q31 -1 51 -21v0q20 -21 21 -51q-1 -31 -21 -51t-51 -21q-31 1 -51 21t-21 51q1 31 21 51t51 21v0z" />
    <glyph glyph-name="chess-pawn" unicode="&#x265f;" horiz-adv-x="320" 
d="M296 -15h-273q-21 -2 -23 -24q2 -22 23 -24h272q22 2 23 23q0 10 -6 17q-6 8 -16 8v0zM55 161h25v-30q0 -30 -4 -59q-5 -30 -19 -55h53q20 57 18 113v30h64v-30q-2 -57 18 -114h53q-14 25 -19 55q-4 29 -4 59v31h24q22 1 24 24q-2 22 -23 24h-24q37 34 38 87q0 14 -3 29
q-2 10 -13 31q-11 22 -36 40q-25 19 -68 20q-50 -1 -84 -35t-35 -84q2 -54 39 -88h-24q-9 0 -16 -7t-7 -17q2 -23 23 -24v0zM160 369q31 -1 51 -21v0q20 -21 21 -51q-1 -31 -21 -51t-51 -21q-31 1 -51 21t-21 51q1 31 21 51t51 21v0z" />
    <glyph glyph-name="spade" unicode="&#xf2f4;" 
d="M478 224l-192 211q-12 12 -30 12t-30 -12l-192 -211q-37 -41 -34 -94q4 -53 45 -89q37 -32 87 -33q59 1 99 43l1 1v-68h-48q-22 -2 -24 -24q2 -22 24 -24h144q22 2 24 24q-2 22 -24 24h-48v69l1 -2q19 -20 45 -31q26 -12 56 -12q48 0 85 33q41 36 45 89q2 53 -34 94v0z
M436 77q-24 -21 -54 -21q-40 1 -65 28l-43 47q-7 7 -18 7t-18 -7l-43 -47q-23 -25 -58 -27q-34 -2 -61 20q-25 22 -28 56q-1 33 21 58l187 205l187 -204q22 -26 21 -59q-2 -34 -28 -56v0z" />
    <glyph glyph-name="spade" unicode="&#x2660;" 
d="M478 224l-192 211q-12 12 -30 12t-30 -12l-192 -211q-37 -41 -34 -94q4 -53 45 -89q37 -32 87 -33q59 1 99 43l1 1v-68h-48q-22 -2 -24 -24q2 -22 24 -24h144q22 2 24 24q-2 22 -24 24h-48v69l1 -2q19 -20 45 -31q26 -12 56 -12q48 0 85 33q41 36 45 89q2 53 -34 94v0z
M436 77q-24 -21 -54 -21q-40 1 -65 28l-43 47q-7 7 -18 7t-18 -7l-43 -47q-23 -25 -58 -27q-34 -2 -61 20q-25 22 -28 56q-1 33 21 58l187 205l187 -204q22 -26 21 -59q-2 -34 -28 -56v0z" />
    <glyph glyph-name="club" unicode="&#xf327;" 
d="M394 288q2 11 2 22q-2 58 -41 97q-40 40 -99 41q-59 -1 -99 -41q-39 -39 -41 -97q0 -11 2 -22q-52 -11 -84 -50q-33 -39 -34 -93q2 -61 43 -102q42 -41 104 -43q46 1 85 26v-42h-48q-22 -2 -24 -24q2 -22 24 -24h144q22 2 24 24q-2 22 -24 24h-48v42q39 -25 85 -26
q62 2 104 43q41 41 43 102q-1 54 -34 93q-32 39 -84 50v0zM365 48q-26 0 -50 13v0q-25 13 -39 34h-1q0 1 -1 1q-2 3 -5 5q-1 0 -1 1q-1 0 -2 1q-4 2 -10 2t-10 -2q-1 -1 -2 -1q0 -1 -1 -1q-3 -2 -5 -5q-1 0 -1 -1h-1q-14 -21 -39 -34q-24 -13 -50 -13q-42 1 -70 29
q-28 27 -29 68q1 42 29 69q27 28 68 29q15 -1 24 10q6 11 2 23q-7 16 -7 34q1 38 27 64q26 25 65 26q39 -1 65 -26q26 -26 27 -64q0 -18 -7 -34q-4 -12 2 -23q8 -10 20 -10h3q41 -2 69 -29q28 -28 29 -69q-1 -41 -29 -68q-28 -28 -70 -29v0z" />
    <glyph glyph-name="club" unicode="&#x2663;" 
d="M394 288q2 11 2 22q-2 58 -41 97q-40 40 -99 41q-59 -1 -99 -41q-39 -39 -41 -97q0 -11 2 -22q-52 -11 -84 -50q-33 -39 -34 -93q2 -61 43 -102q42 -41 104 -43q46 1 85 26v-42h-48q-22 -2 -24 -24q2 -22 24 -24h144q22 2 24 24q-2 22 -24 24h-48v42q39 -25 85 -26
q62 2 104 43q41 41 43 102q-1 54 -34 93q-32 39 -84 50v0zM365 48q-26 0 -50 13v0q-25 13 -39 34h-1q0 1 -1 1q-2 3 -5 5q-1 0 -1 1q-1 0 -2 1q-4 2 -10 2t-10 -2q-1 -1 -2 -1q0 -1 -1 -1q-3 -2 -5 -5q-1 0 -1 -1h-1q-14 -21 -39 -34q-24 -13 -50 -13q-42 1 -70 29
q-28 27 -29 68q1 42 29 69q27 28 68 29q15 -1 24 10q6 11 2 23q-7 16 -7 34q1 38 27 64q26 25 65 26q39 -1 65 -26q26 -26 27 -64q0 -18 -7 -34q-4 -12 2 -23q8 -10 20 -10h3q41 -2 69 -29q28 -28 29 -69q-1 -41 -29 -68q-28 -28 -70 -29v0z" />
    <glyph glyph-name="heart" unicode="&#x1f9e1;" 
d="M462 385q-36 32 -83 31q-59 -1 -103 -44l-20 -20l-20 20q-44 43 -103 44q-46 0 -84 -31q-47 -43 -49 -102q-2 -60 40 -105l193 -200q10 -10 23 -10t23 10l193 200q42 46 40 105q-3 59 -50 102v0zM438 211l-182 -188l-182 188q-25 27 -26 67t32 71q32 24 66 18t56 -28
l54 -56l54 56q21 21 56 28q34 7 66 -18q33 -31 32 -71t-26 -67v0z" />
    <glyph glyph-name="heart" unicode="&#x1f90e;" 
d="M462 385q-36 32 -83 31q-59 -1 -103 -44l-20 -20l-20 20q-44 43 -103 44q-46 0 -84 -31q-47 -43 -49 -102q-2 -60 40 -105l193 -200q10 -10 23 -10t23 10l193 200q42 46 40 105q-3 59 -50 102v0zM438 211l-182 -188l-182 188q-25 27 -26 67t32 71q32 24 66 18t56 -28
l54 -56l54 56q21 21 56 28q34 7 66 -18q33 -31 32 -71t-26 -67v0z" />
    <glyph glyph-name="heart" unicode="&#x1f90d;" 
d="M462 385q-36 32 -83 31q-59 -1 -103 -44l-20 -20l-20 20q-44 43 -103 44q-46 0 -84 -31q-47 -43 -49 -102q-2 -60 40 -105l193 -200q10 -10 23 -10t23 10l193 200q42 46 40 105q-3 59 -50 102v0zM438 211l-182 -188l-182 188q-25 27 -26 67t32 71q32 24 66 18t56 -28
l54 -56l54 56q21 21 56 28q34 7 66 -18q33 -31 32 -71t-26 -67v0z" />
    <glyph glyph-name="heart" unicode="&#x1f5a4;" 
d="M462 385q-36 32 -83 31q-59 -1 -103 -44l-20 -20l-20 20q-44 43 -103 44q-46 0 -84 -31q-47 -43 -49 -102q-2 -60 40 -105l193 -200q10 -10 23 -10t23 10l193 200q42 46 40 105q-3 59 -50 102v0zM438 211l-182 -188l-182 188q-25 27 -26 67t32 71q32 24 66 18t56 -28
l54 -56l54 56q21 21 56 28q34 7 66 -18q33 -31 32 -71t-26 -67v0z" />
    <glyph glyph-name="heart" unicode="&#x1f49c;" 
d="M462 385q-36 32 -83 31q-59 -1 -103 -44l-20 -20l-20 20q-44 43 -103 44q-46 0 -84 -31q-47 -43 -49 -102q-2 -60 40 -105l193 -200q10 -10 23 -10t23 10l193 200q42 46 40 105q-3 59 -50 102v0zM438 211l-182 -188l-182 188q-25 27 -26 67t32 71q32 24 66 18t56 -28
l54 -56l54 56q21 21 56 28q34 7 66 -18q33 -31 32 -71t-26 -67v0z" />
    <glyph glyph-name="heart" unicode="&#x1f49b;" 
d="M462 385q-36 32 -83 31q-59 -1 -103 -44l-20 -20l-20 20q-44 43 -103 44q-46 0 -84 -31q-47 -43 -49 -102q-2 -60 40 -105l193 -200q10 -10 23 -10t23 10l193 200q42 46 40 105q-3 59 -50 102v0zM438 211l-182 -188l-182 188q-25 27 -26 67t32 71q32 24 66 18t56 -28
l54 -56l54 56q21 21 56 28q34 7 66 -18q33 -31 32 -71t-26 -67v0z" />
    <glyph glyph-name="heart" unicode="&#x1f49a;" 
d="M462 385q-36 32 -83 31q-59 -1 -103 -44l-20 -20l-20 20q-44 43 -103 44q-46 0 -84 -31q-47 -43 -49 -102q-2 -60 40 -105l193 -200q10 -10 23 -10t23 10l193 200q42 46 40 105q-3 59 -50 102v0zM438 211l-182 -188l-182 188q-25 27 -26 67t32 71q32 24 66 18t56 -28
l54 -56l54 56q21 21 56 28q34 7 66 -18q33 -31 32 -71t-26 -67v0z" />
    <glyph glyph-name="heart" unicode="&#x1f499;" 
d="M462 385q-36 32 -83 31q-59 -1 -103 -44l-20 -20l-20 20q-44 43 -103 44q-46 0 -84 -31q-47 -43 -49 -102q-2 -60 40 -105l193 -200q10 -10 23 -10t23 10l193 200q42 46 40 105q-3 59 -50 102v0zM438 211l-182 -188l-182 188q-25 27 -26 67t32 71q32 24 66 18t56 -28
l54 -56l54 56q21 21 56 28q34 7 66 -18q33 -31 32 -71t-26 -67v0z" />
    <glyph glyph-name="heart" unicode="&#xf08a;" 
d="M462 385q-36 32 -83 31q-59 -1 -103 -44l-20 -20l-20 20q-44 43 -103 44q-46 0 -84 -31q-47 -43 -49 -102q-2 -60 40 -105l193 -200q10 -10 23 -10t23 10l193 200q42 46 40 105q-3 59 -50 102v0zM438 211l-182 -188l-182 188q-25 27 -26 67t32 71q32 24 66 18t56 -28
l54 -56l54 56q21 21 56 28q34 7 66 -18q33 -31 32 -71t-26 -67v0z" />
    <glyph glyph-name="heart" unicode="&#xf004;" 
d="M462 385q-36 32 -83 31q-59 -1 -103 -44l-20 -20l-20 20q-44 43 -103 44q-46 0 -84 -31q-47 -43 -49 -102q-2 -60 40 -105l193 -200q10 -10 23 -10t23 10l193 200q42 46 40 105q-3 59 -50 102v0zM438 211l-182 -188l-182 188q-25 27 -26 67t32 71q32 24 66 18t56 -28
l54 -56l54 56q21 21 56 28q34 7 66 -18q33 -31 32 -71t-26 -67v0z" />
    <glyph glyph-name="heart" unicode="&#x2764;" 
d="M462 385q-36 32 -83 31q-59 -1 -103 -44l-20 -20l-20 20q-44 43 -103 44q-46 0 -84 -31q-47 -43 -49 -102q-2 -60 40 -105l193 -200q10 -10 23 -10t23 10l193 200q42 46 40 105q-3 59 -50 102v0zM438 211l-182 -188l-182 188q-25 27 -26 67t32 71q32 24 66 18t56 -28
l54 -56l54 56q21 21 56 28q34 7 66 -18q33 -31 32 -71t-26 -67v0z" />
    <glyph glyph-name="heart" unicode="&#x2665;" 
d="M462 385q-36 32 -83 31q-59 -1 -103 -44l-20 -20l-20 20q-44 43 -103 44q-46 0 -84 -31q-47 -43 -49 -102q-2 -60 40 -105l193 -200q10 -10 23 -10t23 10l193 200q42 46 40 105q-3 59 -50 102v0zM438 211l-182 -188l-182 188q-25 27 -26 67t32 71q32 24 66 18t56 -28
l54 -56l54 56q21 21 56 28q34 7 66 -18q33 -31 32 -71t-26 -67v0z" />
    <glyph glyph-name="diamond" unicode="&#xf219;" 
d="M497 226l-208 208q-14 14 -33 14t-34 -14l-208 -208q-14 -15 -14 -34t14 -34l208 -208q15 -14 34 -14t34 14l208 208q14 15 14 34t-15 34v0zM256 -16l-208 208l207 208l208 -208l-207 -208v0z" />
    <glyph glyph-name="diamond" unicode="&#x2666;" 
d="M497 226l-208 208q-14 14 -33 14t-34 -14l-208 -208q-14 -15 -14 -34t14 -34l208 -208q15 -14 34 -14t34 14l208 208q14 15 14 34t-15 34v0zM256 -16l-208 208l207 208l208 -208l-207 -208v0z" />
    <glyph glyph-name="recycle" unicode="&#xf1b8;" 
d="M168 294q-2 10 -12 15q-9 5 -19 1l-91 -33q-19 -10 -14 -31q10 -20 31 -14l29 10l-65 -107q-21 -38 -3 -78l3 -5q23 -42 72 -44h37q22 2 24 24q-2 22 -24 24h-37q-20 1 -29 18l-3 5q-7 16 2 31l67 113l9 -34q5 -18 23 -19q3 0 6 1q21 7 17 29l-23 94v0zM178 339
q20 -9 33 9l17 28q10 15 28 15t28 -15l58 -96l-36 10q-21 4 -29 -16q-3 -10 2 -18q4 -9 14 -12l92 -27q4 -1 7 -1q7 0 13 4q9 5 11 16l16 95q1 22 -20 28q-22 1 -28 -20l-5 -29l-54 91q-24 38 -69 39q-45 -1 -69 -39l-17 -29q-10 -20 8 -33v0zM485 135l-23 37q-13 18 -33 9
q-18 -14 -8 -33l22 -38q9 -15 2 -31l-3 -5q-9 -17 -29 -18h-126l25 22q15 16 2 34q-16 15 -34 2l-72 -64q-8 -7 -8 -18t8 -18l72 -64q7 -6 16 -6q10 0 18 8q13 18 -2 34l-25 22h126q49 2 72 45l3 4q17 40 -3 78v0z" />
    <glyph glyph-name="recycle" unicode="&#x267b;" 
d="M168 294q-2 10 -12 15q-9 5 -19 1l-91 -33q-19 -10 -14 -31q10 -20 31 -14l29 10l-65 -107q-21 -38 -3 -78l3 -5q23 -42 72 -44h37q22 2 24 24q-2 22 -24 24h-37q-20 1 -29 18l-3 5q-7 16 2 31l67 113l9 -34q5 -18 23 -19q3 0 6 1q21 7 17 29l-23 94v0zM178 339
q20 -9 33 9l17 28q10 15 28 15t28 -15l58 -96l-36 10q-21 4 -29 -16q-3 -10 2 -18q4 -9 14 -12l92 -27q4 -1 7 -1q7 0 13 4q9 5 11 16l16 95q1 22 -20 28q-22 1 -28 -20l-5 -29l-54 91q-24 38 -69 39q-45 -1 -69 -39l-17 -29q-10 -20 8 -33v0zM485 135l-23 37q-13 18 -33 9
q-18 -14 -8 -33l22 -38q9 -15 2 -31l-3 -5q-9 -17 -29 -18h-126l25 22q15 16 2 34q-16 15 -34 2l-72 -64q-8 -7 -8 -18t8 -18l72 -64q7 -6 16 -6q10 0 18 8q13 18 -2 34l-25 22h126q49 2 72 45l3 4q17 40 -3 78v0z" />
    <glyph glyph-name="recycle" unicode="&#x267a;" 
d="M168 294q-2 10 -12 15q-9 5 -19 1l-91 -33q-19 -10 -14 -31q10 -20 31 -14l29 10l-65 -107q-21 -38 -3 -78l3 -5q23 -42 72 -44h37q22 2 24 24q-2 22 -24 24h-37q-20 1 -29 18l-3 5q-7 16 2 31l67 113l9 -34q5 -18 23 -19q3 0 6 1q21 7 17 29l-23 94v0zM178 339
q20 -9 33 9l17 28q10 15 28 15t28 -15l58 -96l-36 10q-21 4 -29 -16q-3 -10 2 -18q4 -9 14 -12l92 -27q4 -1 7 -1q7 0 13 4q9 5 11 16l16 95q1 22 -20 28q-22 1 -28 -20l-5 -29l-54 91q-24 38 -69 39q-45 -1 -69 -39l-17 -29q-10 -20 8 -33v0zM485 135l-23 37q-13 18 -33 9
q-18 -14 -8 -33l22 -38q9 -15 2 -31l-3 -5q-9 -17 -29 -18h-126l25 22q15 16 2 34q-16 15 -34 2l-72 -64q-8 -7 -8 -18t8 -18l72 -64q7 -6 16 -6q10 0 18 8q13 18 -2 34l-25 22h126q49 2 72 45l3 4q17 40 -3 78v0z" />
    <glyph glyph-name="recycle" unicode="&#x2672;" 
d="M168 294q-2 10 -12 15q-9 5 -19 1l-91 -33q-19 -10 -14 -31q10 -20 31 -14l29 10l-65 -107q-21 -38 -3 -78l3 -5q23 -42 72 -44h37q22 2 24 24q-2 22 -24 24h-37q-20 1 -29 18l-3 5q-7 16 2 31l67 113l9 -34q5 -18 23 -19q3 0 6 1q21 7 17 29l-23 94v0zM178 339
q20 -9 33 9l17 28q10 15 28 15t28 -15l58 -96l-36 10q-21 4 -29 -16q-3 -10 2 -18q4 -9 14 -12l92 -27q4 -1 7 -1q7 0 13 4q9 5 11 16l16 95q1 22 -20 28q-22 1 -28 -20l-5 -29l-54 91q-24 38 -69 39q-45 -1 -69 -39l-17 -29q-10 -20 8 -33v0zM485 135l-23 37q-13 18 -33 9
q-18 -14 -8 -33l22 -38q9 -15 2 -31l-3 -5q-9 -17 -29 -18h-126l25 22q15 16 2 34q-16 15 -34 2l-72 -64q-8 -7 -8 -18t8 -18l72 -64q7 -6 16 -6q10 0 18 8q13 18 -2 34l-25 22h126q49 2 72 45l3 4q17 40 -3 78v0z" />
    <glyph glyph-name="dice-one" unicode="&#xf525;" horiz-adv-x="448" 
d="M224 224q-14 0 -23 -9v0q-9 -9 -9 -23t9 -23t23 -9t23 9t9 23t-9 23t-23 9v0zM384 416h-320q-27 -1 -45 -19t-19 -45v-320q1 -27 19 -45t45 -19h320q27 1 45 19t19 45v320q-1 27 -19 45t-45 19v0zM400 32q-1 -15 -16 -16h-320q-15 1 -16 16v320q1 15 16 16h320
q15 -1 16 -16v-320v0z" />
    <glyph glyph-name="dice-one" unicode="&#x2680;" horiz-adv-x="448" 
d="M224 224q-14 0 -23 -9v0q-9 -9 -9 -23t9 -23t23 -9t23 9t9 23t-9 23t-23 9v0zM384 416h-320q-27 -1 -45 -19t-19 -45v-320q1 -27 19 -45t45 -19h320q27 1 45 19t19 45v320q-1 27 -19 45t-45 19v0zM400 32q-1 -15 -16 -16h-320q-15 1 -16 16v320q1 15 16 16h320
q15 -1 16 -16v-320v0z" />
    <glyph glyph-name="dice-two" unicode="&#xf528;" horiz-adv-x="448" 
d="M128 320q-14 0 -23 -9v0q-9 -9 -9 -23t9 -23t23 -9t23 9t9 23t-9 23t-23 9v0zM384 416h-320q-27 -1 -45 -19t-19 -45v-320q1 -27 19 -45t45 -19h320q27 1 45 19t19 45v320q-1 27 -19 45t-45 19v0zM400 32q-1 -15 -16 -16h-320q-15 1 -16 16v320q1 15 16 16h320
q15 -1 16 -16v-320v0zM320 128q-14 0 -23 -9v0q-9 -9 -9 -23t9 -23t23 -9t23 9t9 23t-9 23t-23 9v0z" />
    <glyph glyph-name="dice-two" unicode="&#x2681;" horiz-adv-x="448" 
d="M128 320q-14 0 -23 -9v0q-9 -9 -9 -23t9 -23t23 -9t23 9t9 23t-9 23t-23 9v0zM384 416h-320q-27 -1 -45 -19t-19 -45v-320q1 -27 19 -45t45 -19h320q27 1 45 19t19 45v320q-1 27 -19 45t-45 19v0zM400 32q-1 -15 -16 -16h-320q-15 1 -16 16v320q1 15 16 16h320
q15 -1 16 -16v-320v0zM320 128q-14 0 -23 -9v0q-9 -9 -9 -23t9 -23t23 -9t23 9t9 23t-9 23t-23 9v0z" />
    <glyph glyph-name="dice-three" unicode="&#xf527;" horiz-adv-x="448" 
d="M128 320q-14 0 -23 -9v0q-9 -9 -9 -23t9 -23t23 -9t23 9t9 23t-9 23t-23 9v0zM224 224q-14 0 -23 -9v0q-9 -9 -9 -23t9 -23t23 -9t23 9t9 23t-9 23t-23 9v0zM384 416h-320q-27 -1 -45 -19t-19 -45v-320q1 -27 19 -45t45 -19h320q27 1 45 19t19 45v320q-1 27 -19 45
t-45 19v0zM400 32q-1 -15 -16 -16h-320q-15 1 -16 16v320q1 15 16 16h320q15 -1 16 -16v-320v0zM320 128q-14 0 -23 -9v0q-9 -9 -9 -23t9 -23t23 -9t23 9t9 23t-9 23t-23 9v0z" />
    <glyph glyph-name="dice-three" unicode="&#x2682;" horiz-adv-x="448" 
d="M128 320q-14 0 -23 -9v0q-9 -9 -9 -23t9 -23t23 -9t23 9t9 23t-9 23t-23 9v0zM224 224q-14 0 -23 -9v0q-9 -9 -9 -23t9 -23t23 -9t23 9t9 23t-9 23t-23 9v0zM384 416h-320q-27 -1 -45 -19t-19 -45v-320q1 -27 19 -45t45 -19h320q27 1 45 19t19 45v320q-1 27 -19 45
t-45 19v0zM400 32q-1 -15 -16 -16h-320q-15 1 -16 16v320q1 15 16 16h320q15 -1 16 -16v-320v0zM320 128q-14 0 -23 -9v0q-9 -9 -9 -23t9 -23t23 -9t23 9t9 23t-9 23t-23 9v0z" />
    <glyph glyph-name="dice-four" unicode="&#xf524;" horiz-adv-x="448" 
d="M384 416h-320q-27 -1 -45 -19t-19 -45v-320q1 -27 19 -45t45 -19h320q27 1 45 19t19 45v320q-1 27 -19 45t-45 19v0zM400 32q-1 -15 -16 -16h-320q-15 1 -16 16v320q1 15 16 16h320q15 -1 16 -16v-320v0zM128 320q-14 0 -23 -9v0q-9 -9 -9 -23t9 -23t23 -9t23 9t9 23
t-9 23t-23 9v0zM320 128q-14 0 -23 -9v0q-9 -9 -9 -23t9 -23t23 -9t23 9t9 23t-9 23t-23 9v0zM320 320q-14 0 -23 -9v0q-9 -9 -9 -23t9 -23t23 -9t23 9t9 23t-9 23t-23 9v0zM128 128q-14 0 -23 -9v0q-9 -9 -9 -23t9 -23t23 -9t23 9t9 23t-9 23t-23 9v0z" />
    <glyph glyph-name="dice-four" unicode="&#x2683;" horiz-adv-x="448" 
d="M384 416h-320q-27 -1 -45 -19t-19 -45v-320q1 -27 19 -45t45 -19h320q27 1 45 19t19 45v320q-1 27 -19 45t-45 19v0zM400 32q-1 -15 -16 -16h-320q-15 1 -16 16v320q1 15 16 16h320q15 -1 16 -16v-320v0zM128 320q-14 0 -23 -9v0q-9 -9 -9 -23t9 -23t23 -9t23 9t9 23
t-9 23t-23 9v0zM320 128q-14 0 -23 -9v0q-9 -9 -9 -23t9 -23t23 -9t23 9t9 23t-9 23t-23 9v0zM320 320q-14 0 -23 -9v0q-9 -9 -9 -23t9 -23t23 -9t23 9t9 23t-9 23t-23 9v0zM128 128q-14 0 -23 -9v0q-9 -9 -9 -23t9 -23t23 -9t23 9t9 23t-9 23t-23 9v0z" />
    <glyph glyph-name="dice-five" unicode="&#xf523;" horiz-adv-x="448" 
d="M128 320q-14 0 -23 -9v0q-9 -9 -9 -23t9 -23t23 -9t23 9t9 23t-9 23t-23 9v0zM128 128q-14 0 -23 -9v0q-9 -9 -9 -23t9 -23t23 -9t23 9t9 23t-9 23t-23 9v0zM320 128q-14 0 -23 -9v0q-9 -9 -9 -23t9 -23t23 -9t23 9t9 23t-9 23t-23 9v0zM320 320q-14 0 -23 -9v0
q-9 -9 -9 -23t9 -23t23 -9t23 9t9 23t-9 23t-23 9v0zM384 416h-320q-27 -1 -45 -19t-19 -45v-320q1 -27 19 -45t45 -19h320q27 1 45 19t19 45v320q-1 27 -19 45t-45 19v0zM400 32q-1 -15 -16 -16h-320q-15 1 -16 16v320q1 15 16 16h320q15 -1 16 -16v-320v0zM224 224
q-14 0 -23 -9v0q-9 -9 -9 -23t9 -23t23 -9t23 9t9 23t-9 23t-23 9v0z" />
    <glyph glyph-name="dice-five" unicode="&#x2684;" horiz-adv-x="448" 
d="M128 320q-14 0 -23 -9v0q-9 -9 -9 -23t9 -23t23 -9t23 9t9 23t-9 23t-23 9v0zM128 128q-14 0 -23 -9v0q-9 -9 -9 -23t9 -23t23 -9t23 9t9 23t-9 23t-23 9v0zM320 128q-14 0 -23 -9v0q-9 -9 -9 -23t9 -23t23 -9t23 9t9 23t-9 23t-23 9v0zM320 320q-14 0 -23 -9v0
q-9 -9 -9 -23t9 -23t23 -9t23 9t9 23t-9 23t-23 9v0zM384 416h-320q-27 -1 -45 -19t-19 -45v-320q1 -27 19 -45t45 -19h320q27 1 45 19t19 45v320q-1 27 -19 45t-45 19v0zM400 32q-1 -15 -16 -16h-320q-15 1 -16 16v320q1 15 16 16h320q15 -1 16 -16v-320v0zM224 224
q-14 0 -23 -9v0q-9 -9 -9 -23t9 -23t23 -9t23 9t9 23t-9 23t-23 9v0z" />
    <glyph glyph-name="dice-six" unicode="&#xf526;" horiz-adv-x="448" 
d="M128 320q-14 0 -23 -9v0q-9 -9 -9 -23t9 -23t23 -9t23 9t9 23t-9 23t-23 9v0zM128 224q-14 0 -23 -9v0q-9 -9 -9 -23t9 -23t23 -9t23 9t9 23t-9 23t-23 9v0zM128 128q-14 0 -23 -9v0q-9 -9 -9 -23t9 -23t23 -9t23 9t9 23t-9 23t-23 9v0zM384 416h-320q-27 -1 -45 -19
t-19 -45v-320q1 -27 19 -45t45 -19h320q27 1 45 19t19 45v320q-1 27 -19 45t-45 19v0zM400 32q-1 -15 -16 -16h-320q-15 1 -16 16v320q1 15 16 16h320q15 -1 16 -16v-320v0zM320 320q-14 0 -23 -9v0q-9 -9 -9 -23t9 -23t23 -9t23 9t9 23t-9 23t-23 9v0zM320 128
q-14 0 -23 -9v0q-9 -9 -9 -23t9 -23t23 -9t23 9t9 23t-9 23t-23 9v0zM320 224q-14 0 -23 -9v0q-9 -9 -9 -23t9 -23t23 -9t23 9t9 23t-9 23t-23 9v0z" />
    <glyph glyph-name="dice-six" unicode="&#x2685;" horiz-adv-x="448" 
d="M128 320q-14 0 -23 -9v0q-9 -9 -9 -23t9 -23t23 -9t23 9t9 23t-9 23t-23 9v0zM128 224q-14 0 -23 -9v0q-9 -9 -9 -23t9 -23t23 -9t23 9t9 23t-9 23t-23 9v0zM128 128q-14 0 -23 -9v0q-9 -9 -9 -23t9 -23t23 -9t23 9t9 23t-9 23t-23 9v0zM384 416h-320q-27 -1 -45 -19
t-19 -45v-320q1 -27 19 -45t45 -19h320q27 1 45 19t19 45v320q-1 27 -19 45t-45 19v0zM400 32q-1 -15 -16 -16h-320q-15 1 -16 16v320q1 15 16 16h320q15 -1 16 -16v-320v0zM320 320q-14 0 -23 -9v0q-9 -9 -9 -23t9 -23t23 -9t23 9t9 23t-9 23t-23 9v0zM320 128
q-14 0 -23 -9v0q-9 -9 -9 -23t9 -23t23 -9t23 9t9 23t-9 23t-23 9v0zM320 224q-14 0 -23 -9v0q-9 -9 -9 -23t9 -23t23 -9t23 9t9 23t-9 23t-23 9v0z" />
    <glyph glyph-name="anchor" unicode="&#xf13d;" horiz-adv-x="576" 
d="M568 138l-56 48q-16 12 -32 0l-56 -48q-15 -16 -2 -34q16 -15 34 -2l16 13q-4 -56 -42 -93t-94 -38h-24v208h48q22 2 24 24q-2 22 -24 24h-48v52q25 8 40 28q16 21 16 48q-1 34 -23 57q-23 22 -56 23q-35 -1 -57 -23q-23 -23 -24 -57q0 -27 16 -48q15 -20 40 -28v-52h-48
q-22 -2 -24 -24q2 -22 24 -24h48v-208h-24q-56 1 -94 38t-41 93l15 -13q8 -6 15 -6q11 0 18 8q13 18 -2 34l-56 48q-16 12 -32 0l-56 -48q-15 -16 -2 -34q16 -15 34 -2l16 14q4 -77 56 -127q52 -51 129 -53h95q77 2 129 53q51 50 55 126l16 -14q9 -5 16 -5q11 0 18 8
q14 18 -1 34v0zM288 400q14 0 23 -9v0q9 -9 9 -23t-9 -23t-23 -9t-23 9t-9 23t9 23t23 9v0zM496 136v0h1h-1v0z" />
    <glyph glyph-name="anchor" unicode="&#x2693;" horiz-adv-x="576" 
d="M568 138l-56 48q-16 12 -32 0l-56 -48q-15 -16 -2 -34q16 -15 34 -2l16 13q-4 -56 -42 -93t-94 -38h-24v208h48q22 2 24 24q-2 22 -24 24h-48v52q25 8 40 28q16 21 16 48q-1 34 -23 57q-23 22 -56 23q-35 -1 -57 -23q-23 -23 -24 -57q0 -27 16 -48q15 -20 40 -28v-52h-48
q-22 -2 -24 -24q2 -22 24 -24h48v-208h-24q-56 1 -94 38t-41 93l15 -13q8 -6 15 -6q11 0 18 8q13 18 -2 34l-56 48q-16 12 -32 0l-56 -48q-15 -16 -2 -34q16 -15 34 -2l16 14q4 -77 56 -127q52 -51 129 -53h95q77 2 129 53q51 50 55 126l16 -14q9 -5 16 -5q11 0 18 8
q14 18 -1 34v0zM288 400q14 0 23 -9v0q9 -9 9 -23t-9 -23t-23 -9t-23 9t-9 23t9 23t23 9v0zM496 136v0h1h-1v0z" />
    <glyph glyph-name="swords" unicode="&#xf71d;" 
d="M507 -14l-59 59l32 59q4 11 -3 19l-18 18q-11 9 -22 0l-17 -17l-308 308l-94 16q-17 1 -18 -18l16 -94l307 -308l-17 -17q-9 -11 0 -22l18 -18q8 -8 19 -3l58 32l59 -59q12 -10 23 0l22 22q12 12 2 23v0zM357 62l-296 297l-6 34l34 -6l297 -297l-29 -28v0zM423 387l34 6
l-6 -34l-110 -110l34 -34l121 121l16 94q0 17 -18 18l-94 -16l-121 -121l33 -34l111 110v0zM200 107l-46 -45l-28 28l45 45l-34 34l-45 -45l-17 17q-11 9 -22 0l-18 -18q-8 -8 -3 -19l32 -59l-59 -59q-10 -11 0 -23l22 -22q12 -10 23 0l59 59l58 -32q11 -5 19 3l18 18
q9 11 0 22l-17 17l45 45l-32 34v0z" />
    <glyph glyph-name="swords" unicode="&#x2694;" 
d="M507 -14l-59 59l32 59q4 11 -3 19l-18 18q-11 9 -22 0l-17 -17l-308 308l-94 16q-17 1 -18 -18l16 -94l307 -308l-17 -17q-9 -11 0 -22l18 -18q8 -8 19 -3l58 32l59 -59q12 -10 23 0l22 22q12 12 2 23v0zM357 62l-296 297l-6 34l34 -6l297 -297l-29 -28v0zM423 387l34 6
l-6 -34l-110 -110l34 -34l121 121l16 94q0 17 -18 18l-94 -16l-121 -121l33 -34l111 110v0zM200 107l-46 -45l-28 28l45 45l-34 34l-45 -45l-17 17q-11 9 -22 0l-18 -18q-8 -8 -3 -19l32 -59l-59 -59q-10 -11 0 -23l22 -22q12 -10 23 0l59 59l58 -32q11 -5 19 3l18 18
q9 11 0 22l-17 17l45 45l-32 34v0z" />
    <glyph glyph-name="scale-balanced" unicode="&#xf24e;" horiz-adv-x="640" 
d="M256 112v1v0q1 6 -3 16v0q-4 10 -22 45v0q-18 36 -60 119q-15 27 -43 27t-43 -27q-29 -57 -46 -90q-20 -40 -28 -57t-10 -23q-1 -6 -1 -11q1 -34 37 -57q36 -22 90 -23q54 1 91 23q36 23 38 57v0zM128 272l72 -144h-144l72 144v0zM519 -16h-175v308q43 15 54 60h122
q21 2 23 23q-1 23 -24 25h-127q-9 22 -28 35t-44 13t-44 -13q-20 -13 -29 -35h-127q-21 -2 -23 -23q0 -10 6 -17q7 -8 17 -8h122q11 -45 54 -60v-308h-176q-21 -2 -23 -23q0 -10 6 -17q7 -8 17 -8h399q22 2 23 23q0 23 -23 25v0zM320 336q-14 0 -22 9v0q-9 9 -9 23t9 23
t22 9t22 -9t9 -23t-9 -23t-22 -9v0zM639 112v1v0q1 6 -3 16v0q-4 10 -22 45v0q-18 36 -60 119q-15 27 -43 27q-27 0 -43 -27l-45 -90q-20 -40 -28 -57t-10 -23q-1 -6 -1 -11q1 -34 37 -57q37 -22 91 -23q54 1 90 23q36 23 37 57v0zM439 128q1 2 15 29v0q13 27 30 61v0l27 54
l72 -144h-144v0z" />
    <glyph glyph-name="scale-balanced" unicode="&#x2696;" horiz-adv-x="640" 
d="M256 112v1v0q1 6 -3 16v0q-4 10 -22 45v0q-18 36 -60 119q-15 27 -43 27t-43 -27q-29 -57 -46 -90q-20 -40 -28 -57t-10 -23q-1 -6 -1 -11q1 -34 37 -57q36 -22 90 -23q54 1 91 23q36 23 38 57v0zM128 272l72 -144h-144l72 144v0zM519 -16h-175v308q43 15 54 60h122
q21 2 23 23q-1 23 -24 25h-127q-9 22 -28 35t-44 13t-44 -13q-20 -13 -29 -35h-127q-21 -2 -23 -23q0 -10 6 -17q7 -8 17 -8h122q11 -45 54 -60v-308h-176q-21 -2 -23 -23q0 -10 6 -17q7 -8 17 -8h399q22 2 23 23q0 23 -23 25v0zM320 336q-14 0 -22 9v0q-9 9 -9 23t9 23
t22 9t22 -9t9 -23t-9 -23t-22 -9v0zM639 112v1v0q1 6 -3 16v0q-4 10 -22 45v0q-18 36 -60 119q-15 27 -43 27q-27 0 -43 -27l-45 -90q-20 -40 -28 -57t-10 -23q-1 -6 -1 -11q1 -34 37 -57q37 -22 91 -23q54 1 90 23q36 23 37 57v0zM439 128q1 2 15 29v0q13 27 30 61v0l27 54
l72 -144h-144v0z" />
    <glyph glyph-name="flower-daffodil" unicode="&#xf800;" 
d="M496 160h-47q-51 0 -95 -21q-43 -20 -74 -56v82q29 -9 56 -1q28 9 46 33q18 25 18 53q0 29 -17 54q17 24 17 53q-1 39 -27 64q-25 26 -64 27q-29 0 -53 -18q-24 18 -53 18q-39 -1 -65 -27q-26 -25 -27 -64q0 -29 18 -53q-17 -24 -18 -53q1 -46 38 -74q39 -26 82 -12v-82
q-30 36 -74 56q-43 21 -94 21h-47q-16 -2 -16 -20q10 -88 72 -145t152 -59h64q90 2 152 59t72 145q-1 18 -16 20v0zM224 -16q-61 1 -107 36v0q-46 36 -63 92q113 -3 161 -86l25 -42h-16v0zM237 225q-18 -21 -43 -16q-26 7 -34 33q-3 26 17 43l26 19l-26 19q-16 13 -17 34
q0 18 12 30q12 13 31 13q21 -1 34 -17l19 -26l19 26q13 16 34 17q18 0 31 -12q12 -13 12 -31q-1 -21 -17 -34l-26 -19l26 -19q17 -13 17 -34q0 -18 -12 -31q-12 -12 -31 -12q-21 1 -34 17l-19 26l-19 -26v0zM288 -16h-16l25 42q48 83 161 86q-17 -56 -63 -92
q-46 -35 -107 -36v0zM288 304q0 14 -9 23v0q-9 9 -23 9t-23 -9t-9 -23t9 -23t23 -9t23 9t9 23v0z" />
    <glyph glyph-name="flower-daffodil" unicode="&#x2698;" 
d="M496 160h-47q-51 0 -95 -21q-43 -20 -74 -56v82q29 -9 56 -1q28 9 46 33q18 25 18 53q0 29 -17 54q17 24 17 53q-1 39 -27 64q-25 26 -64 27q-29 0 -53 -18q-24 18 -53 18q-39 -1 -65 -27q-26 -25 -27 -64q0 -29 18 -53q-17 -24 -18 -53q1 -46 38 -74q39 -26 82 -12v-82
q-30 36 -74 56q-43 21 -94 21h-47q-16 -2 -16 -20q10 -88 72 -145t152 -59h64q90 2 152 59t72 145q-1 18 -16 20v0zM224 -16q-61 1 -107 36v0q-46 36 -63 92q113 -3 161 -86l25 -42h-16v0zM237 225q-18 -21 -43 -16q-26 7 -34 33q-3 26 17 43l26 19l-26 19q-16 13 -17 34
q0 18 12 30q12 13 31 13q21 -1 34 -17l19 -26l19 26q13 16 34 17q18 0 31 -12q12 -13 12 -31q-1 -21 -17 -34l-26 -19l26 -19q17 -13 17 -34q0 -18 -12 -31q-12 -12 -31 -12q-21 1 -34 17l-19 26l-19 -26v0zM288 -16h-16l25 42q48 83 161 86q-17 -56 -63 -92
q-46 -35 -107 -36v0zM288 304q0 14 -9 23v0q-9 9 -23 9t-23 -9t-9 -23t9 -23t23 -9t23 9t9 23v0z" />
    <glyph glyph-name="gear" unicode="&#xf013;" 
d="M504 133q0 14 -12 21l-33 19q1 9 1 19t-1 20l33 19q12 7 12 21q0 12 -14 43q-13 30 -33 57q-19 26 -37 28q-7 0 -13 -3l-33 -19q-16 11 -34 20v38q-1 18 -18 23q-32 9 -66 9q-33 0 -66 -9q-17 -5 -18 -23v-38q-18 -9 -34 -20l-33 19q-6 3 -13 3v0v0q-17 -1 -36 -27
t-33 -56t-15 -45q0 -14 12 -21l33 -19q-1 -10 -1 -20t1 -20l-33 -19q-12 -7 -12 -20t14 -43q13 -30 33 -57q19 -27 37 -28q7 0 13 3l33 19q16 -12 34 -20v-38q1 -18 18 -24q33 -9 65 -9q34 0 66 9q17 5 19 23v38q18 9 34 20l32 -19q6 -3 13 -3q17 1 37 27q19 26 33 56
q14 31 15 46v0zM415 59l-43 25q-7 -4 -11 -8q-20 -15 -30 -20q-9 -5 -39 -18v-50q-20 -3 -36 -3q-24 0 -36 3v50q-7 3 -13 6q-22 10 -31 15q-10 6 -36 25l-43 -25q-24 28 -37 63l43 24q-1 15 -2 24q-1 14 -1 22q0 10 3 32q0 6 1 14l-44 25q13 35 37 63l43 -25q7 4 11 8
q20 14 30 20q9 5 39 18v50q20 3 36 3q23 0 36 -3v-50q7 -4 13 -6q22 -10 31 -15q10 -6 36 -25l43 25q24 -28 37 -63l-44 -25q1 -8 1 -14q3 -22 3 -32t-3 -32q0 -6 -1 -14l44 -25q-13 -35 -37 -62v0zM256 289q-41 -1 -68 -28v0q-27 -27 -28 -68q1 -41 28 -68t68 -28
q41 1 68 28t28 68q-1 41 -28 68t-68 28v0zM256 144q-20 1 -34 14v0q-13 14 -14 34q1 20 14 34q14 13 34 14q20 -1 34 -14q13 -14 14 -34q-1 -20 -14 -34q-14 -13 -34 -14v0z" />
    <glyph glyph-name="gear" unicode="&#x2699;" 
d="M504 133q0 14 -12 21l-33 19q1 9 1 19t-1 20l33 19q12 7 12 21q0 12 -14 43q-13 30 -33 57q-19 26 -37 28q-7 0 -13 -3l-33 -19q-16 11 -34 20v38q-1 18 -18 23q-32 9 -66 9q-33 0 -66 -9q-17 -5 -18 -23v-38q-18 -9 -34 -20l-33 19q-6 3 -13 3v0v0q-17 -1 -36 -27
t-33 -56t-15 -45q0 -14 12 -21l33 -19q-1 -10 -1 -20t1 -20l-33 -19q-12 -7 -12 -20t14 -43q13 -30 33 -57q19 -27 37 -28q7 0 13 3l33 19q16 -12 34 -20v-38q1 -18 18 -24q33 -9 65 -9q34 0 66 9q17 5 19 23v38q18 9 34 20l32 -19q6 -3 13 -3q17 1 37 27q19 26 33 56
q14 31 15 46v0zM415 59l-43 25q-7 -4 -11 -8q-20 -15 -30 -20q-9 -5 -39 -18v-50q-20 -3 -36 -3q-24 0 -36 3v50q-7 3 -13 6q-22 10 -31 15q-10 6 -36 25l-43 -25q-24 28 -37 63l43 24q-1 15 -2 24q-1 14 -1 22q0 10 3 32q0 6 1 14l-44 25q13 35 37 63l43 -25q7 4 11 8
q20 14 30 20q9 5 39 18v50q20 3 36 3q23 0 36 -3v-50q7 -4 13 -6q22 -10 31 -15q10 -6 36 -25l43 25q24 -28 37 -63l-44 -25q1 -8 1 -14q3 -22 3 -32t-3 -32q0 -6 -1 -14l44 -25q-13 -35 -37 -62v0zM256 289q-41 -1 -68 -28v0q-27 -27 -28 -68q1 -41 28 -68t68 -28
q41 1 68 28t28 68q-1 41 -28 68t-68 28v0zM256 144q-20 1 -34 14v0q-13 14 -14 34q1 20 14 34q14 13 34 14q20 -1 34 -14q13 -14 14 -34q-1 -20 -14 -34q-14 -13 -34 -14v0z" />
    <glyph glyph-name="atom" unicode="&#xf5d2;" 
d="M256 224q-14 0 -23 -9v0q-10 -9 -10 -23t10 -23q9 -9 23 -9t23 9t9 23t-9 23t-23 9v0zM471 320q-25 42 -93 41q-14 0 -28 -2q-17 42 -42 65q-24 24 -52 24t-52 -24q-25 -23 -42 -65q-14 2 -28 2q-68 1 -93 -41q-14 -26 -6 -59t33 -69q-25 -36 -33 -69t6 -59
q25 -42 93 -41q14 0 28 2q17 -42 42 -65q24 -24 52 -24t52 24q25 23 42 65q14 -2 28 -2q68 -1 93 41q14 26 6 59t-33 69q25 36 33 69q7 33 -6 59v0zM256 400q23 -1 47 -50q-24 -7 -47 -16q-23 9 -47 16q24 49 47 50v0zM134 71q-42 0 -53 17q-10 21 19 67q17 -18 37 -34
q3 -25 9 -49q-2 0 -5 -1h-7v0zM137 263q-20 -16 -37 -34q-29 46 -19 67q11 17 53 17h6q3 -1 6 -1q-6 -24 -9 -49v0zM256 -16q-23 1 -47 49q24 8 47 17q23 -9 47 -16q-24 -49 -47 -50v0zM256 96q-41 1 -68 28v0q-27 27 -28 68q1 41 28 68t68 28q41 -1 68 -28t28 -68
q-1 -41 -28 -68q-28 -27 -68 -28v0zM431 88q-11 -17 -53 -17h-6q-3 1 -6 1q4 17 7 34q1 8 2 15q2 1 3 3q18 14 33 31q30 -46 20 -67v0zM412 229q-17 18 -37 34q-1 7 -2 15q-3 17 -7 34q2 0 5 1h7q42 0 53 -17q10 -21 -19 -67v0z" />
    <glyph glyph-name="atom" unicode="&#x269b;" 
d="M256 224q-14 0 -23 -9v0q-10 -9 -10 -23t10 -23q9 -9 23 -9t23 9t9 23t-9 23t-23 9v0zM471 320q-25 42 -93 41q-14 0 -28 -2q-17 42 -42 65q-24 24 -52 24t-52 -24q-25 -23 -42 -65q-14 2 -28 2q-68 1 -93 -41q-14 -26 -6 -59t33 -69q-25 -36 -33 -69t6 -59
q25 -42 93 -41q14 0 28 2q17 -42 42 -65q24 -24 52 -24t52 24q25 23 42 65q14 -2 28 -2q68 -1 93 41q14 26 6 59t-33 69q25 36 33 69q7 33 -6 59v0zM256 400q23 -1 47 -50q-24 -7 -47 -16q-23 9 -47 16q24 49 47 50v0zM134 71q-42 0 -53 17q-10 21 19 67q17 -18 37 -34
q3 -25 9 -49q-2 0 -5 -1h-7v0zM137 263q-20 -16 -37 -34q-29 46 -19 67q11 17 53 17h6q3 -1 6 -1q-6 -24 -9 -49v0zM256 -16q-23 1 -47 49q24 8 47 17q23 -9 47 -16q-24 -49 -47 -50v0zM256 96q-41 1 -68 28v0q-27 27 -28 68q1 41 28 68t68 28q41 -1 68 -28t28 -68
q-1 -41 -28 -68q-28 -27 -68 -28v0zM431 88q-11 -17 -53 -17h-6q-3 1 -6 1q4 17 7 34q1 8 2 15q2 1 3 3q18 14 33 31q30 -46 20 -67v0zM412 229q-17 18 -37 34q-1 7 -2 15q-3 17 -7 34q2 0 5 1h7q42 0 53 -17q10 -21 -19 -67v0z" />
    <glyph glyph-name="triangle-exclamation" unicode="&#xf071;" 
d="M506 31l-213 364q-14 21 -37 21t-38 -21l-213 -364q-11 -22 1 -42q11 -20 37 -21h426q26 1 37 21q12 20 0 42v0zM53 16l202 347l204 -347h-406v0zM256 111q-13 0 -22 -9v0q-9 -9 -9 -23q0 -13 9 -22t22 -9t22 9t9 22q0 14 -9 23t-22 9v0zM232 264v-96q2 -22 24 -24
q22 2 24 24v96q-2 22 -24 24q-22 -2 -24 -24v0z" />
    <glyph glyph-name="triangle-exclamation" unicode="&#x26a0;" 
d="M506 31l-213 364q-14 21 -37 21t-38 -21l-213 -364q-11 -22 1 -42q11 -20 37 -21h426q26 1 37 21q12 20 0 42v0zM53 16l202 347l204 -347h-406v0zM256 111q-13 0 -22 -9v0q-9 -9 -9 -23q0 -13 9 -22t22 -9t22 9t9 22q0 14 -9 23t-22 9v0zM232 264v-96q2 -22 24 -24
q22 2 24 24v96q-2 22 -24 24q-22 -2 -24 -24v0z" />
    <glyph glyph-name="bolt" unicode="&#xf0e7;" horiz-adv-x="384" 
d="M381 203q-8 20 -30 21h-111l77 179q8 23 -11 39q-21 13 -40 -2l-255 -224q-16 -15 -9 -35q9 -20 30 -21h112l-77 -179q-9 -23 10 -39q9 -5 19 -6q12 0 21 8l255 223q17 16 9 36v0zM203 299l-32 -75h-54l86 75v0zM181 85l32 75h54l-86 -75v0z" />
    <glyph glyph-name="bolt" unicode="&#x26a1;" horiz-adv-x="384" 
d="M381 203q-8 20 -30 21h-111l77 179q8 23 -11 39q-21 13 -40 -2l-255 -224q-16 -15 -9 -35q9 -20 30 -21h112l-77 -179q-9 -23 10 -39q9 -5 19 -6q12 0 21 8l255 223q17 16 9 36v0zM203 299l-32 -75h-54l86 75v0zM181 85l32 75h54l-86 -75v0z" />
    <glyph glyph-name="venus-double" unicode="&#xf226;" horiz-adv-x="640" 
d="M624 272q-2 75 -52 124v0q-49 50 -124 52q-59 -1 -104 -34q16 -18 29 -39q32 24 75 25q54 -1 90 -38q37 -36 38 -90q-1 -54 -38 -90q-36 -37 -90 -38q-43 1 -75 25q-13 -21 -29 -39q35 -25 80 -32v-42h-48q-22 -2 -24 -24q2 -22 24 -24h48v-48q2 -22 24 -24q22 2 24 24
v48h48q22 2 24 24q-2 22 -24 24h-48v42q66 10 108 58q43 48 44 116v0zM368 272q-2 75 -52 124v0q-49 50 -124 52q-75 -2 -124 -52q-50 -49 -52 -124q1 -68 44 -116q42 -48 108 -58v-42h-48q-22 -2 -24 -24q2 -22 24 -24h48v-48q2 -22 24 -24q22 2 24 24v48h48q22 2 24 24
q-2 22 -24 24h-48v42q66 10 108 58q43 48 44 116v0zM192 144q-54 1 -90 38v0q-37 36 -38 90q1 54 38 90q36 37 90 38q54 -1 90 -38q37 -36 38 -90q-1 -54 -38 -90q-36 -37 -90 -38v0z" />
    <glyph glyph-name="venus-double" unicode="&#x26a2;" horiz-adv-x="640" 
d="M624 272q-2 75 -52 124v0q-49 50 -124 52q-59 -1 -104 -34q16 -18 29 -39q32 24 75 25q54 -1 90 -38q37 -36 38 -90q-1 -54 -38 -90q-36 -37 -90 -38q-43 1 -75 25q-13 -21 -29 -39q35 -25 80 -32v-42h-48q-22 -2 -24 -24q2 -22 24 -24h48v-48q2 -22 24 -24q22 2 24 24
v48h48q22 2 24 24q-2 22 -24 24h-48v42q66 10 108 58q43 48 44 116v0zM368 272q-2 75 -52 124v0q-49 50 -124 52q-75 -2 -124 -52q-50 -49 -52 -124q1 -68 44 -116q42 -48 108 -58v-42h-48q-22 -2 -24 -24q2 -22 24 -24h48v-48q2 -22 24 -24q22 2 24 24v48h48q22 2 24 24
q-2 22 -24 24h-48v42q66 10 108 58q43 48 44 116v0zM192 144q-54 1 -90 38v0q-37 36 -38 90q1 54 38 90q36 37 90 38q54 -1 90 -38q37 -36 38 -90q-1 -54 -38 -90q-36 -37 -90 -38v0z" />
    <glyph glyph-name="mars-double" unicode="&#xf227;" horiz-adv-x="640" 
d="M616 416h-111q-22 -2 -23 -24q2 -22 23 -24h54l-100 -100q-15 -16 0 -33q37 -40 37 -91t-38 -90q-37 -37 -90 -38q-13 0 -26 3q-9 -12 -19 -22q-9 -9 -19 -17q31 -12 64 -12q70 0 124 52q47 49 51 112q4 64 -35 118l84 84v-54q2 -22 23 -24q10 0 17 7q8 7 8 17v112
q-2 22 -24 24v0zM316 250l84 84v-54q2 -22 23 -24q22 2 24 24v112q-2 22 -24 24h-111q-21 -2 -23 -24q2 -22 23 -24h54l-84 -84q-49 36 -106 37q-70 0 -124 -52q-52 -54 -52 -124t52 -125q53 -52 124 -52t124 52q47 49 51 112q3 64 -35 118v0zM267 53q-38 -36 -91 -37
q-53 1 -91 37q-37 40 -37 91t37 90q38 37 91 38q53 -1 91 -38q37 -39 37 -90t-37 -91v0z" />
    <glyph glyph-name="mars-double" unicode="&#x26a3;" horiz-adv-x="640" 
d="M616 416h-111q-22 -2 -23 -24q2 -22 23 -24h54l-100 -100q-15 -16 0 -33q37 -40 37 -91t-38 -90q-37 -37 -90 -38q-13 0 -26 3q-9 -12 -19 -22q-9 -9 -19 -17q31 -12 64 -12q70 0 124 52q47 49 51 112q4 64 -35 118l84 84v-54q2 -22 23 -24q10 0 17 7q8 7 8 17v112
q-2 22 -24 24v0zM316 250l84 84v-54q2 -22 23 -24q22 2 24 24v112q-2 22 -24 24h-111q-21 -2 -23 -24q2 -22 23 -24h54l-84 -84q-49 36 -106 37q-70 0 -124 -52q-52 -54 -52 -124t52 -125q53 -52 124 -52t124 52q47 49 51 112q3 64 -35 118v0zM267 53q-38 -36 -91 -37
q-53 1 -91 37q-37 40 -37 91t37 90q38 37 91 38q53 -1 91 -38q37 -39 37 -90t-37 -91v0z" />
    <glyph glyph-name="venus-mars" unicode="&#xf228;" horiz-adv-x="640" 
d="M248 56h-48v42q66 10 108 58q43 48 44 116q-2 75 -52 124q-49 50 -124 52q-75 -2 -124 -52q-50 -49 -52 -124q1 -68 44 -116q42 -48 108 -58v-42h-48q-22 -2 -24 -24q2 -22 24 -24h48v-48q2 -22 24 -24q22 2 24 24v48h48q22 2 24 24q-2 22 -24 24v0zM176 144
q-54 1 -90 38v0q-37 36 -38 90q1 54 38 90q36 37 90 38q54 -1 90 -38q37 -36 38 -90q-1 -54 -38 -90q-36 -37 -90 -38v0zM616 448h-112q-22 -2 -24 -24q2 -22 24 -24h54l-52 -52q-49 36 -106 36q-23 0 -45 -7q12 -20 20 -43q12 2 25 2q53 -1 91 -37q37 -40 37 -91t-37 -90
q-38 -37 -91 -38q-51 1 -88 35q-18 -16 -40 -27l2 -2l2 -2q53 -52 124 -52q70 0 125 52q47 49 50 112q4 64 -35 118l52 52v-54q2 -22 24 -24q22 2 24 24v112q-2 22 -24 24v0z" />
    <glyph glyph-name="venus-mars" unicode="&#x26a4;" horiz-adv-x="640" 
d="M248 56h-48v42q66 10 108 58q43 48 44 116q-2 75 -52 124q-49 50 -124 52q-75 -2 -124 -52q-50 -49 -52 -124q1 -68 44 -116q42 -48 108 -58v-42h-48q-22 -2 -24 -24q2 -22 24 -24h48v-48q2 -22 24 -24q22 2 24 24v48h48q22 2 24 24q-2 22 -24 24v0zM176 144
q-54 1 -90 38v0q-37 36 -38 90q1 54 38 90q36 37 90 38q54 -1 90 -38q37 -36 38 -90q-1 -54 -38 -90q-36 -37 -90 -38v0zM616 448h-112q-22 -2 -24 -24q2 -22 24 -24h54l-52 -52q-49 36 -106 36q-23 0 -45 -7q12 -20 20 -43q12 2 25 2q53 -1 91 -37q37 -40 37 -91t-37 -90
q-38 -37 -91 -38q-51 1 -88 35q-18 -16 -40 -27l2 -2l2 -2q53 -52 124 -52q70 0 125 52q47 49 50 112q4 64 -35 118l52 52v-54q2 -22 24 -24q22 2 24 24v112q-2 22 -24 24v0z" />
    <glyph glyph-name="mars-and-venus" unicode="&#x26a5;" 
d="M472 448h-96q-22 -2 -24 -24q2 -22 24 -24h38l-43 -43q-48 42 -115 43q-75 -2 -124 -52q-50 -49 -52 -124q1 -68 44 -116q42 -48 108 -58v-26h-24q-22 -2 -24 -24q2 -22 24 -24h24v-16q2 -22 24 -24q22 2 24 24v16h24q22 2 24 24q-2 22 -24 24h-24v26q66 10 108 58
q43 48 44 116q-1 54 -29 97l45 45v-38q2 -22 24 -24q22 2 24 24v96q-2 22 -24 24v0zM256 96q-54 1 -90 38v0q-37 36 -38 90q1 54 38 90q36 37 90 38q54 -1 90 -38q37 -36 38 -90q-1 -54 -38 -90q-36 -37 -90 -38v0z" />
    <glyph glyph-name="mars-stroke" unicode="&#xf229;" 
d="M488 448h-112q-22 -2 -24 -24q2 -22 24 -24h54l-54 -54l-31 31q-17 14 -34 0q-14 -17 0 -34l31 -31l-28 -28q-49 36 -106 36q-71 0 -124 -52q-52 -54 -52 -124t52 -124q53 -52 124 -52t125 52q47 49 50 112q4 64 -35 118l28 28l31 -31q7 -7 17 -7t17 7q14 17 0 34l-31 31
l54 54v-54q2 -22 24 -24q22 2 24 24v112q-2 22 -24 24v0zM299 53q-38 -36 -91 -37q-53 1 -91 37q-37 40 -37 91t37 90q38 37 91 38q53 -1 91 -38v0v0q37 -39 37 -90t-37 -91v0z" />
    <glyph glyph-name="mars-stroke" unicode="&#x26a6;" 
d="M488 448h-112q-22 -2 -24 -24q2 -22 24 -24h54l-54 -54l-31 31q-17 14 -34 0q-14 -17 0 -34l31 -31l-28 -28q-49 36 -106 36q-71 0 -124 -52q-52 -54 -52 -124t52 -124q53 -52 124 -52t125 52q47 49 50 112q4 64 -35 118l28 28l31 -31q7 -7 17 -7t17 7q14 17 0 34l-31 31
l54 54v-54q2 -22 24 -24q22 2 24 24v112q-2 22 -24 24v0zM299 53q-38 -36 -91 -37q-53 1 -91 37q-37 40 -37 91t37 90q38 37 91 38q53 -1 91 -38v0v0q37 -39 37 -90t-37 -91v0z" />
    <glyph glyph-name="transgender" unicode="&#x26a7;" 
d="M488 448h-80q-22 -2 -24 -24q2 -22 24 -24h22l-79 -80q-42 31 -95 32q-54 -1 -94 -32l-16 16l15 15q14 17 0 34q-17 14 -34 0l-15 -15l-30 30h22q22 2 24 24q-2 22 -24 24h-80q-22 -2 -24 -24v-80q2 -22 24 -24q22 2 24 24v22l30 -30l-15 -15q-14 -17 0 -34q7 -7 17 -7
t17 7l15 15l16 -15q-31 -41 -32 -95q1 -61 39 -104q38 -44 97 -54v-18h-24q-22 -2 -24 -23q0 -10 7 -17t17 -7l24 -1v-8q2 -22 24 -24q22 2 24 24v8h24q22 2 24 24q-2 21 -24 23l-24 1v18q59 10 97 54q38 43 39 104q-1 53 -32 95l80 79v-22q2 -22 24 -24q22 2 24 24v80
q-2 22 -24 24v0zM256 80q-48 1 -79 33v0q-32 31 -33 79q1 47 32 79v0q1 0 0 1q0 1 1 0v-1q32 32 79 33q47 -1 79 -32v-1v0v0h1q31 -32 32 -79q-1 -48 -33 -79q-31 -32 -79 -33v0z" />
    <glyph glyph-name="mars-stroke-up" unicode="&#xf22a;" horiz-adv-x="384" 
d="M216 286v10h32q22 2 24 23q0 10 -7 17q-7 8 -17 8h-32v32l26 -19q6 -5 14 -5q12 0 19 10q12 18 -5 33l-64 47q-14 10 -28 0l-64 -47q-17 -15 -5 -33q15 -17 33 -5l26 19v-32h-32q-22 -2 -24 -23q0 -10 7 -17q7 -8 17 -8h32v-10q-66 -10 -108 -58q-43 -47 -44 -116
q2 -75 52 -124q49 -50 124 -52q75 2 124 51q50 50 52 124q-1 70 -44 117q-42 48 -108 58v0zM192 -16q-54 1 -90 37v0q-37 36 -38 90q1 54 38 90q36 36 90 37q54 -1 90 -37q37 -36 38 -90q-1 -54 -38 -90q-36 -36 -90 -37v0z" />
    <glyph glyph-name="mars-stroke-up" unicode="&#x26a8;" horiz-adv-x="384" 
d="M216 286v10h32q22 2 24 23q0 10 -7 17q-7 8 -17 8h-32v32l26 -19q6 -5 14 -5q12 0 19 10q12 18 -5 33l-64 47q-14 10 -28 0l-64 -47q-17 -15 -5 -33q15 -17 33 -5l26 19v-32h-32q-22 -2 -24 -23q0 -10 7 -17q7 -8 17 -8h32v-10q-66 -10 -108 -58q-43 -47 -44 -116
q2 -75 52 -124q49 -50 124 -52q75 2 124 51q50 50 52 124q-1 70 -44 117q-42 48 -108 58v0zM192 -16q-54 1 -90 37v0q-37 36 -38 90q1 54 38 90q36 36 90 37q54 -1 90 -37q37 -36 38 -90q-1 -54 -38 -90q-36 -36 -90 -37v0z" />
    <glyph glyph-name="mars-stroke-right" unicode="&#xf22b;" horiz-adv-x="640" 
d="M617 209l-80 80q-17 14 -34 0q-14 -17 0 -34l39 -39h-78v48q-2 22 -24 24q-22 -2 -24 -24v-48h-34q-10 66 -58 108q-48 43 -116 44q-75 -2 -124 -52q-50 -49 -52 -124q2 -75 52 -124q49 -50 124 -52q68 1 116 44q48 42 58 108h34v-48q2 -22 24 -24q22 2 24 24v48h78
l-39 -39q-14 -17 0 -34q7 -7 17 -7q11 0 17 7l80 80q14 17 0 34v0zM208 64q-54 1 -90 38v0q-37 36 -38 90q1 54 38 90q36 37 90 38q54 -1 90 -38q37 -36 38 -90q-1 -54 -38 -90q-36 -37 -90 -38v0z" />
    <glyph glyph-name="mars-stroke-right" unicode="&#x26a9;" horiz-adv-x="640" 
d="M617 209l-80 80q-17 14 -34 0q-14 -17 0 -34l39 -39h-78v48q-2 22 -24 24q-22 -2 -24 -24v-48h-34q-10 66 -58 108q-48 43 -116 44q-75 -2 -124 -52q-50 -49 -52 -124q2 -75 52 -124q49 -50 124 -52q68 1 116 44q48 42 58 108h34v-48q2 -22 24 -24q22 2 24 24v48h78
l-39 -39q-14 -17 0 -34q7 -7 17 -7q11 0 17 7l80 80q14 17 0 34v0zM208 64q-54 1 -90 38v0q-37 36 -38 90q1 54 38 90q36 37 90 38q54 -1 90 -38q37 -36 38 -90q-1 -54 -38 -90q-36 -37 -90 -38v0z" />
    <glyph glyph-name="coffin" unicode="&#xf6c6;" horiz-adv-x="448" 
d="M407 333l-108 106q-10 9 -23 9h-104q-13 0 -23 -9l-108 -106q-12 -13 -8 -31l87 -342q7 -23 32 -24h144q25 1 32 24l87 342q4 18 -8 31v0zM285 -16h-121l-82 321l97 95h91l96 -95l-81 -321v0z" />
    <glyph glyph-name="coffin" unicode="&#x26b0;" horiz-adv-x="448" 
d="M407 333l-108 106q-10 9 -23 9h-104q-13 0 -23 -9l-108 -106q-12 -13 -8 -31l87 -342q7 -23 32 -24h144q25 1 32 24l87 342q4 18 -8 31v0zM285 -16h-121l-82 321l97 95h91l96 -95l-81 -321v0z" />
    <glyph glyph-name="neuter" unicode="&#xf22c;" horiz-adv-x="384" 
d="M368 272q-2 75 -52 124v0q-49 50 -124 52q-75 -2 -124 -52q-50 -49 -52 -124q1 -68 44 -116q42 -48 108 -58v-138q2 -22 24 -24q22 2 24 24v138q66 10 108 58q43 48 44 116v0zM192 144q-54 1 -90 38v0q-37 36 -38 90q1 54 38 90q36 37 90 38q54 -1 90 -38q37 -36 38 -90
q-1 -54 -38 -90q-36 -37 -90 -38v0z" />
    <glyph glyph-name="neuter" unicode="&#x26b2;" horiz-adv-x="384" 
d="M368 272q-2 75 -52 124v0q-49 50 -124 52q-75 -2 -124 -52q-50 -49 -52 -124q1 -68 44 -116q42 -48 108 -58v-138q2 -22 24 -24q22 2 24 24v138q66 10 108 58q43 48 44 116v0zM192 144q-54 1 -90 38v0q-37 36 -38 90q1 54 38 90q36 37 90 38q54 -1 90 -38q37 -36 38 -90
q-1 -54 -38 -90q-36 -37 -90 -38v0z" />
    <glyph glyph-name="futbol" unicode="&#xf1e3;" 
d="M177 219l31 -91h96l30 91l-78 57l-79 -57v0zM255 448q-71 -1 -128 -35v0q-58 -34 -92 -92v0q-34 -57 -35 -129q1 -72 35 -129q34 -58 92 -92q57 -34 129 -35q71 1 129 35q57 34 91 92q34 57 35 128q-1 71 -35 129t-91 93q-58 34 -130 35v0zM435 87l-104 1l-30 -99
q-22 -5 -45 -5t-45 5l-30 99l-104 -1q-23 38 -28 85l85 60l-33 98q30 34 72 53l83 -63l83 62q42 -18 72 -52l-33 -98l85 -60q-6 -47 -28 -85v0z" />
    <glyph glyph-name="futbol" unicode="&#x26bd;" 
d="M177 219l31 -91h96l30 91l-78 57l-79 -57v0zM255 448q-71 -1 -128 -35v0q-58 -34 -92 -92v0q-34 -57 -35 -129q1 -72 35 -129q34 -58 92 -92q57 -34 129 -35q71 1 129 35q57 34 91 92q34 57 35 128q-1 71 -35 129t-91 93q-58 34 -130 35v0zM435 87l-104 1l-30 -99
q-22 -5 -45 -5t-45 5l-30 99l-104 -1q-23 38 -28 85l85 60l-33 98q30 34 72 53l83 -63l83 62q42 -18 72 -52l-33 -98l85 -60q-6 -47 -28 -85v0z" />
    <glyph glyph-name="baseball" unicode="&#x1f94e;" 
d="M256 448q-72 -1 -129 -35v0q-58 -34 -92 -92v0q-34 -57 -35 -129q1 -72 35 -129q34 -58 92 -92q57 -34 129 -35q72 1 129 35q58 34 92 92q34 57 35 129q-1 72 -35 129q-34 58 -92 92q-57 34 -129 35v0zM296 -12q0 9 1 10v0v2q0 7 -6 15t-18 9q-21 -2 -24 -22
q-1 -9 -1 -18q-83 5 -139 61t-61 139h1h4q11 -1 23 4q12 4 13 21q-1 15 -10 19q-9 5 -14 5h-2h-5h-6v0q13 62 57 106t107 57q0 -10 -1 -10v-2q0 -8 6 -16t18 -8q21 1 24 22q1 9 1 18q83 -5 139 -61t61 -140h-4h-4q-6 1 -13 0q-20 -4 -21 -24q-1 -7 5 -15t18 -9h3h6h6
q-13 -62 -57 -106t-107 -57v0zM246 319q0 6 -5 15v0q-5 8 -19 9q-14 0 -22 -14q-17 -35 -35 -51q-19 -16 -35 -24q-23 -10 -24 -28q0 -14 9 -19t15 -5q17 1 44 23q27 21 49 48q22 28 23 46v0zM382 181q-18 -1 -45 -22v0q-27 -22 -49 -49v0q-21 -27 -23 -46q0 -6 5 -15
q6 -8 19 -9q15 0 22 14q17 35 36 51q18 16 34 24q23 10 24 28q0 14 -9 19q-8 6 -14 5v0z" />
    <glyph glyph-name="baseball" unicode="&#xf433;" 
d="M256 448q-72 -1 -129 -35v0q-58 -34 -92 -92v0q-34 -57 -35 -129q1 -72 35 -129q34 -58 92 -92q57 -34 129 -35q72 1 129 35q58 34 92 92q34 57 35 129q-1 72 -35 129q-34 58 -92 92q-57 34 -129 35v0zM296 -12q0 9 1 10v0v2q0 7 -6 15t-18 9q-21 -2 -24 -22
q-1 -9 -1 -18q-83 5 -139 61t-61 139h1h4q11 -1 23 4q12 4 13 21q-1 15 -10 19q-9 5 -14 5h-2h-5h-6v0q13 62 57 106t107 57q0 -10 -1 -10v-2q0 -8 6 -16t18 -8q21 1 24 22q1 9 1 18q83 -5 139 -61t61 -140h-4h-4q-6 1 -13 0q-20 -4 -21 -24q-1 -7 5 -15t18 -9h3h6h6
q-13 -62 -57 -106t-107 -57v0zM246 319q0 6 -5 15v0q-5 8 -19 9q-14 0 -22 -14q-17 -35 -35 -51q-19 -16 -35 -24q-23 -10 -24 -28q0 -14 9 -19t15 -5q17 1 44 23q27 21 49 48q22 28 23 46v0zM382 181q-18 -1 -45 -22v0q-27 -22 -49 -49v0q-21 -27 -23 -46q0 -6 5 -15
q6 -8 19 -9q15 0 22 14q17 35 36 51q18 16 34 24q23 10 24 28q0 14 -9 19q-8 6 -14 5v0z" />
    <glyph glyph-name="baseball" unicode="&#x26be;" 
d="M256 448q-72 -1 -129 -35v0q-58 -34 -92 -92v0q-34 -57 -35 -129q1 -72 35 -129q34 -58 92 -92q57 -34 129 -35q72 1 129 35q58 34 92 92q34 57 35 129q-1 72 -35 129q-34 58 -92 92q-57 34 -129 35v0zM296 -12q0 9 1 10v0v2q0 7 -6 15t-18 9q-21 -2 -24 -22
q-1 -9 -1 -18q-83 5 -139 61t-61 139h1h4q11 -1 23 4q12 4 13 21q-1 15 -10 19q-9 5 -14 5h-2h-5h-6v0q13 62 57 106t107 57q0 -10 -1 -10v-2q0 -8 6 -16t18 -8q21 1 24 22q1 9 1 18q83 -5 139 -61t61 -140h-4h-4q-6 1 -13 0q-20 -4 -21 -24q-1 -7 5 -15t18 -9h3h6h6
q-13 -62 -57 -106t-107 -57v0zM246 319q0 6 -5 15v0q-5 8 -19 9q-14 0 -22 -14q-17 -35 -35 -51q-19 -16 -35 -24q-23 -10 -24 -28q0 -14 9 -19t15 -5q17 1 44 23q27 21 49 48q22 28 23 46v0zM382 181q-18 -1 -45 -22v0q-27 -22 -49 -49v0q-21 -27 -23 -46q0 -6 5 -15
q6 -8 19 -9q15 0 22 14q17 35 36 51q18 16 34 24q23 10 24 28q0 14 -9 19q-8 6 -14 5v0z" />
    <glyph glyph-name="cloud-sun" unicode="&#xf6c4;" horiz-adv-x="640" 
d="M128 240q1 -30 19 -51v0q18 -22 46 -28q10 15 23 24q18 56 65 88q-10 21 -29 34t-44 13q-34 -1 -57 -23q-22 -23 -23 -57v0zM96 240q1 48 33 79v0q31 32 79 33q34 0 60 -18q26 -17 40 -45q32 15 68 15q15 0 29 -3l9 13q6 14 -8 19l-89 16l-16 89q-5 14 -19 8l-74 -52
l-74 52q-14 6 -19 -8l-16 -89l-89 -16q-14 -5 -8 -19l52 -74l-52 -74q-6 -14 8 -19l89 -16l16 -89q5 -14 19 -8l27 19v5q-1 3 -1 6q0 37 15 69q-35 11 -56 40q-22 28 -23 67v0zM583 152q-7 38 -35 63v0q-28 24 -68 25q-8 0 -15 -1q-38 32 -89 33q-49 -1 -85 -30t-47 -75
q-25 -18 -38 -45q-14 -27 -14 -58q1 -54 38 -90q36 -37 90 -38h204q49 1 82 34t34 82q0 32 -16 58q-15 26 -41 42v0zM524 -16h-204q-34 1 -57 23q-22 23 -23 57q0 25 13 44q13 20 35 29q2 37 26 62q25 24 62 25q49 -2 74 -41q13 9 30 9q24 -1 40 -16q15 -16 16 -40
q0 -9 -3 -17q26 -4 42 -22q16 -19 17 -45q-1 -29 -20 -48t-48 -20v0z" />
    <glyph glyph-name="cloud-sun" unicode="&#x26c5;" horiz-adv-x="640" 
d="M128 240q1 -30 19 -51v0q18 -22 46 -28q10 15 23 24q18 56 65 88q-10 21 -29 34t-44 13q-34 -1 -57 -23q-22 -23 -23 -57v0zM96 240q1 48 33 79v0q31 32 79 33q34 0 60 -18q26 -17 40 -45q32 15 68 15q15 0 29 -3l9 13q6 14 -8 19l-89 16l-16 89q-5 14 -19 8l-74 -52
l-74 52q-14 6 -19 -8l-16 -89l-89 -16q-14 -5 -8 -19l52 -74l-52 -74q-6 -14 8 -19l89 -16l16 -89q5 -14 19 -8l27 19v5q-1 3 -1 6q0 37 15 69q-35 11 -56 40q-22 28 -23 67v0zM583 152q-7 38 -35 63v0q-28 24 -68 25q-8 0 -15 -1q-38 32 -89 33q-49 -1 -85 -30t-47 -75
q-25 -18 -38 -45q-14 -27 -14 -58q1 -54 38 -90q36 -37 90 -38h204q49 1 82 34t34 82q0 32 -16 58q-15 26 -41 42v0zM524 -16h-204q-34 1 -57 23q-22 23 -23 57q0 25 13 44q13 20 35 29q2 37 26 62q25 24 62 25q49 -2 74 -41q13 9 30 9q24 -1 40 -16q15 -16 16 -40
q0 -9 -3 -17q26 -4 42 -22q16 -19 17 -45q-1 -29 -20 -48t-48 -20v0z" />
    <glyph glyph-name="cloud-rain" unicode="&#x1f327;" 
d="M411 344q-11 32 -38 52v0q-26 19 -61 20q-20 0 -39 -8q-36 39 -89 40q-49 -1 -83 -33q-33 -32 -37 -80q-29 -14 -46 -40q-18 -26 -18 -59q1 -46 32 -76q30 -31 76 -32h296q46 1 76 32q31 30 32 76q-1 44 -29 74q-29 30 -72 34v0zM404 176h-296q-25 1 -42 18t-18 42
q0 21 13 37t33 21l21 5l-3 25v1v3q1 31 21 51t51 21q40 -1 61 -35l14 -22l21 15q14 10 32 10q22 0 37 -14q16 -14 18 -36l3 -22h34q25 -1 42 -18t18 -42q-1 -25 -18 -42t-42 -18v0zM368 -16q1 -20 14 -34v0q14 -13 34 -14q20 1 34 14q13 14 14 34q-1 14 -12 36
q-12 23 -24 40q-11 18 -12 19q-1 -1 -12 -19q-12 -17 -24 -40q-11 -22 -12 -36v0zM48 -16q1 -20 14 -34v0q14 -13 34 -14q20 1 34 14q13 14 14 34q-1 14 -12 36q-12 23 -24 40q-11 18 -12 19q-1 -1 -12 -19q-12 -17 -24 -40q-11 -22 -12 -36v0zM208 -16q1 -20 14 -34v0
q14 -13 34 -14q20 1 34 14q13 14 14 34q-1 14 -12 36q-12 23 -24 40q-11 18 -12 19q-1 -1 -12 -19q-12 -17 -24 -40q-11 -22 -12 -36v0z" />
    <glyph glyph-name="cloud-rain" unicode="&#xf73d;" 
d="M411 344q-11 32 -38 52v0q-26 19 -61 20q-20 0 -39 -8q-36 39 -89 40q-49 -1 -83 -33q-33 -32 -37 -80q-29 -14 -46 -40q-18 -26 -18 -59q1 -46 32 -76q30 -31 76 -32h296q46 1 76 32q31 30 32 76q-1 44 -29 74q-29 30 -72 34v0zM404 176h-296q-25 1 -42 18t-18 42
q0 21 13 37t33 21l21 5l-3 25v1v3q1 31 21 51t51 21q40 -1 61 -35l14 -22l21 15q14 10 32 10q22 0 37 -14q16 -14 18 -36l3 -22h34q25 -1 42 -18t18 -42q-1 -25 -18 -42t-42 -18v0zM368 -16q1 -20 14 -34v0q14 -13 34 -14q20 1 34 14q13 14 14 34q-1 14 -12 36
q-12 23 -24 40q-11 18 -12 19q-1 -1 -12 -19q-12 -17 -24 -40q-11 -22 -12 -36v0zM48 -16q1 -20 14 -34v0q14 -13 34 -14q20 1 34 14q13 14 14 34q-1 14 -12 36q-12 23 -24 40q-11 18 -12 19q-1 -1 -12 -19q-12 -17 -24 -40q-11 -22 -12 -36v0zM208 -16q1 -20 14 -34v0
q14 -13 34 -14q20 1 34 14q13 14 14 34q-1 14 -12 36q-12 23 -24 40q-11 18 -12 19q-1 -1 -12 -19q-12 -17 -24 -40q-11 -22 -12 -36v0z" />
    <glyph glyph-name="cloud-rain" unicode="&#x26c6;" 
d="M411 344q-11 32 -38 52v0q-26 19 -61 20q-20 0 -39 -8q-36 39 -89 40q-49 -1 -83 -33q-33 -32 -37 -80q-29 -14 -46 -40q-18 -26 -18 -59q1 -46 32 -76q30 -31 76 -32h296q46 1 76 32q31 30 32 76q-1 44 -29 74q-29 30 -72 34v0zM404 176h-296q-25 1 -42 18t-18 42
q0 21 13 37t33 21l21 5l-3 25v1v3q1 31 21 51t51 21q40 -1 61 -35l14 -22l21 15q14 10 32 10q22 0 37 -14q16 -14 18 -36l3 -22h34q25 -1 42 -18t18 -42q-1 -25 -18 -42t-42 -18v0zM368 -16q1 -20 14 -34v0q14 -13 34 -14q20 1 34 14q13 14 14 34q-1 14 -12 36
q-12 23 -24 40q-11 18 -12 19q-1 -1 -12 -19q-12 -17 -24 -40q-11 -22 -12 -36v0zM48 -16q1 -20 14 -34v0q14 -13 34 -14q20 1 34 14q13 14 14 34q-1 14 -12 36q-12 23 -24 40q-11 18 -12 19q-1 -1 -12 -19q-12 -17 -24 -40q-11 -22 -12 -36v0zM208 -16q1 -20 14 -34v0
q14 -13 34 -14q20 1 34 14q13 14 14 34q-1 14 -12 36q-12 23 -24 40q-11 18 -12 19q-1 -1 -12 -19q-12 -17 -24 -40q-11 -22 -12 -36v0z" />
    <glyph glyph-name="truck" unicode="&#x1f69a;" horiz-adv-x="640" 
d="M616 80h-8v116q0 30 -21 51l-84 84q-21 21 -52 21h-35v40q-1 24 -16 40q-16 15 -40 16h-304q-24 -1 -40 -16q-15 -16 -16 -40v-304q1 -24 16 -40q16 -15 40 -16h8q1 -41 28 -68t68 -28q41 1 68 28t28 68h128q1 -41 28 -68t68 -28q41 1 68 28t28 68h40q22 2 24 23
q0 10 -7 17q-7 8 -17 8v0zM160 -16q-20 1 -34 14v0q-13 14 -14 34q1 20 14 34q14 13 34 14q20 -1 34 -14q13 -14 14 -34q-1 -20 -14 -34q-14 -13 -34 -14v0zM368 80h-125q-13 22 -35 35q-21 13 -48 13t-48 -13q-22 -13 -35 -35h-21q-7 1 -8 8v304q1 7 8 8h304q7 -1 8 -8
v-312v0zM416 304h36q10 0 17 -7l73 -73h-126v80v0zM480 -16q-20 1 -34 14v0q-13 14 -14 34q1 20 14 34q14 13 34 14q20 -1 34 -14q13 -14 14 -34q-1 -20 -14 -34q-14 -13 -34 -14v0zM560 85q-28 41 -80 43q-38 -1 -64 -25v73h144v-91v0z" />
    <glyph glyph-name="truck" unicode="&#xf0d1;" horiz-adv-x="640" 
d="M616 80h-8v116q0 30 -21 51l-84 84q-21 21 -52 21h-35v40q-1 24 -16 40q-16 15 -40 16h-304q-24 -1 -40 -16q-15 -16 -16 -40v-304q1 -24 16 -40q16 -15 40 -16h8q1 -41 28 -68t68 -28q41 1 68 28t28 68h128q1 -41 28 -68t68 -28q41 1 68 28t28 68h40q22 2 24 23
q0 10 -7 17q-7 8 -17 8v0zM160 -16q-20 1 -34 14v0q-13 14 -14 34q1 20 14 34q14 13 34 14q20 -1 34 -14q13 -14 14 -34q-1 -20 -14 -34q-14 -13 -34 -14v0zM368 80h-125q-13 22 -35 35q-21 13 -48 13t-48 -13q-22 -13 -35 -35h-21q-7 1 -8 8v304q1 7 8 8h304q7 -1 8 -8
v-312v0zM416 304h36q10 0 17 -7l73 -73h-126v80v0zM480 -16q-20 1 -34 14v0q-13 14 -14 34q1 20 14 34q14 13 34 14q20 -1 34 -14q13 -14 14 -34q-1 -20 -14 -34q-14 -13 -34 -14v0zM560 85q-28 41 -80 43q-38 -1 -64 -25v73h144v-91v0z" />
    <glyph glyph-name="truck" unicode="&#x26df;" horiz-adv-x="640" 
d="M616 80h-8v116q0 30 -21 51l-84 84q-21 21 -52 21h-35v40q-1 24 -16 40q-16 15 -40 16h-304q-24 -1 -40 -16q-15 -16 -16 -40v-304q1 -24 16 -40q16 -15 40 -16h8q1 -41 28 -68t68 -28q41 1 68 28t28 68h128q1 -41 28 -68t68 -28q41 1 68 28t28 68h40q22 2 24 23
q0 10 -7 17q-7 8 -17 8v0zM160 -16q-20 1 -34 14v0q-13 14 -14 34q1 20 14 34q14 13 34 14q20 -1 34 -14q13 -14 14 -34q-1 -20 -14 -34q-14 -13 -34 -14v0zM368 80h-125q-13 22 -35 35q-21 13 -48 13t-48 -13q-22 -13 -35 -35h-21q-7 1 -8 8v304q1 7 8 8h304q7 -1 8 -8
v-312v0zM416 304h36q10 0 17 -7l73 -73h-126v80v0zM480 -16q-20 1 -34 14v0q-13 14 -14 34q1 20 14 34q14 13 34 14q20 -1 34 -14q13 -14 14 -34q-1 -20 -14 -34q-14 -13 -34 -14v0zM560 85q-28 41 -80 43q-38 -1 -64 -25v73h144v-91v0z" />
    <glyph glyph-name="shield-cross" unicode="&#xf712;" 
d="M467 364l-192 80q-9 4 -19 4q-9 0 -18 -4l-192 -80q-29 -13 -30 -43q3 -129 51 -215q48 -85 104 -128q57 -42 85 -42t84 42t105 127q48 86 51 216q-1 30 -29 43v0zM232 390v-110h-166q-2 20 -2 40l168 70v0zM73 232h159v-236q-54 31 -97 91q-44 61 -62 145v0zM280 -3v235
h159q-19 -86 -63 -146t-96 -89v0zM446 280h-166v110l168 -70q0 -20 -2 -40v0z" />
    <glyph glyph-name="shield-cross" unicode="&#x26e8;" 
d="M467 364l-192 80q-9 4 -19 4q-9 0 -18 -4l-192 -80q-29 -13 -30 -43q3 -129 51 -215q48 -85 104 -128q57 -42 85 -42t84 42t105 127q48 86 51 216q-1 30 -29 43v0zM232 390v-110h-166q-2 20 -2 40l168 70v0zM73 232h159v-236q-54 31 -97 91q-44 61 -62 145v0zM280 -3v235
h159q-19 -86 -63 -146t-96 -89v0zM446 280h-166v110l168 -70q0 -20 -2 -40v0z" />
    <glyph glyph-name="torii-gate" unicode="&#xf6a1;" 
d="M479 272q14 0 22 9v0q9 9 9 22l1 120q0 9 -7 13q-7 5 -15 2q-54 -22 -113 -22h-240q-60 0 -114 22q-8 3 -15 -2q-7 -4 -7 -13v-119q0 -14 9 -23t23 -9h31l1 -64h-40q-21 -2 -23 -23q2 -22 24 -24h40v-199q1 -24 23 -26q22 2 24 23v201h287v-199q2 -22 24 -24q22 2 24 24
v199h40q23 2 25 24q-2 22 -24 24h-39v64h30v0zM232 208h-120v64h119l1 -64v0zM400 208h-119l-1 64h119l1 -64v0zM48 320v59q43 -11 88 -11h240q44 0 88 11v-59h-416v0z" />
    <glyph glyph-name="torii-gate" unicode="&#x26e9;" 
d="M479 272q14 0 22 9v0q9 9 9 22l1 120q0 9 -7 13q-7 5 -15 2q-54 -22 -113 -22h-240q-60 0 -114 22q-8 3 -15 -2q-7 -4 -7 -13v-119q0 -14 9 -23t23 -9h31l1 -64h-40q-21 -2 -23 -23q2 -22 24 -24h40v-199q1 -24 23 -26q22 2 24 23v201h287v-199q2 -22 24 -24q22 2 24 24
v199h40q23 2 25 24q-2 22 -24 24h-39v64h30v0zM232 208h-120v64h119l1 -64v0zM400 208h-119l-1 64h119l1 -64v0zM48 320v59q43 -11 88 -11h240q44 0 88 11v-59h-416v0z" />
    <glyph glyph-name="church" unicode="&#xf51d;" horiz-adv-x="640" 
d="M465 217l-121 73v46h48q22 2 24 24q-2 22 -24 24h-48v40q-2 22 -24 24q-22 -2 -24 -24v-40h-48q-22 -2 -24 -24q2 -22 24 -24h48v-46l-120 -73q-15 -9 -16 -27v-230q2 -22 24 -24q22 2 24 24v221l112 67l112 -67v-221q2 -22 24 -24q22 2 24 24v230q-1 18 -15 27v0z
M93 125l-80 -40q-12 -7 -13 -21v-104q2 -22 24 -24q22 2 24 24v89l67 34q18 11 10 32q-11 18 -32 10v0zM627 85l-80 40q-21 8 -32 -10q-8 -21 10 -32l67 -34v-89q2 -22 24 -24q22 2 24 24v104q0 14 -13 21v0zM320 128q-27 -1 -45 -19v0q-18 -18 -19 -45v-96q0 -14 9 -23
t23 -9h64q14 0 23 9t9 23v96q-1 27 -19 45t-45 19v0z" />
    <glyph glyph-name="church" unicode="&#x26ea;" horiz-adv-x="640" 
d="M465 217l-121 73v46h48q22 2 24 24q-2 22 -24 24h-48v40q-2 22 -24 24q-22 -2 -24 -24v-40h-48q-22 -2 -24 -24q2 -22 24 -24h48v-46l-120 -73q-15 -9 -16 -27v-230q2 -22 24 -24q22 2 24 24v221l112 67l112 -67v-221q2 -22 24 -24q22 2 24 24v230q-1 18 -15 27v0z
M93 125l-80 -40q-12 -7 -13 -21v-104q2 -22 24 -24q22 2 24 24v89l67 34q18 11 10 32q-11 18 -32 10v0zM627 85l-80 40q-21 8 -32 -10q-8 -21 10 -32l67 -34v-89q2 -22 24 -24q22 2 24 24v104q0 14 -13 21v0zM320 128q-27 -1 -45 -19v0q-18 -18 -19 -45v-96q0 -14 9 -23
t23 -9h64q14 0 23 9t9 23v96q-1 27 -19 45t-45 19v0z" />
    <glyph glyph-name="mountains" unicode="&#xf6fd;" horiz-adv-x="640" 
d="M630 66l-126 198q-11 15 -27 15q-17 0 -27 -15l-40 -63q-1 1 -21 32q-19 30 -44 69q-26 40 -45 70t-20 32q-9 12 -24 12t-24 -12l-223 -350q-17 -30 -2 -57t49 -29h520q39 2 56 33t-2 65v0zM463 20q-3 -4 -7 -4h-400q-5 0 -7 4q-2 5 0 9l207 323l207 -323q2 -4 0 -9v0z
" />
    <glyph glyph-name="mountains" unicode="&#x26f0;" horiz-adv-x="640" 
d="M630 66l-126 198q-11 15 -27 15q-17 0 -27 -15l-40 -63q-1 1 -21 32q-19 30 -44 69q-26 40 -45 70t-20 32q-9 12 -24 12t-24 -12l-223 -350q-17 -30 -2 -57t49 -29h520q39 2 56 33t-2 65v0zM463 20q-3 -4 -7 -4h-400q-5 0 -7 4q-2 5 0 9l207 323l207 -323q2 -4 0 -9v0z
" />
    <glyph glyph-name="person-skiing" unicode="&#xf7c9;" 
d="M432 352q20 0 34 14v0q14 14 14 34t-14 34q-14 13 -34 14q-20 -1 -34 -14q-13 -14 -14 -34q1 -20 14 -34q14 -14 34 -14v0zM119 356l-10 -22q8 -4 17 -4q14 0 25 9l133 -67l61 25l14 -42q6 -16 20 -24l58 -29q6 -2 11 -2q22 2 24 24q0 14 -13 21l-55 28l-18 54
q-11 27 -30 33q-18 7 -24 6q-10 0 -20 -4l-75 -30l-72 36v1q0 22 -21 34l-11 -21l-35 7h-1q-2 0 -4 -2q-1 -2 -1 -4t2 -4l25 -23v0zM511 -21q-2 22 -24 24q-12 -1 -18 -8q-8 -10 -28 -11q-8 0 -16 3l-143 74l50 75q7 10 7 22q-1 16 -12 28l-56 57l-77 39q-1 -3 -1 -6
q0 -23 16 -39l80 -80l-49 -74l-205 106q-5 4 -11 3v0q-23 -3 -24 -24q0 -14 13 -21l392 -203q18 -8 37 -8q30 1 49 15t20 28v0z" />
    <glyph glyph-name="person-skiing" unicode="&#x26f7;" 
d="M432 352q20 0 34 14v0q14 14 14 34t-14 34q-14 13 -34 14q-20 -1 -34 -14q-13 -14 -14 -34q1 -20 14 -34q14 -14 34 -14v0zM119 356l-10 -22q8 -4 17 -4q14 0 25 9l133 -67l61 25l14 -42q6 -16 20 -24l58 -29q6 -2 11 -2q22 2 24 24q0 14 -13 21l-55 28l-18 54
q-11 27 -30 33q-18 7 -24 6q-10 0 -20 -4l-75 -30l-72 36v1q0 22 -21 34l-11 -21l-35 7h-1q-2 0 -4 -2q-1 -2 -1 -4t2 -4l25 -23v0zM511 -21q-2 22 -24 24q-12 -1 -18 -8q-8 -10 -28 -11q-8 0 -16 3l-143 74l50 75q7 10 7 22q-1 16 -12 28l-56 57l-77 39q-1 -3 -1 -6
q0 -23 16 -39l80 -80l-49 -74l-205 106q-5 4 -11 3v0q-23 -3 -24 -24q0 -14 13 -21l392 -203q18 -8 37 -8q30 1 49 15t20 28v0z" />
    <glyph glyph-name="ice-skate" unicode="&#xf7ac;" horiz-adv-x="576" 
d="M552 32q-22 -2 -24 -23q-2 -23 -24 -25h-71v48h15q27 1 45 19t19 45v53q-1 34 -20 59q-20 25 -53 34l-87 22v160q-2 22 -24 24q-22 -2 -24 -23v-9h-100q-12 0 -24 -5l-128 -51q-19 -9 -20 -30v-234q1 -27 19 -45t45 -19v-48h-73q-9 0 -16 -7t-7 -16q0 -10 7 -17
q7 -8 16 -8h488q27 1 45 19t19 45l1 9q-2 21 -24 23v0zM80 96v223l118 48q3 1 6 1h100v-47l-64 -1q-15 -2 -16 -15q1 -16 16 -17h64v-32h-64q-15 -2 -16 -15q1 -16 16 -17h74l114 -28q16 -5 26 -17q10 -13 10 -30v-53q-1 -15 -16 -16h-352q-15 1 -16 16v0zM144 32h240v-48
h-240v48v0z" />
    <glyph glyph-name="ice-skate" unicode="&#x26f8;" horiz-adv-x="576" 
d="M552 32q-22 -2 -24 -23q-2 -23 -24 -25h-71v48h15q27 1 45 19t19 45v53q-1 34 -20 59q-20 25 -53 34l-87 22v160q-2 22 -24 24q-22 -2 -24 -23v-9h-100q-12 0 -24 -5l-128 -51q-19 -9 -20 -30v-234q1 -27 19 -45t45 -19v-48h-73q-9 0 -16 -7t-7 -16q0 -10 7 -17
q7 -8 16 -8h488q27 1 45 19t19 45l1 9q-2 21 -24 23v0zM80 96v223l118 48q3 1 6 1h100v-47l-64 -1q-15 -2 -16 -15q1 -16 16 -17h64v-32h-64q-15 -2 -16 -15q1 -16 16 -17h74l114 -28q16 -5 26 -17q10 -13 10 -30v-53q-1 -15 -16 -16h-352q-15 1 -16 16v0zM144 32h240v-48
h-240v48v0z" />
    <glyph glyph-name="campground" unicode="&#xf6bb;" horiz-adv-x="576" 
d="M563 33l-244 302l60 74q12 18 -4 34q-18 12 -34 -4l-53 -66l-53 66q-16 16 -34 4q-16 -16 -4 -34l60 -74l-244 -302q-13 -16 -13 -38q1 -25 17 -42q17 -16 42 -17h458q25 1 42 17q16 17 17 42q0 22 -13 38v0zM185 -15l103 136l102 -136h-205v0zM517 -15h-67l-143 190
q-7 9 -19 9t-19 -9l-143 -190h-67q-10 0 -11 10q0 5 3 8l237 294l237 -293q3 -5 3 -9q-1 -10 -11 -10v0z" />
    <glyph glyph-name="campground" unicode="&#x26fa;" horiz-adv-x="576" 
d="M563 33l-244 302l60 74q12 18 -4 34q-18 12 -34 -4l-53 -66l-53 66q-16 16 -34 4q-16 -16 -4 -34l60 -74l-244 -302q-13 -16 -13 -38q1 -25 17 -42q17 -16 42 -17h458q25 1 42 17q16 17 17 42q0 22 -13 38v0zM185 -15l103 136l102 -136h-205v0zM517 -15h-67l-143 190
q-7 9 -19 9t-19 -9l-143 -190h-67q-10 0 -11 10q0 5 3 8l237 294l237 -293q3 -5 3 -9q-1 -10 -11 -10v0z" />
    <glyph glyph-name="gas-pump" unicode="&#xf52f;" 
d="M493 341l-75 75q-17 14 -34 0q-14 -17 0 -34l32 -32v-62q0 -22 14 -37q13 -15 34 -18v-161q-2 -22 -24 -24q-22 2 -24 24v32q-1 37 -26 62t-62 26h-7v192q-1 27 -19 45t-45 19h-161q-27 -1 -45 -19t-19 -45v-400h-9q-9 0 -16 -7t-7 -16q0 -10 7 -17q7 -8 16 -8h304
q23 2 25 24q-2 22 -24 24h-8v160h8q17 0 28 -12q12 -11 12 -28v-28q1 -29 18 -50q18 -22 47 -26q33 -2 55 19q23 20 24 53v223q0 27 -19 46v0zM272 -16h-192v224h192v-224v0zM272 256h-192v128q1 15 16 16h160q15 -1 16 -16v-128v0z" />
    <glyph glyph-name="gas-pump" unicode="&#x26fd;" 
d="M493 341l-75 75q-17 14 -34 0q-14 -17 0 -34l32 -32v-62q0 -22 14 -37q13 -15 34 -18v-161q-2 -22 -24 -24q-22 2 -24 24v32q-1 37 -26 62t-62 26h-7v192q-1 27 -19 45t-45 19h-161q-27 -1 -45 -19t-19 -45v-400h-9q-9 0 -16 -7t-7 -16q0 -10 7 -17q7 -8 16 -8h304
q23 2 25 24q-2 22 -24 24h-8v160h8q17 0 28 -12q12 -11 12 -28v-28q1 -29 18 -50q18 -22 47 -26q33 -2 55 19q23 20 24 53v223q0 27 -19 46v0zM272 -16h-192v224h192v-224v0zM272 256h-192v128q1 15 16 16h160q15 -1 16 -16v-128v0z" />
    <glyph glyph-name="scissors" unicode="&#xf0c4;" 
d="M503 342q9 7 9 18q-1 12 -8 18q-8 7 -17 7q-8 0 -15 -6l-185 -155l-75 62q11 23 11 50q-1 48 -33 79q-31 32 -78 33q-47 -1 -79 -33q-32 -31 -33 -79q1 -48 33 -79q31 -32 78 -33q41 1 70 25l69 -57l-68 -57q-29 24 -71 25q-47 -1 -79 -33q-31 -31 -32 -79q1 -48 33 -79
q31 -32 78 -33q47 1 79 33q31 31 32 79q0 27 -12 49l293 245v0zM112 272q-27 1 -45 19v0q-18 18 -19 45q1 27 19 45t45 19q27 -1 45 -19t19 -45q-1 -27 -19 -45t-45 -19v0zM112 -16q-27 1 -45 19v0q-18 18 -19 45q1 27 19 45t45 19q27 -1 45 -19t19 -45q-1 -27 -19 -45
t-45 -19v0zM350 171l-38 -31l161 -134q7 -6 15 -6t16 6q7 7 8 18q0 11 -9 18l-153 129v0z" />
    </font>
</defs>
</svg>
