<?xml version="1.0" standalone="no"?>
<!DOCTYPE svg PUBLIC "-//W3C//DTD SVG 1.1//EN" "http://www.w3.org/Graphics/SVG/1.1/DTD/svg11.dtd" >
<svg xmlns="http://www.w3.org/2000/svg" xmlns:xlink="http://www.w3.org/1999/xlink" version="1.1">
<metadata>
Created by FontForge 20191125 at Mon May 24 19:30:05 2021
 By convertio
Copyright (c) Font Awesome
</metadata>
<defs>
<font id="FontAwesome6Pro-Solid" horiz-adv-x="512" >
  <font-face 
    font-family="Font Awesome 6 Pro Solid"
    font-weight="900"
    font-stretch="normal"
    units-per-em="512"
    panose-1="2 0 5 3 0 0 0 0 0 0"
    ascent="448"
    descent="-64"
    x-height="414"
    bbox="-2 -64.3684 641 449.125"
    underline-thickness="25"
    underline-position="-49"
    unicode-range="U+0022-1FAC1"
  />
<missing-glyph horiz-adv-x="384" 
d="M336 448h-288q-20 -1 -34 -14q-13 -14 -14 -34v-416q1 -20 14 -34q14 -13 34 -14h288q20 1 34 14q13 14 14 34v416q-1 20 -14 34q-14 13 -34 14v0zM282 384l-90 -134l-89 134h179v0zM64 326l90 -134l-90 -134v268v0zM103 0l89 134l90 -134h-179v0zM320 58l-89 134l89 134
v-268v0z" />
    <glyph glyph-name=".notdef" horiz-adv-x="384" 
d="M336 448h-288q-20 -1 -34 -14q-13 -14 -14 -34v-416q1 -20 14 -34q14 -13 34 -14h288q20 1 34 14q13 14 14 34v416q-1 20 -14 34q-14 13 -34 14v0zM282 384l-90 -134l-89 134h179v0zM64 326l90 -134l-90 -134v268v0zM103 0l89 134l90 -134h-179v0zM320 58l-89 134l89 134
v-268v0z" />
    <glyph glyph-name="exclamation" unicode="&#xf12a;" horiz-adv-x="128" 
d="M64 96q14 0 23 9v0q9 9 9 22v257q0 14 -9 23t-23 9t-23 -9t-9 -23v-255q0 -14 9 -24q9 -9 23 -9v0zM64 48q-17 0 -28 -12v0q-12 -11 -12 -28t12 -28q11 -11 28 -11t28 11q12 12 12 28t-12 28q-11 11 -28 12v0z" />
    <glyph glyph-name="exclamation" unicode="&#x2757;" horiz-adv-x="128" 
d="M64 96q14 0 23 9v0q9 9 9 22v257q0 14 -9 23t-23 9t-23 -9t-9 -23v-255q0 -14 9 -24q9 -9 23 -9v0zM64 48q-17 0 -28 -12v0q-12 -11 -12 -28t12 -28q11 -11 28 -11t28 11q12 12 12 28t-12 28q-11 11 -28 12v0z" />
    <glyph glyph-name="exclamation" unicode="&#x2755;" horiz-adv-x="128" 
d="M64 96q14 0 23 9v0q9 9 9 22v257q0 14 -9 23t-23 9t-23 -9t-9 -23v-255q0 -14 9 -24q9 -9 23 -9v0zM64 48q-17 0 -28 -12v0q-12 -11 -12 -28t12 -28q11 -11 28 -11t28 11q12 12 12 28t-12 28q-11 11 -28 12v0z" />
    <glyph glyph-name="exclamation" unicode="!" horiz-adv-x="128" 
d="M64 96q14 0 23 9v0q9 9 9 22v257q0 14 -9 23t-23 9t-23 -9t-9 -23v-255q0 -14 9 -24q9 -9 23 -9v0zM64 48q-17 0 -28 -12v0q-12 -11 -12 -28t12 -28q11 -11 28 -11t28 11q12 12 12 28t-12 28q-11 11 -28 12v0z" />
    <glyph glyph-name="ditto" unicode="&#x22;" horiz-adv-x="320" 
d="M15 393q-19 -24 -14 -55l25 -145q3 -15 13 -24q11 -9 25 -9t25 9q10 9 13 24l25 145q5 31 -14 55q-20 23 -49 23t-49 -23v0zM305 393q-20 23 -49 23v0q-29 0 -49 -23q-19 -24 -14 -55l25 -145q3 -15 13 -24t24 -9t24 9q11 9 14 24l25 145q6 31 -13 55v0z" />
    <glyph glyph-name="hashtag" unicode="&#xf292;" horiz-adv-x="448" 
d="M416 321h-58l10 59q1 13 -6 24q-7 10 -21 12q-13 2 -24 -5q-10 -7 -13 -21l-11 -69h-95l10 59q1 13 -6 24q-7 10 -21 12q-13 2 -24 -5q-10 -7 -13 -21l-11 -69h-69q-14 0 -23 -9q-9 -10 -9 -23q0 -14 9 -23t23 -9h58l-21 -128h-69q-14 0 -23 -9q-9 -10 -9 -23
q0 -14 9 -22q9 -9 23 -9h58l-10 -59q-1 -13 6 -24q7 -10 21 -13q2 -2 5 -2q25 2 32 27l11 69h95l-10 -59q-1 -13 6 -24q7 -10 21 -13h5q25 2 32 27l11 69h69q14 0 23 9t9 22q0 14 -9 23t-23 9h-58l21 128h69q14 0 23 9t9 22q0 15 -9 25t-23 10v0zM261 129h-95l21 128h95
l-21 -128v0z" />
    <glyph glyph-name="hashtag" unicode="#" horiz-adv-x="448" 
d="M416 321h-58l10 59q1 13 -6 24q-7 10 -21 12q-13 2 -24 -5q-10 -7 -13 -21l-11 -69h-95l10 59q1 13 -6 24q-7 10 -21 12q-13 2 -24 -5q-10 -7 -13 -21l-11 -69h-69q-14 0 -23 -9q-9 -10 -9 -23q0 -14 9 -23t23 -9h58l-21 -128h-69q-14 0 -23 -9q-9 -10 -9 -23
q0 -14 9 -22q9 -9 23 -9h58l-10 -59q-1 -13 6 -24q7 -10 21 -13q2 -2 5 -2q25 2 32 27l11 69h95l-10 -59q-1 -13 6 -24q7 -10 21 -13h5q25 2 32 27l11 69h69q14 0 23 9t9 22q0 14 -9 23t-23 9h-58l21 128h69q14 0 23 9t9 22q0 15 -9 25t-23 10v0zM261 129h-95l21 128h95
l-21 -128v0z" />
    <glyph glyph-name="dollar-sign" unicode="&#x1f4b2;" horiz-adv-x="320" 
d="M302 90q-7 -38 -36 -60v0q-29 -23 -74 -28v-34q0 -14 -9 -23t-23 -9t-23 9t-9 23v35h-1v0q-41 7 -78 22l-11 3q-13 5 -19 16q-5 12 -1 25t16 18q11 6 24 2l12 -4v0q34 -13 66 -19q37 -5 67 2q30 8 36 32q5 21 -13 34q-18 12 -74 27l-15 4h-1q-23 6 -54 19q-30 13 -51 39
q-20 27 -13 72q7 37 36 59q29 23 74 28v34q0 14 9 23t23 9t23 -9t9 -23v-35h1v0q25 -4 61 -16q13 -4 19 -16q5 -11 1 -24t-16 -19q-11 -5 -24 -1q-31 10 -50 13q-37 5 -67 -2q-30 -8 -36 -33q-5 -17 9 -30q14 -12 64 -26l14 -4h1q31 -8 65 -21q33 -14 54 -40q21 -27 14 -72
v0z" />
    <glyph glyph-name="dollar-sign" unicode="$" horiz-adv-x="320" 
d="M302 90q-7 -38 -36 -60v0q-29 -23 -74 -28v-34q0 -14 -9 -23t-23 -9t-23 9t-9 23v35h-1v0q-41 7 -78 22l-11 3q-13 5 -19 16q-5 12 -1 25t16 18q11 6 24 2l12 -4v0q34 -13 66 -19q37 -5 67 2q30 8 36 32q5 21 -13 34q-18 12 -74 27l-15 4h-1q-23 6 -54 19q-30 13 -51 39
q-20 27 -13 72q7 37 36 59q29 23 74 28v34q0 14 9 23t23 9t23 -9t9 -23v-35h1v0q25 -4 61 -16q13 -4 19 -16q5 -11 1 -24t-16 -19q-11 -5 -24 -1q-31 10 -50 13q-37 5 -67 -2q-30 -8 -36 -33q-5 -17 9 -30q14 -12 64 -26l14 -4h1q31 -8 65 -21q33 -14 54 -40q21 -27 14 -72
v0z" />
    <glyph glyph-name="percent" unicode="&#xf541;" horiz-adv-x="384" 
d="M375 375q-10 9 -23 9v0q-13 0 -23 -9l-320 -320q-9 -10 -9 -23t9 -23q10 -9 23 -9t23 9l320 320q9 10 9 23t-9 23v0zM64 256q27 1 45 19v0q18 18 19 45q-1 27 -19 45t-45 19q-27 -1 -45 -19t-19 -45q1 -27 19 -45t45 -19v0zM320 128q-27 -1 -45 -19v0q-18 -18 -19 -45
q1 -27 19 -45t45 -19q27 1 45 19t19 45q-1 27 -19 45t-45 19v0z" />
    <glyph glyph-name="percent" unicode="&#xf295;" horiz-adv-x="384" 
d="M375 375q-10 9 -23 9v0q-13 0 -23 -9l-320 -320q-9 -10 -9 -23t9 -23q10 -9 23 -9t23 9l320 320q9 10 9 23t-9 23v0zM64 256q27 1 45 19v0q18 18 19 45q-1 27 -19 45t-45 19q-27 -1 -45 -19t-19 -45q1 -27 19 -45t45 -19v0zM320 128q-27 -1 -45 -19v0q-18 -18 -19 -45
q1 -27 19 -45t45 -19q27 1 45 19t19 45q-1 27 -19 45t-45 19v0z" />
    <glyph glyph-name="percent" unicode="%" horiz-adv-x="384" 
d="M375 375q-10 9 -23 9v0q-13 0 -23 -9l-320 -320q-9 -10 -9 -23t9 -23q10 -9 23 -9t23 9l320 320q9 10 9 23t-9 23v0zM64 256q27 1 45 19v0q18 18 19 45q-1 27 -19 45t-45 19q-27 -1 -45 -19t-19 -45q1 -27 19 -45t45 -19v0zM320 128q-27 -1 -45 -19v0q-18 -18 -19 -45
q1 -27 19 -45t45 -19q27 1 45 19t19 45q-1 27 -19 45t-45 19v0z" />
    <glyph glyph-name="ampersand" unicode="&#x26;" horiz-adv-x="384" 
d="M318 83l61 91q7 12 4 24q-2 13 -13 21q-12 7 -24 4q-13 -2 -21 -13l-52 -79l-72 77l52 41q34 28 35 73q-1 40 -28 66q-26 27 -66 28h-52q-40 -1 -66 -28q-27 -26 -28 -66q0 -42 29 -74l30 -32l-66 -51q-40 -33 -41 -86q1 -47 33 -78q31 -32 78 -33h70q59 2 93 50l8 11
l47 -51q10 -10 23 -10q12 0 22 9t10 22t-9 23l-57 61v0zM142 352h52q13 0 21 -9q9 -8 9 -21q0 -15 -11 -23l-55 -44l-34 37q-12 13 -12 30q0 13 9 21q8 9 21 9v0zM221 53q-15 -20 -40 -21h-70q-20 1 -33 14t-14 33q1 22 17 36l70 54l86 -92l-16 -24v0z" />
    <glyph glyph-name="apostrophe" unicode="'" horiz-adv-x="192" 
d="M192 320v-96q-1 -54 -38 -90q-36 -37 -90 -38q-14 0 -23 9t-9 23t9 23t23 9q27 1 45 19t19 45v6q-15 -6 -32 -6q-41 1 -68 28t-28 68q1 41 28 68t68 28q41 -1 68 -28t28 -68v0z" />
    <glyph glyph-name="bracket-round" unicode="(" horiz-adv-x="192" 
d="M128 -32q-9 0 -18 5q-4 1 -30 26q-27 25 -52 73q-26 48 -28 120q2 72 28 120q25 48 52 72q26 25 30 27q12 7 24 4q13 -2 21 -13q7 -12 4 -24q-2 -13 -13 -21q-3 -1 -23 -19q-20 -19 -39 -56q-19 -36 -21 -90q2 -54 21 -91q19 -36 38 -55q20 -18 23 -20q11 -7 13 -20
q3 -12 -4 -24q-9 -14 -26 -14v0z" />
    <glyph glyph-name="bracket-round-right" unicode=")" horiz-adv-x="192" 
d="M38 -18q-8 12 -5 24v0q2 13 13 21q3 1 23 19q19 19 39 55q19 37 20 91q-1 54 -20 91q-19 36 -39 55q-20 18 -23 20q-11 7 -13 20q-3 12 4 24q8 11 21 13q12 3 24 -4q4 -2 30 -27q27 -24 52 -72q26 -48 28 -120q-2 -72 -28 -120q-25 -48 -52 -72q-26 -25 -30 -27
q-9 -5 -18 -5q-16 0 -26 14v0z" />
    <glyph glyph-name="asterisk" unicode="&#xf069;" horiz-adv-x="448" 
d="M417 80q-10 -16 -28 -16q-8 0 -16 4l-117 69v-137q0 -14 -9 -23t-22 -9t-23 9t-10 23v137l-118 -69q-8 -4 -16 -4q-18 0 -28 16q-6 12 -3 24q3 13 15 20l117 68l-117 68q-12 7 -15 20q-4 12 2 24q13 18 33 16q6 -1 12 -4l118 -69v137q0 14 9 23t23 9t23 -9t9 -23v-137
l118 69q6 3 12 4q21 2 31 -16q7 -12 3 -24q-3 -13 -15 -20l-117 -68l118 -68q12 -7 15 -20q3 -12 -4 -24v0z" />
    <glyph glyph-name="asterisk" unicode="&#x2731;" horiz-adv-x="448" 
d="M417 80q-10 -16 -28 -16q-8 0 -16 4l-117 69v-137q0 -14 -9 -23t-22 -9t-23 9t-10 23v137l-118 -69q-8 -4 -16 -4q-18 0 -28 16q-6 12 -3 24q3 13 15 20l117 68l-117 68q-12 7 -15 20q-4 12 2 24q13 18 33 16q6 -1 12 -4l118 -69v137q0 14 9 23t23 9t23 -9t9 -23v-137
l118 69q6 3 12 4q21 2 31 -16q7 -12 3 -24q-3 -13 -15 -20l-117 -68l118 -68q12 -7 15 -20q3 -12 -4 -24v0z" />
    <glyph glyph-name="asterisk" unicode="*" horiz-adv-x="448" 
d="M417 80q-10 -16 -28 -16q-8 0 -16 4l-117 69v-137q0 -14 -9 -23t-22 -9t-23 9t-10 23v137l-118 -69q-8 -4 -16 -4q-18 0 -28 16q-6 12 -3 24q3 13 15 20l117 68l-117 68q-12 7 -15 20q-4 12 2 24q13 18 33 16q6 -1 12 -4l118 -69v137q0 14 9 23t23 9t23 -9t9 -23v-137
l118 69q6 3 12 4q21 2 31 -16q7 -12 3 -24q-3 -13 -15 -20l-117 -68l118 -68q12 -7 15 -20q3 -12 -4 -24v0z" />
    <glyph glyph-name="plus" unicode="&#x2795;" horiz-adv-x="448" 
d="M432 192q0 -14 -9 -23v0q-9 -9 -23 -9h-144v-144q0 -14 -9 -23t-23 -9t-23 9t-9 23v144h-144q-14 0 -23 9t-9 23t9 23t23 9h144v144q0 14 9 23t23 9t23 -9t9 -23v-144h144q14 0 23 -9t9 -23v0z" />
    <glyph glyph-name="plus" unicode="+" horiz-adv-x="448" 
d="M432 192q0 -14 -9 -23v0q-9 -9 -23 -9h-144v-144q0 -14 -9 -23t-23 -9t-23 9t-9 23v144h-144q-14 0 -23 9t-9 23t9 23t23 9h144v144q0 14 9 23t23 9t23 -9t9 -23v-144h144q14 0 23 -9t9 -23v0z" />
    <glyph glyph-name="comma" unicode="," horiz-adv-x="192" 
d="M152 69l-68 -114q-16 -24 -44 -16q-26 12 -23 40l22 132q5 28 30 42q24 13 51 4q26 -10 36 -36q9 -27 -4 -52v0z" />
    <glyph glyph-name="hyphen" unicode="-" horiz-adv-x="320" 
d="M288 160h-256q-14 0 -23 9t-9 23t9 23t23 9h256q14 0 23 -9t9 -23t-9 -23t-23 -9v0z" />
    <glyph glyph-name="period" unicode="." horiz-adv-x="128" 
d="M64 96q-27 -1 -45 -19v0q-18 -18 -19 -45q1 -27 19 -45t45 -19q27 1 45 19t19 45q-1 27 -19 45t-45 19v0z" />
    <glyph glyph-name="slash-forward" unicode="/" horiz-adv-x="320" 
d="M32 -64q-8 0 -16 4q-12 7 -15 20q-3 12 3 24l256 448q7 12 20 15q12 3 24 -3q12 -7 15 -20q3 -12 -3 -24l-256 -448q-10 -16 -28 -16v0z" />
    <glyph glyph-name="0" unicode="0" horiz-adv-x="320" 
d="M160 416q-68 -2 -113 -47v0q-45 -45 -47 -113v-127q2 -68 47 -113t113 -47q68 2 113 47t47 113v127q-2 68 -47 113t-113 47v0zM256 128q-1 -41 -28 -68v0q-27 -27 -68 -28q-41 1 -68 28t-28 68v128q1 41 28 68t68 28q41 -1 68 -28t28 -68v-128v0z" />
    <glyph glyph-name="1" unicode="1" horiz-adv-x="256" 
d="M256 0q0 -14 -9 -23v0q-9 -9 -23 -9h-192q-14 0 -23 9t-9 23t9 23t23 9h64v292l-46 -31q-12 -7 -24 -4q-13 2 -21 13q-7 12 -4 24q2 13 13 21l96 64q16 10 33 1q16 -9 17 -28v-352h64q14 0 23 -9t9 -23v0z" />
    <glyph glyph-name="2" unicode="2" horiz-adv-x="320" 
d="M320 0q0 -14 -9 -23v0q-9 -9 -23 -9h-256q-21 1 -30 20q-7 20 8 35l193 185q24 24 26 56q1 31 -20 58q-23 27 -59 29q-35 1 -61 -23l-35 -32q-11 -9 -24 -8q-12 1 -22 10q-9 11 -8 24q1 12 10 22l35 31q45 42 109 40q63 -5 104 -52q37 -46 35 -103q-3 -56 -45 -98
l-136 -130h176q14 0 23 -9t9 -23v0z" />
    <glyph glyph-name="3" unicode="3" horiz-adv-x="320" 
d="M320 104q-1 -58 -40 -96v0q-38 -39 -96 -40h-80q-36 0 -63 20t-38 53q-4 13 1 25q6 11 19 16q13 4 24 -2q12 -6 16 -18q11 -28 41 -30h80q31 1 51 21t21 51q-1 31 -21 51t-51 21h-104q-21 1 -30 20q-7 21 8 36l132 120h-158q-14 0 -23 9t-9 23t9 23t23 9h240
q21 -1 30 -20q7 -21 -8 -36l-132 -120h22q57 -1 96 -40q38 -38 40 -96v0z" />
    <glyph glyph-name="4" unicode="4" horiz-adv-x="384" 
d="M384 114q0 -14 -9 -23v0q-9 -9 -23 -9h-32v-82q0 -14 -9 -23t-23 -9t-23 9t-9 23v82h-224q-17 0 -27 15q-9 15 -2 30l128 271q6 12 18 16t25 -1q12 -6 16 -18t-1 -25l-106 -224h173v142q0 14 9 23t23 9t23 -9t9 -23v-142h32q14 -1 23 -10t9 -22v0z" />
    <glyph glyph-name="5" unicode="5" horiz-adv-x="320" 
d="M320 103q-1 -57 -40 -95v0q-38 -39 -95 -40h-80q-36 0 -64 20t-39 54q-4 13 1 25q6 11 19 16q13 4 24 -2q12 -6 16 -19q12 -28 43 -30h80q30 1 50 21t21 50q-1 31 -21 51t-50 21h-153q-15 0 -25 11q-9 12 -6 26l32 178q6 24 31 26h192q14 0 23 -9t9 -23t-9 -23t-23 -9
h-165l-21 -113h115q57 -2 95 -40q39 -38 40 -96v0z" />
    <glyph glyph-name="6" unicode="6" horiz-adv-x="320" 
d="M168 287l64 76q9 11 8 24q-1 12 -11 21q-10 8 -21 8q-14 0 -24 -11q-33 -39 -59 -69q-48 -55 -76 -90q-27 -35 -38 -61t-11 -57q2 -68 47 -113t113 -47q68 2 113 47t47 113q-2 66 -44 110q-43 45 -108 49v0zM160 32q-41 1 -68 28v0q-27 27 -28 68q1 41 28 67q27 27 68 28
q41 -1 68 -28t28 -67q-1 -40 -28 -68q-27 -27 -68 -28v0z" />
    <glyph glyph-name="7" unicode="7" horiz-adv-x="320" 
d="M316 368l-224 -384q-10 -16 -28 -16q-8 0 -16 4q-12 7 -15 20q-3 12 3 24l196 336h-200q-14 0 -23 9t-9 23t9 23t23 9h256q18 -1 28 -16q8 -16 0 -32v0z" />
    <glyph glyph-name="8" unicode="8" horiz-adv-x="320" 
d="M268 199q35 36 36 89q-1 54 -38 90q-36 37 -90 38h-32q-54 -1 -90 -38q-37 -36 -38 -90q1 -53 36 -89q-24 -18 -38 -45q-14 -26 -14 -58q1 -54 38 -90q36 -37 90 -38h64q54 1 90 38q37 36 38 90q0 32 -14 58q-14 27 -38 45v0zM144 352h32q27 -1 45 -19t19 -45
q-1 -27 -19 -45t-45 -19h-32q-27 1 -45 19t-19 45q1 27 19 45t45 19v0zM192 32h-64q-27 1 -45 19t-19 45q1 27 19 45t45 19h64q27 -1 45 -19t19 -45q-1 -27 -19 -45t-45 -19v0z" />
    <glyph glyph-name="9" unicode="9" horiz-adv-x="320" 
d="M160 416q-68 -2 -113 -47v0q-45 -45 -47 -113q2 -66 44 -110q43 -45 108 -49l-64 -76q-9 -11 -8 -24q1 -12 11 -21q10 -8 21 -8q14 0 24 11q33 39 59 69q49 55 76 90t38 61t11 57q-2 68 -47 113t-113 47v0zM160 160q-41 1 -68 28v0q-27 27 -28 67q1 40 28 68q27 27 68 28
q41 -1 68 -28t28 -68q-1 -41 -28 -67q-27 -27 -68 -28v0z" />
    <glyph glyph-name="colon" unicode=":" horiz-adv-x="128" 
d="M64 256q27 1 45 19v0q18 18 19 45q-1 27 -19 45t-45 19q-27 -1 -45 -19t-19 -45q1 -27 19 -45t45 -19v0zM64 128q-27 -1 -45 -19v0q-18 -18 -19 -45q1 -27 19 -45t45 -19q27 1 45 19t19 45q-1 27 -19 45t-45 19v0z" />
    <glyph glyph-name="semicolon" unicode=";" horiz-adv-x="192" 
d="M69 152q-25 -14 -30 -42l-22 -131q-3 -29 23 -41q28 -8 44 16l68 115q13 25 4 52q-10 26 -36 35q-27 10 -51 -4v0zM96 256q27 1 45 19v0q18 18 19 45q-1 27 -19 45t-45 19q-27 -1 -45 -19q-17 -18 -18 -45q0 -27 18 -45t45 -19v0z" />
    <glyph glyph-name="less-than" unicode="&#xf536;" horiz-adv-x="384" 
d="M351 0q-7 0 -14 3l-320 160q-16 10 -17 29q1 19 18 29l320 160q12 5 24 1t19 -16q5 -12 1 -24t-16 -19l-262 -131l262 -131q12 -7 16 -19t-1 -24q-10 -18 -30 -18v0z" />
    <glyph glyph-name="less-than" unicode="&#x3c;" horiz-adv-x="384" 
d="M351 0q-7 0 -14 3l-320 160q-16 10 -17 29q1 19 18 29l320 160q12 5 24 1t19 -16q5 -12 1 -24t-16 -19l-262 -131l262 -131q12 -7 16 -19t-1 -24q-10 -18 -30 -18v0z" />
    <glyph glyph-name="equals" unicode="&#xf52c;" horiz-adv-x="448" 
d="M48 256h352q14 0 23 9t9 23t-9 22q-9 9 -23 9h-352q-14 0 -23 -9t-9 -22t9 -22q9 -10 23 -10v0zM400 128h-352q-14 0 -23 -9t-9 -22t9 -22q9 -10 23 -10h352q14 0 23 9t9 23q0 13 -9 22t-23 9v0z" />
    <glyph glyph-name="equals" unicode="=" horiz-adv-x="448" 
d="M48 256h352q14 0 23 9t9 23t-9 22q-9 9 -23 9h-352q-14 0 -23 -9t-9 -22t9 -22q9 -10 23 -10v0zM400 128h-352q-14 0 -23 -9t-9 -22t9 -22q9 -10 23 -10h352q14 0 23 9t9 23q0 13 -9 22t-23 9v0z" />
    <glyph glyph-name="greater-than" unicode="&#xf531;" horiz-adv-x="384" 
d="M32 0q-19 0 -29 18q-5 12 -1 24t16 19l262 131l-262 131q-12 7 -16 19t1 24q7 12 19 16t24 -1l320 -160q17 -10 18 -29q-1 -19 -18 -29l-320 -160q-7 -3 -14 -3v0z" />
    <glyph glyph-name="greater-than" unicode="&#x3e;" horiz-adv-x="384" 
d="M32 0q-19 0 -29 18q-5 12 -1 24t16 19l262 131l-262 131q-12 7 -16 19t1 24q7 12 19 16t24 -1l320 -160q17 -10 18 -29q-1 -19 -18 -29l-320 -160q-7 -3 -14 -3v0z" />
    <glyph glyph-name="question" unicode="&#xf128;" horiz-adv-x="320" 
d="M204 416h-108q-41 -1 -68 -28t-28 -68q0 -14 9 -22q9 -9 23 -9t23 9t9 22q0 14 9 23t23 9h108q22 -1 37 -15q14 -15 15 -37q-1 -31 -30 -47l-98 -57q-16 -10 -16 -28v-40q0 -14 9 -23t23 -9t23 9t9 23v22l80 47q30 15 47 42q17 28 17 61q-1 49 -34 82t-82 34v0zM144 48
q-17 0 -28 -12v0q-12 -11 -12 -28t12 -28q11 -11 28 -11t28 11q12 12 12 28t-12 28q-11 11 -28 12v0z" />
    <glyph glyph-name="question" unicode="&#x2754;" horiz-adv-x="320" 
d="M204 416h-108q-41 -1 -68 -28t-28 -68q0 -14 9 -22q9 -9 23 -9t23 9t9 22q0 14 9 23t23 9h108q22 -1 37 -15q14 -15 15 -37q-1 -31 -30 -47l-98 -57q-16 -10 -16 -28v-40q0 -14 9 -23t23 -9t23 9t9 23v22l80 47q30 15 47 42q17 28 17 61q-1 49 -34 82t-82 34v0zM144 48
q-17 0 -28 -12v0q-12 -11 -12 -28t12 -28q11 -11 28 -11t28 11q12 12 12 28t-12 28q-11 11 -28 12v0z" />
    <glyph glyph-name="question" unicode="&#x2753;" horiz-adv-x="320" 
d="M204 416h-108q-41 -1 -68 -28t-28 -68q0 -14 9 -22q9 -9 23 -9t23 9t9 22q0 14 9 23t23 9h108q22 -1 37 -15q14 -15 15 -37q-1 -31 -30 -47l-98 -57q-16 -10 -16 -28v-40q0 -14 9 -23t23 -9t23 9t9 23v22l80 47q30 15 47 42q17 28 17 61q-1 49 -34 82t-82 34v0zM144 48
q-17 0 -28 -12v0q-12 -11 -12 -28t12 -28q11 -11 28 -11t28 11q12 12 12 28t-12 28q-11 11 -28 12v0z" />
    <glyph glyph-name="question" unicode="?" horiz-adv-x="320" 
d="M204 416h-108q-41 -1 -68 -28t-28 -68q0 -14 9 -22q9 -9 23 -9t23 9t9 22q0 14 9 23t23 9h108q22 -1 37 -15q14 -15 15 -37q-1 -31 -30 -47l-98 -57q-16 -10 -16 -28v-40q0 -14 9 -23t23 -9t23 9t9 23v22l80 47q30 15 47 42q17 28 17 61q-1 49 -34 82t-82 34v0zM144 48
q-17 0 -28 -12v0q-12 -11 -12 -28t12 -28q11 -11 28 -11t28 11q12 12 12 28t-12 28q-11 11 -28 12v0z" />
    <glyph glyph-name="at" unicode="&#x1fa80;" 
d="M208 427q-71 -15 -122 -65v0q-50 -51 -65 -122q-13 -71 10 -132t73 -102t116 -51q15 -2 25 8q11 9 11 24v0q-2 26 -27 31q-64 12 -106 59q-42 48 -43 116q2 79 57 130q56 50 136 45q70 -9 114 -60q44 -52 45 -123v-16q0 -17 -12 -29q-11 -11 -28 -11t-28 11
q-12 12 -12 29v120q-1 14 -16 16h-32q-12 -1 -15 -12q-38 20 -86 5q-30 -11 -49 -34q-20 -24 -25 -55q-5 -54 27 -90q32 -37 84 -38q40 1 70 24q18 -23 47 -34q28 -11 62 -3q35 9 56 38q20 29 20 65v21q-1 75 -40 134q-40 58 -105 87q-64 28 -142 14v0zM239 144
q-20 0 -34 14v0q-13 13 -14 34q1 20 14 34q14 13 34 14q20 -1 34 -14q14 -14 14 -34q0 -21 -14 -34q-13 -14 -34 -14v0z" />
    <glyph glyph-name="at" unicode="&#xf1fa;" 
d="M208 427q-71 -15 -122 -65v0q-50 -51 -65 -122q-13 -71 10 -132t73 -102t116 -51q15 -2 25 8q11 9 11 24v0q-2 26 -27 31q-64 12 -106 59q-42 48 -43 116q2 79 57 130q56 50 136 45q70 -9 114 -60q44 -52 45 -123v-16q0 -17 -12 -29q-11 -11 -28 -11t-28 11
q-12 12 -12 29v120q-1 14 -16 16h-32q-12 -1 -15 -12q-38 20 -86 5q-30 -11 -49 -34q-20 -24 -25 -55q-5 -54 27 -90q32 -37 84 -38q40 1 70 24q18 -23 47 -34q28 -11 62 -3q35 9 56 38q20 29 20 65v21q-1 75 -40 134q-40 58 -105 87q-64 28 -142 14v0zM239 144
q-20 0 -34 14v0q-13 13 -14 34q1 20 14 34q14 13 34 14q20 -1 34 -14q14 -14 14 -34q0 -21 -14 -34q-13 -14 -34 -14v0z" />
    <glyph glyph-name="at" unicode="@" 
d="M208 427q-71 -15 -122 -65v0q-50 -51 -65 -122q-13 -71 10 -132t73 -102t116 -51q15 -2 25 8q11 9 11 24v0q-2 26 -27 31q-64 12 -106 59q-42 48 -43 116q2 79 57 130q56 50 136 45q70 -9 114 -60q44 -52 45 -123v-16q0 -17 -12 -29q-11 -11 -28 -11t-28 11
q-12 12 -12 29v120q-1 14 -16 16h-32q-12 -1 -15 -12q-38 20 -86 5q-30 -11 -49 -34q-20 -24 -25 -55q-5 -54 27 -90q32 -37 84 -38q40 1 70 24q18 -23 47 -34q28 -11 62 -3q35 9 56 38q20 29 20 65v21q-1 75 -40 134q-40 58 -105 87q-64 28 -142 14v0zM239 144
q-20 0 -34 14v0q-13 13 -14 34q1 20 14 34q14 13 34 14q20 -1 34 -14q14 -14 14 -34q0 -21 -14 -34q-13 -14 -34 -14v0z" />
    <glyph glyph-name="a" unicode="a" horiz-adv-x="384" 
d="M382 12l-160 384q-9 19 -30 20q-21 -1 -29 -20l-160 -384q-5 -12 -1 -24q5 -12 18 -18q12 -4 24 0q12 5 18 18l31 76h198l31 -76q10 -19 30 -20q6 0 12 2q13 6 18 18q4 12 0 24v0zM119 128l73 173l72 -173h-145v0z" />
    <glyph glyph-name="a" unicode="A" horiz-adv-x="384" 
d="M382 12l-160 384q-9 19 -30 20q-21 -1 -29 -20l-160 -384q-5 -12 -1 -24q5 -12 18 -18q12 -4 24 0q12 5 18 18l31 76h198l31 -76q10 -19 30 -20q6 0 12 2q13 6 18 18q4 12 0 24v0zM119 128l73 173l72 -173h-145v0z" />
    <glyph glyph-name="b" unicode="b" horiz-adv-x="320" 
d="M257 206q30 34 31 82q-1 54 -38 90q-36 37 -90 38h-128q-14 0 -23 -9t-9 -23v-384q0 -14 9 -23t23 -9h160q54 1 90 38q37 36 38 90q0 35 -17 64q-17 28 -46 46v0zM64 352h96q27 -1 45 -19t19 -45q-1 -27 -19 -45t-45 -19h-96v128v0zM192 32h-128v128h128q27 -1 45 -19
t19 -45q-1 -27 -19 -45t-45 -19v0z" />
    <glyph glyph-name="b" unicode="B" horiz-adv-x="320" 
d="M257 206q30 34 31 82q-1 54 -38 90q-36 37 -90 38h-128q-14 0 -23 -9t-9 -23v-384q0 -14 9 -23t23 -9h160q54 1 90 38q37 36 38 90q0 35 -17 64q-17 28 -46 46v0zM64 352h96q27 -1 45 -19t19 -45q-1 -27 -19 -45t-45 -19h-96v128v0zM192 32h-128v128h128q27 -1 45 -19
t19 -45q-1 -27 -19 -45t-45 -19v0z" />
    <glyph glyph-name="c" unicode="c" horiz-adv-x="384" 
d="M352 88q17 -1 24 -11v0q7 -11 7 -21q0 -12 -21 -33t-57 -37q-37 -17 -86 -18q-69 1 -118 34q-49 34 -75 85q-27 51 -27 105q0 53 26 104t75 84q49 34 119 35q50 -1 86 -18q37 -17 58 -37q20 -21 20 -33q0 -10 -7 -21q-8 -10 -25 -11q-16 1 -33 18q-14 13 -37 25
q-22 12 -62 13q-74 -3 -115 -52q-40 -48 -41 -107q1 -59 41 -108t115 -52q40 1 63 13t37 25q17 17 33 18v0z" />
    <glyph glyph-name="c" unicode="C" horiz-adv-x="384" 
d="M352 88q17 -1 24 -11v0q7 -11 7 -21q0 -12 -21 -33t-57 -37q-37 -17 -86 -18q-69 1 -118 34q-49 34 -75 85q-27 51 -27 105q0 53 26 104t75 84q49 34 119 35q50 -1 86 -18q37 -17 58 -37q20 -21 20 -33q0 -10 -7 -21q-8 -10 -25 -11q-16 1 -33 18q-14 13 -37 25
q-22 12 -62 13q-74 -3 -115 -52q-40 -48 -41 -107q1 -59 41 -108t115 -52q40 1 63 13t37 25q17 17 33 18v0z" />
    <glyph glyph-name="d" unicode="d" horiz-adv-x="384" 
d="M160 416h-128q-14 0 -23 -9t-9 -23v-384q0 -14 9 -23t23 -9h128q62 1 113 31q50 30 80 80q30 51 31 113q-1 62 -31 113q-30 50 -80 80q-51 30 -113 31v0zM160 32h-96v320h96q68 -2 113 -47t47 -112q-2 -67 -47 -113t-113 -48v0z" />
    <glyph glyph-name="d" unicode="D" horiz-adv-x="384" 
d="M160 416h-128q-14 0 -23 -9t-9 -23v-384q0 -14 9 -23t23 -9h128q62 1 113 31q50 30 80 80q30 51 31 113q-1 62 -31 113q-30 50 -80 80q-51 30 -113 31v0zM160 32h-96v320h96q68 -2 113 -47t47 -112q-2 -67 -47 -113t-113 -48v0z" />
    <glyph glyph-name="e" unicode="e" horiz-adv-x="320" 
d="M320 0q0 -14 -9 -23v0q-9 -9 -23 -9h-256q-14 0 -23 9t-9 23v384q0 14 9 23t23 9h256q14 0 23 -9t9 -23t-9 -23t-23 -9h-224v-128h160q14 0 23 -9t9 -23t-9 -23t-23 -9h-160v-128h224q14 0 23 -9t9 -23v0z" />
    <glyph glyph-name="e" unicode="E" horiz-adv-x="320" 
d="M320 0q0 -14 -9 -23v0q-9 -9 -23 -9h-256q-14 0 -23 9t-9 23v384q0 14 9 23t23 9h256q14 0 23 -9t9 -23t-9 -23t-23 -9h-224v-128h160q14 0 23 -9t9 -23t-9 -23t-23 -9h-160v-128h224q14 0 23 -9t9 -23v0z" />
    <glyph glyph-name="f" unicode="f" horiz-adv-x="320" 
d="M320 384q0 -14 -9 -23v0q-9 -9 -23 -9h-224v-128h160q14 0 23 -9t9 -22t-9 -22q-9 -10 -23 -10h-160v-160q0 -14 -9 -23t-23 -9t-23 9t-9 23v384q0 13 9 22t23 9h256q14 0 23 -9t9 -23v0z" />
    <glyph glyph-name="f" unicode="F" horiz-adv-x="320" 
d="M320 384q0 -14 -9 -23v0q-9 -9 -23 -9h-224v-128h160q14 0 23 -9t9 -22t-9 -22q-9 -10 -23 -10h-160v-160q0 -14 -9 -23t-23 -9t-23 9t-9 23v384q0 13 9 22t23 9h256q14 0 23 -9t9 -23v0z" />
    <glyph glyph-name="g" unicode="g" horiz-adv-x="448" 
d="M448 192q-1 -72 -35 -121v0q-33 -50 -84 -76v0q-52 -25 -106 -25q-67 1 -116 32q-50 30 -78 81q-28 50 -28 109q1 63 31 113q30 51 80 81q50 29 112 30q43 -1 81 -16q38 -14 62 -35q24 -20 25 -37q-1 -14 -10 -23t-22 -9q-16 1 -33 17q-14 14 -38 26t-65 13
q-67 -2 -112 -47q-45 -44 -47 -113q-1 -19 12 -56q12 -38 47 -69q35 -32 100 -34q61 2 104 37t54 90h-134q-14 0 -23 9t-9 23t9 22q9 9 23 9h168q14 0 23 -8q9 -9 9 -23v0z" />
    <glyph glyph-name="g" unicode="G" horiz-adv-x="448" 
d="M448 192q-1 -72 -35 -121v0q-33 -50 -84 -76v0q-52 -25 -106 -25q-67 1 -116 32q-50 30 -78 81q-28 50 -28 109q1 63 31 113q30 51 80 81q50 29 112 30q43 -1 81 -16q38 -14 62 -35q24 -20 25 -37q-1 -14 -10 -23t-22 -9q-16 1 -33 17q-14 14 -38 26t-65 13
q-67 -2 -112 -47q-45 -44 -47 -113q-1 -19 12 -56q12 -38 47 -69q35 -32 100 -34q61 2 104 37t54 90h-134q-14 0 -23 9t-9 23t9 22q9 9 23 9h168q14 0 23 -8q9 -9 9 -23v0z" />
    <glyph glyph-name="h" unicode="h" horiz-adv-x="384" 
d="M384 384v-384q0 -14 -9 -23t-23 -9t-23 9t-9 23v192h-256v-192q0 -14 -9 -23t-23 -9t-23 9t-9 23v384q0 14 9 23t23 9t23 -9t9 -23v-128h256v128q0 14 9 23t23 9t23 -9t9 -23v0z" />
    <glyph glyph-name="h" unicode="H" horiz-adv-x="384" 
d="M384 384v-384q0 -14 -9 -23t-23 -9t-23 9t-9 23v192h-256v-192q0 -14 -9 -23t-23 -9t-23 9t-9 23v384q0 14 9 23t23 9t23 -9t9 -23v-128h256v128q0 14 9 23t23 9t23 -9t9 -23v0z" />
    <glyph glyph-name="i" unicode="i" horiz-adv-x="320" 
d="M320 0q0 -14 -9 -23v0q-9 -9 -23 -9h-256q-14 0 -23 9t-9 23t9 23t23 9h96v320h-96q-14 0 -23 9t-9 23t9 23t23 9h256q14 0 23 -9t9 -23t-9 -23t-23 -9h-96v-320h96q14 0 23 -9t9 -23v0z" />
    <glyph glyph-name="i" unicode="I" horiz-adv-x="320" 
d="M320 0q0 -14 -9 -23v0q-9 -9 -23 -9h-256q-14 0 -23 9t-9 23t9 23t23 9h96v320h-96q-14 0 -23 9t-9 23t9 23t23 9h256q14 0 23 -9t9 -23t-9 -23t-23 -9h-96v-320h96q14 0 23 -9t9 -23v0z" />
    <glyph glyph-name="j" unicode="j" horiz-adv-x="320" 
d="M320 384v-259q-2 -67 -47 -111t-113 -46q-68 2 -113 46t-47 111v35q0 14 9 23t23 9t23 -9t9 -23v-35q1 -40 28 -66t68 -27q41 1 68 27t28 66v259q0 14 9 23t23 9t23 -9t9 -23v0z" />
    <glyph glyph-name="j" unicode="J" horiz-adv-x="320" 
d="M320 384v-259q-2 -67 -47 -111t-113 -46q-68 2 -113 46t-47 111v35q0 14 9 23t23 9t23 -9t9 -23v-35q1 -40 28 -66t68 -27q41 1 68 27t28 66v259q0 14 9 23t23 9t23 -9t9 -23v0z" />
    <glyph glyph-name="k" unicode="k" horiz-adv-x="320" 
d="M314 18q8 -11 5 -24v0q-2 -12 -13 -20q-8 -6 -18 -6q-16 0 -26 14l-134 193l-64 -66v-109q0 -14 -9 -23t-23 -9t-23 9t-9 23v384q0 14 9 23t23 9t23 -9t9 -23v-183l201 205q10 10 23 10q12 0 22 -9q10 -10 10 -23q0 -12 -9 -22l-137 -141l140 -203v0z" />
    <glyph glyph-name="k" unicode="K" horiz-adv-x="320" 
d="M314 18q8 -11 5 -24v0q-2 -12 -13 -20q-8 -6 -18 -6q-16 0 -26 14l-134 193l-64 -66v-109q0 -14 -9 -23t-23 -9t-23 9t-9 23v384q0 14 9 23t23 9t23 -9t9 -23v-183l201 205q10 10 23 10q12 0 22 -9q10 -10 10 -23q0 -12 -9 -22l-137 -141l140 -203v0z" />
    <glyph glyph-name="l" unicode="l" horiz-adv-x="320" 
d="M320 0q0 -14 -9 -23v0q-9 -9 -23 -9h-224q-14 0 -23 9t-9 23v384q0 14 9 23t23 9t23 -9t9 -23v-352h192q14 0 23 -9t9 -23v0z" />
    <glyph glyph-name="l" unicode="L" horiz-adv-x="320" 
d="M320 0q0 -14 -9 -23v0q-9 -9 -23 -9h-224q-14 0 -23 9t-9 23v384q0 14 9 23t23 9t23 -9t9 -23v-352h192q14 0 23 -9t9 -23v0z" />
    <glyph glyph-name="m" unicode="m" horiz-adv-x="448" 
d="M448 384v-384q0 -14 -9 -23t-23 -9t-23 9t-9 23v278l-133 -200q-10 -13 -27 -13t-27 13l-133 200v-278q0 -14 -9 -23t-23 -9t-23 9t-9 23v384q1 23 23 31q22 5 36 -13l165 -248l165 248q14 18 36 13q22 -8 23 -31v0z" />
    <glyph glyph-name="m" unicode="M" horiz-adv-x="448" 
d="M448 384v-384q0 -14 -9 -23t-23 -9t-23 9t-9 23v278l-133 -200q-10 -13 -27 -13t-27 13l-133 200v-278q0 -14 -9 -23t-23 -9t-23 9t-9 23v384q1 23 23 31q22 5 36 -13l165 -248l165 248q14 18 36 13q22 -8 23 -31v0z" />
    <glyph glyph-name="n" unicode="n" horiz-adv-x="384" 
d="M384 384v-384q-1 -22 -21 -30q-5 -2 -11 -2q-15 0 -25 12l-263 316v-296q0 -14 -9 -23t-23 -9t-23 9t-9 23v384q1 22 21 30q21 6 36 -10l263 -316v296q0 14 9 23t23 9t23 -9t9 -23v0z" />
    <glyph glyph-name="n" unicode="N" horiz-adv-x="384" 
d="M384 384v-384q-1 -22 -21 -30q-5 -2 -11 -2q-15 0 -25 12l-263 316v-296q0 -14 -9 -23t-23 -9t-23 9t-9 23v384q1 22 21 30q21 6 36 -10l263 -316v296q0 14 9 23t23 9t23 -9t9 -23v0z" />
    <glyph glyph-name="o" unicode="o" horiz-adv-x="448" 
d="M224 416q-62 -1 -113 -31v0q-50 -30 -80 -80v0q-30 -51 -31 -113q1 -62 31 -113q30 -50 80 -80q51 -30 113 -31q62 1 113 31q50 30 80 80q30 51 31 113q-1 62 -31 113q-30 50 -80 80q-51 30 -113 31v0zM224 32q-68 2 -113 47v0q-45 45 -47 113q2 68 47 113q45 44 113 46
q68 -2 113 -47t47 -112q-2 -67 -47 -113q-45 -45 -113 -47v0z" />
    <glyph glyph-name="o" unicode="O" horiz-adv-x="448" 
d="M224 416q-62 -1 -113 -31v0q-50 -30 -80 -80v0q-30 -51 -31 -113q1 -62 31 -113q30 -50 80 -80q51 -30 113 -31q62 1 113 31q50 30 80 80q30 51 31 113q-1 62 -31 113q-30 50 -80 80q-51 30 -113 31v0zM224 32q-68 2 -113 47v0q-45 45 -47 113q2 68 47 113q45 44 113 46
q68 -2 113 -47t47 -112q-2 -67 -47 -113q-45 -45 -113 -47v0z" />
    <glyph glyph-name="p" unicode="p" horiz-adv-x="320" 
d="M160 416h-128q-14 0 -23 -9t-9 -23v-384q0 -14 9 -23t23 -9t23 9t9 23v96h96q68 2 113 47t47 112q-2 67 -47 113t-113 48v0zM160 160h-96v192h96q41 -1 68 -28t28 -68q-1 -41 -28 -68t-68 -28v0z" />
    <glyph glyph-name="p" unicode="P" horiz-adv-x="320" 
d="M160 416h-128q-14 0 -23 -9t-9 -23v-384q0 -14 9 -23t23 -9t23 9t9 23v96h96q68 2 113 47t47 112q-2 67 -47 113t-113 48v0zM160 160h-96v192h96q41 -1 68 -28t28 -68q-1 -41 -28 -68t-68 -28v0z" />
    <glyph glyph-name="q" unicode="q" horiz-adv-x="448" 
d="M393 45q53 61 55 147q-1 62 -31 113q-29 50 -80 80q-50 30 -112 31q-62 -1 -113 -31t-81 -80q-30 -51 -31 -113q1 -62 31 -113q29 -50 80 -80q50 -30 112 -31q68 1 121 36l47 -57q10 -11 24 -11q16 1 24 11t8 21t-7 20l-47 57v0zM224 32q-68 2 -113 47v0q-45 45 -47 113
q2 68 47 113q45 44 113 46q68 -2 113 -47t47 -112q-1 -55 -33 -96l-70 84q-11 12 -25 12q-16 -1 -24 -11t-8 -21t7 -20l72 -86q-35 -21 -79 -22v0z" />
    <glyph glyph-name="q" unicode="Q" horiz-adv-x="448" 
d="M393 45q53 61 55 147q-1 62 -31 113q-29 50 -80 80q-50 30 -112 31q-62 -1 -113 -31t-81 -80q-30 -51 -31 -113q1 -62 31 -113q29 -50 80 -80q50 -30 112 -31q68 1 121 36l47 -57q10 -11 24 -11q16 1 24 11t8 21t-7 20l-47 57v0zM224 32q-68 2 -113 47v0q-45 45 -47 113
q2 68 47 113q45 44 113 46q68 -2 113 -47t47 -112q-1 -55 -33 -96l-70 84q-11 12 -25 12q-16 -1 -24 -11t-8 -21t7 -20l72 -86q-35 -21 -79 -22v0z" />
    <glyph glyph-name="r" unicode="r" horiz-adv-x="320" 
d="M229 138q40 17 65 52v0q25 36 26 82q-2 61 -42 102q-41 40 -102 42h-144q-14 0 -23 -9t-9 -23v-384q0 -14 9 -23t23 -9t23 9t9 23v128h93l105 -147q10 -13 26 -13q10 0 19 6q10 8 13 21q2 12 -6 24l-85 119v0zM64 352h112q34 -1 57 -23q22 -23 23 -57q-1 -34 -23 -56
q-23 -22 -57 -23h-112v159v0z" />
    <glyph glyph-name="r" unicode="R" horiz-adv-x="320" 
d="M229 138q40 17 65 52v0q25 36 26 82q-2 61 -42 102q-41 40 -102 42h-144q-14 0 -23 -9t-9 -23v-384q0 -14 9 -23t23 -9t23 9t9 23v128h93l105 -147q10 -13 26 -13q10 0 19 6q10 8 13 21q2 12 -6 24l-85 119v0zM64 352h112q34 -1 57 -23q22 -23 23 -57q-1 -34 -23 -56
q-23 -22 -57 -23h-112v159v0z" />
    <glyph glyph-name="s" unicode="s" horiz-adv-x="384" 
d="M350 69q-10 -56 -57 -82q-38 -20 -84 -19q-47 1 -90 13q-42 11 -67 22q-12 6 -17 17q-5 12 -1 25q6 12 18 17q11 5 24 0q59 -23 109 -29q50 -5 77 10q21 11 25 37q6 30 -17 47q-24 17 -87 34q-36 10 -74 26q-37 15 -60 46q-23 30 -15 82q9 49 51 77q69 44 207 8
q13 -4 19 -15q7 -11 3 -25q-3 -13 -14 -19q-12 -6 -25 -3q-67 17 -104 14t-51 -14q-19 -12 -23 -34q-6 -31 17 -47q24 -17 87 -34v0q36 -10 74 -26q37 -16 60 -46t15 -82v0z" />
    <glyph glyph-name="s" unicode="S" horiz-adv-x="384" 
d="M350 69q-10 -56 -57 -82q-38 -20 -84 -19q-47 1 -90 13q-42 11 -67 22q-12 6 -17 17q-5 12 -1 25q6 12 18 17q11 5 24 0q59 -23 109 -29q50 -5 77 10q21 11 25 37q6 30 -17 47q-24 17 -87 34q-36 10 -74 26q-37 15 -60 46q-23 30 -15 82q9 49 51 77q69 44 207 8
q13 -4 19 -15q7 -11 3 -25q-3 -13 -14 -19q-12 -6 -25 -3q-67 17 -104 14t-51 -14q-19 -12 -23 -34q-6 -31 17 -47q24 -17 87 -34v0q36 -10 74 -26q37 -16 60 -46t15 -82v0z" />
    <glyph glyph-name="t" unicode="t" horiz-adv-x="384" 
d="M384 384q0 -14 -9 -23v0q-9 -9 -23 -9h-128v-352q0 -14 -9 -23t-23 -9t-23 9t-9 23v352h-128q-14 0 -23 9t-9 23t9 23t23 9h320q14 0 23 -9t9 -23v0z" />
    <glyph glyph-name="t" unicode="T" horiz-adv-x="384" 
d="M384 384q0 -14 -9 -23v0q-9 -9 -23 -9h-128v-352q0 -14 -9 -23t-23 -9t-23 9t-9 23v352h-128q-14 0 -23 9t-9 23t9 23t23 9h320q14 0 23 -9t9 -23v0z" />
    <glyph glyph-name="u" unicode="u" horiz-adv-x="384" 
d="M384 384v-226q-2 -80 -56 -134q-55 -54 -136 -56q-81 2 -136 56q-54 54 -56 134v226q0 14 9 23t23 9t23 -9t9 -23v-226q1 -53 38 -89q36 -36 90 -37q54 1 90 37q37 36 38 89v226q0 14 9 23t23 9t23 -9t9 -23v0z" />
    <glyph glyph-name="u" unicode="U" horiz-adv-x="384" 
d="M384 384v-226q-2 -80 -56 -134q-55 -54 -136 -56q-81 2 -136 56q-54 54 -56 134v226q0 14 9 23t23 9t23 -9t9 -23v-226q1 -53 38 -89q36 -36 90 -37q54 1 90 37q37 36 38 89v226q0 14 9 23t23 9t23 -9t9 -23v0z" />
    <glyph glyph-name="v" unicode="v" horiz-adv-x="384" 
d="M382 372l-160 -384q-9 -19 -30 -20q-21 1 -30 20l-160 384q-4 12 0 24q5 12 18 18q12 4 24 0q12 -5 18 -18l130 -313l131 313q5 13 17 18q12 4 24 0q13 -6 18 -18q4 -12 0 -24v0z" />
    <glyph glyph-name="v" unicode="V" horiz-adv-x="384" 
d="M382 372l-160 -384q-9 -19 -30 -20q-21 1 -30 20l-160 384q-4 12 0 24q5 12 18 18q12 4 24 0q12 -5 18 -18l130 -313l131 313q5 13 17 18q12 4 24 0q13 -6 18 -18q4 -12 0 -24v0z" />
    <glyph glyph-name="w" unicode="w" horiz-adv-x="576" 
d="M573 373l-144 -384q-8 -20 -30 -21h-1q-22 2 -30 23l-80 279l-81 -279q-8 -21 -30 -23q-22 0 -31 21l-144 384q-4 13 1 24q5 12 18 17q13 4 24 -1q12 -5 17 -18l110 -293l85 292q8 20 31 22q23 -1 31 -23l85 -292l110 293q5 13 17 18q11 5 24 1t18 -16q5 -11 0 -24v0z
" />
    <glyph glyph-name="w" unicode="W" horiz-adv-x="576" 
d="M573 373l-144 -384q-8 -20 -30 -21h-1q-22 2 -30 23l-80 279l-81 -279q-8 -21 -30 -23q-22 0 -31 21l-144 384q-4 13 1 24q5 12 18 17q13 4 24 -1q12 -5 17 -18l110 -293l85 292q8 20 31 22q23 -1 31 -23l85 -292l110 293q5 13 17 18q11 5 24 1t18 -16q5 -11 0 -24v0z
" />
    <glyph glyph-name="x" unicode="x" horiz-adv-x="384" 
d="M377 20q8 -10 7 -23v0q-1 -13 -11 -22q-10 -7 -21 -7q-14 0 -25 12l-135 163l-135 -163q-11 -11 -25 -11q-11 0 -20 7q-11 9 -12 22t7 23l143 172l-143 170q-8 11 -7 24t12 22q10 8 23 7t22 -12l135 -162l135 162q9 11 22 12t23 -7q11 -9 12 -22t-7 -23l-143 -172
l143 -172v0z" />
    <glyph glyph-name="x" unicode="X" horiz-adv-x="384" 
d="M377 20q8 -10 7 -23v0q-1 -13 -11 -22q-10 -7 -21 -7q-14 0 -25 12l-135 163l-135 -163q-11 -11 -25 -11q-11 0 -20 7q-11 9 -12 22t7 23l143 172l-143 170q-8 11 -7 24t12 22q10 8 23 7t22 -12l135 -162l135 162q9 11 22 12t23 -7q11 -9 12 -22t-7 -23l-143 -172
l143 -172v0z" />
    <glyph glyph-name="y" unicode="y" horiz-adv-x="384" 
d="M378 365l-154 -215v-150q0 -14 -9 -22q-9 -9 -23 -9t-23 9q-9 8 -9 22v150l-154 215q-8 12 -6 24q3 13 13 21q12 8 24 6q13 -3 21 -13l134 -187l133 187q8 11 21 13q12 2 24 -5q11 -9 13 -22q3 -12 -5 -24v0z" />
    <glyph glyph-name="y" unicode="Y" horiz-adv-x="384" 
d="M378 365l-154 -215v-150q0 -14 -9 -22q-9 -9 -23 -9t-23 9q-9 8 -9 22v150l-154 215q-8 12 -6 24q3 13 13 21q12 8 24 6q13 -3 21 -13l134 -187l133 187q8 11 21 13q12 2 24 -5q11 -9 13 -22q3 -12 -5 -24v0z" />
    <glyph glyph-name="z" unicode="z" horiz-adv-x="384" 
d="M384 0q0 -14 -9 -23v0q-9 -9 -23 -9h-320q-20 1 -29 18q-8 19 4 34l277 332h-252q-14 0 -23 9t-9 23t9 23t23 9h320q20 -1 29 -18q8 -19 -4 -34l-277 -332h252q14 0 23 -9t9 -23v0z" />
    <glyph glyph-name="z" unicode="Z" horiz-adv-x="384" 
d="M384 0q0 -14 -9 -23v0q-9 -9 -23 -9h-320q-20 1 -29 18q-8 19 4 34l277 332h-252q-14 0 -23 9t-9 23t9 23t23 9h320q20 -1 29 -18q8 -19 -4 -34l-277 -332h252q14 0 23 -9t9 -23v0z" />
    <glyph glyph-name="bracket-square" unicode="[" horiz-adv-x="192" 
d="M128 416h-96q-14 0 -23 -9t-9 -23v-384q0 -14 9 -23t23 -9h96q14 0 23 9t9 23t-9 23t-23 9h-64v320h64q14 0 23 9t9 23t-9 23t-23 9v0z" />
    <glyph glyph-name="slash-back" unicode="\" horiz-adv-x="320" 
d="M288 -64q-18 0 -28 16l-256 448q-6 12 -3 24q3 13 15 20q12 6 24 3q13 -3 20 -15l256 -448q6 -12 3 -24q-3 -13 -15 -20q-8 -4 -16 -4v0z" />
    <glyph glyph-name="bracket-square-right" unicode="]" horiz-adv-x="192" 
d="M32 385q0 -14 9 -24v0q9 -9 22 -9h65v-320h-65q-13 0 -22 -9t-9 -22t9 -23t22 -10h97q14 0 23 9t9 23v384q0 14 -9 23t-23 9h-97q-13 0 -22 -9t-9 -22v0z" />
    <glyph glyph-name="accent-grave" unicode="`" horiz-adv-x="192" 
d="M36 409q10 26 36 35v0q27 10 51 -4q25 -14 30 -42l22 -131q3 -29 -23 -41q-28 -8 -44 16l-68 115q-13 25 -4 52v0z" />
    <glyph glyph-name="bracket-curly" unicode="{" horiz-adv-x="256" 
d="M192 416h-32q-41 -1 -68 -28t-28 -68v-38q0 -13 -9 -22l-46 -45q-9 -10 -9 -23t9 -23l46 -45q9 -9 9 -23v-37q1 -41 28 -68t68 -28h32q14 0 23 9t9 23t-9 23t-23 9h-32q-14 0 -23 9t-9 23v37q-1 40 -28 68l-23 23l23 23q27 28 28 67v38q0 14 9 23t23 9h32q14 0 23 9t9 23
t-9 23t-23 9v0z" />
    <glyph glyph-name="pipe" unicode="|" horiz-adv-x="64" 
d="M32 -64q-14 0 -23 9v0q-9 9 -9 23v448q0 14 9 23t23 9t23 -9t9 -23v-448q0 -14 -9 -23t-23 -9v0z" />
    <glyph glyph-name="bracket-curly-right" unicode="}" horiz-adv-x="256" 
d="M32 385q0 -14 9 -24v0q9 -9 22 -9h33q14 0 23 -9t9 -23v-37q1 -40 28 -68l23 -23l-23 -23q-27 -28 -28 -68v-37q0 -14 -9 -23t-23 -9h-33q-13 0 -22 -9t-9 -22t9 -23t22 -10h33q41 1 68 28t28 68v37q0 14 9 23l46 45q9 10 9 23t-9 23l-46 45q-9 10 -9 22v38q-1 41 -28 68
t-68 28h-33q-13 0 -22 -9t-9 -22v0z" />
    <glyph glyph-name="tilde" unicode="&#xf69f;" horiz-adv-x="448" 
d="M348 64q-41 1 -71 29l-152 152q-10 11 -25 11t-25 -11q-11 -10 -11 -25v-92q0 -14 -9 -23t-23 -9t-23 9t-9 23v92q1 42 29 71q28 28 71 29q41 -1 71 -29l152 -152q10 -11 25 -11t25 11q11 10 11 25v92q0 14 9 23t23 9t23 -9t9 -23v-92q-1 -43 -29 -71t-71 -29v0z" />
    <glyph glyph-name="tilde" unicode="~" horiz-adv-x="448" 
d="M348 64q-41 1 -71 29l-152 152q-10 11 -25 11t-25 -11q-11 -10 -11 -25v-92q0 -14 -9 -23t-23 -9t-23 9t-9 23v92q1 42 29 71q28 28 71 29q41 -1 71 -29l152 -152q10 -11 25 -11t25 11q11 10 11 25v92q0 14 9 23t23 9t23 -9t9 -23v-92q-1 -43 -29 -71t-71 -29v0z" />
    <glyph glyph-name="cent-sign" unicode="&#xa2;" horiz-adv-x="320" 
d="M313 88q8 -10 7 -23v0q-1 -13 -12 -22q-38 -31 -84 -40v-35q0 -14 -9 -23t-23 -9t-23 9t-9 23v35q-59 8 -105 53q-55 59 -55 136t55 136q46 44 105 53v35q0 14 9 23t23 9t23 -9t9 -23v-36q46 -8 84 -39q11 -9 12 -22t-7 -23q-9 -11 -22 -12t-23 7q-39 31 -85 29
q-47 -2 -82 -37q-37 -40 -37 -91t37 -91q35 -35 82 -37q46 -2 85 28q10 9 23 8t22 -12v0z" />
    <glyph glyph-name="sterling-sign" unicode="&#xf154;" horiz-adv-x="320" 
d="M320 0q0 -14 -9 -23v0q-9 -9 -23 -9h-256q-20 1 -29 18q-8 19 4 34q43 53 44 121v19h-19q-14 0 -23 9t-9 23t9 23t23 9h19v67q2 53 38 88q36 36 90 37q20 0 40 -6l79 -26q13 -5 19 -16q5 -12 1 -25q-4 -12 -16 -18q-11 -6 -24 -2l-79 26q-10 3 -20 3q-27 -1 -45 -18
t-19 -43v-67h109q14 0 23 -9t9 -23t-9 -23t-23 -9h-109v-19q0 -58 -25 -109h198q14 0 23 -9t9 -23v0z" />
    <glyph glyph-name="sterling-sign" unicode="&#xa3;" horiz-adv-x="320" 
d="M320 0q0 -14 -9 -23v0q-9 -9 -23 -9h-256q-20 1 -29 18q-8 19 4 34q43 53 44 121v19h-19q-14 0 -23 9t-9 23t9 23t23 9h19v67q2 53 38 88q36 36 90 37q20 0 40 -6l79 -26q13 -5 19 -16q5 -12 1 -25q-4 -12 -16 -18q-11 -6 -24 -2l-79 26q-10 3 -20 3q-27 -1 -45 -18
t-19 -43v-67h109q14 0 23 -9t9 -23t-9 -23t-23 -9h-109v-19q0 -58 -25 -109h198q14 0 23 -9t9 -23v0z" />
    <glyph glyph-name="yen-sign" unicode="&#xf157;" horiz-adv-x="320" 
d="M315 366l-95 -142h52q14 0 23 -9t9 -23t-9 -23t-23 -9h-80v-32h80q14 0 23 -9t9 -23t-9 -23t-23 -9h-80v-64q0 -14 -9 -23t-23 -9t-23 9t-9 23v64h-80q-14 0 -23 9t-9 22t9 23t23 10h80v32h-80q-14 0 -23 9t-9 22t9 23t23 10h52l-95 142q-7 12 -4 24q2 13 13 21
q12 7 24 4q13 -2 21 -13l101 -152l101 152q8 11 21 13q12 3 24 -4q11 -8 13 -21q3 -12 -4 -24v0z" />
    <glyph glyph-name="yen-sign" unicode="&#xa5;" horiz-adv-x="320" 
d="M315 366l-95 -142h52q14 0 23 -9t9 -23t-9 -23t-23 -9h-80v-32h80q14 0 23 -9t9 -23t-9 -23t-23 -9h-80v-64q0 -14 -9 -23t-23 -9t-23 9t-9 23v64h-80q-14 0 -23 9t-9 22t9 23t23 10h80v32h-80q-14 0 -23 9t-9 22t9 23t23 10h52l-95 142q-7 12 -4 24q2 13 13 21
q12 7 24 4q13 -2 21 -13l101 -152l101 152q8 11 21 13q12 3 24 -4q11 -8 13 -21q3 -12 -4 -24v0z" />
    <glyph glyph-name="section" unicode="&#xa7;" horiz-adv-x="256" 
d="M225 111q23 21 29 55q6 44 -12 69q-18 26 -48 39q-29 13 -57 21l-12 3q-43 14 -54 25q-10 12 -6 28q2 14 13 22q24 16 69 9q16 -3 42 -12q13 -5 24 1q12 5 17 18q4 13 -1 24q-5 12 -18 17q-32 11 -53 15q-72 11 -117 -20q-33 -24 -39 -63q-5 -32 4 -53q9 -22 25 -36
q-23 -21 -29 -56q-6 -43 12 -68t45 -38q26 -12 47 -18v0l13 -4q47 -13 62 -25q15 -11 10 -31q1 -13 -21 -26q-24 -11 -62 -5q-26 6 -55 18v0l-10 3q-13 5 -24 -1q-12 -5 -17 -17q-4 -13 1 -25q5 -11 18 -17l9 -3h1q32 -14 67 -21q19 -3 36 -3q35 0 62 12q49 23 58 74
q5 32 -4 53q-8 22 -25 36v0zM65 207q3 15 14 22v0q11 7 24 9q2 0 8 -2q7 -2 8 -3q47 -13 62 -25q15 -11 10 -31q-3 -15 -14 -22t-24 -9q-5 1 -16 5q-11 3 -12 3q-43 14 -54 25q-10 12 -6 28v0z" />
    <glyph glyph-name="copyright" unicode="&#xf1f9;" 
d="M256 448q-72 -1 -129 -35v0q-58 -34 -92 -92v0q-34 -57 -35 -129q1 -72 35 -129q34 -58 92 -92q57 -34 129 -35q72 1 129 35q58 34 92 92q34 57 35 129q-1 72 -35 129q-34 58 -92 92q-57 34 -129 35v0zM199 135q24 -23 56 -23v0v0q33 0 56 23q17 14 34 1q14 -17 0 -34
q-37 -37 -90 -38v0v0q-52 1 -90 38q-37 39 -37 90t37 90q38 37 90 38v0v0q53 -1 90 -38q14 -17 0 -33q-17 -14 -34 0q-23 23 -56 23v0q-32 0 -56 -23q-23 -25 -23 -57t23 -57v0z" />
    <glyph glyph-name="copyright" unicode="&#xa9;" 
d="M256 448q-72 -1 -129 -35v0q-58 -34 -92 -92v0q-34 -57 -35 -129q1 -72 35 -129q34 -58 92 -92q57 -34 129 -35q72 1 129 35q58 34 92 92q34 57 35 129q-1 72 -35 129q-34 58 -92 92q-57 34 -129 35v0zM199 135q24 -23 56 -23v0v0q33 0 56 23q17 14 34 1q14 -17 0 -34
q-37 -37 -90 -38v0v0q-52 1 -90 38q-37 39 -37 90t37 90q38 37 90 38v0v0q53 -1 90 -38q14 -17 0 -33q-17 -14 -34 0q-23 23 -56 23v0q-32 0 -56 -23q-23 -25 -23 -57t23 -57v0z" />
    <glyph glyph-name="angles-left" unicode="&#xf100;" horiz-adv-x="448" 
d="M77 192l138 137q9 10 9 23t-9 23q-10 9 -23 9t-23 -9l-160 -160q-9 -10 -9 -23t9 -23l160 -160q10 -9 23 -9t23 9q9 10 9 23t-9 23l-138 137v0zM269 192l138 137q9 10 9 23t-9 23q-10 9 -23 9t-23 -9l-160 -160q-9 -10 -9 -23t9 -23l160 -160q10 -9 23 -9t23 9q9 10 9 23
t-9 23l-138 137v0z" />
    <glyph glyph-name="angles-left" unicode="&#xab;" horiz-adv-x="448" 
d="M77 192l138 137q9 10 9 23t-9 23q-10 9 -23 9t-23 -9l-160 -160q-9 -10 -9 -23t9 -23l160 -160q10 -9 23 -9t23 9q9 10 9 23t-9 23l-138 137v0zM269 192l138 137q9 10 9 23t-9 23q-10 9 -23 9t-23 -9l-160 -160q-9 -10 -9 -23t9 -23l160 -160q10 -9 23 -9t23 9q9 10 9 23
t-9 23l-138 137v0z" />
    <glyph glyph-name="corner" unicode="&#xac;" horiz-adv-x="448" 
d="M416 64q-14 0 -23 9v0q-9 9 -9 23v128h-352q-14 0 -23 9t-9 23t9 23t23 9h384q14 0 23 -9t9 -23v-160q0 -14 -9 -23t-23 -9v0z" />
    <glyph glyph-name="registered" unicode="&#xf25d;" 
d="M256 448q-72 -1 -129 -35v0q-58 -34 -92 -92v0q-34 -57 -35 -129q1 -72 35 -129q34 -58 92 -92q57 -34 129 -35q72 1 129 35q58 34 92 92q34 57 35 129q-1 72 -35 129q-34 58 -92 92q-57 34 -129 35v0zM350 98q7 -21 -12 -32q-5 -2 -10 -2q-15 0 -22 14l-38 82h-60v-72
q-2 -22 -24 -24q-22 2 -24 24v208q2 22 24 24h88q34 -1 57 -23q22 -23 23 -57q-2 -44 -37 -67l35 -75v0zM272 272h-64v-64h64q14 0 23 9t9 23t-9 23t-23 9v0z" />
    <glyph glyph-name="registered" unicode="&#xae;" 
d="M256 448q-72 -1 -129 -35v0q-58 -34 -92 -92v0q-34 -57 -35 -129q1 -72 35 -129q34 -58 92 -92q57 -34 129 -35q72 1 129 35q58 34 92 92q34 57 35 129q-1 72 -35 129q-34 58 -92 92q-57 34 -129 35v0zM350 98q7 -21 -12 -32q-5 -2 -10 -2q-15 0 -22 14l-38 82h-60v-72
q-2 -22 -24 -24q-22 2 -24 24v208q2 22 24 24h88q34 -1 57 -23q22 -23 23 -57q-2 -44 -37 -67l35 -75v0zM272 272h-64v-64h64q14 0 23 9t9 23t-9 23t-23 9v0z" />
    <glyph glyph-name="plus-minus" unicode="&#xb1;" horiz-adv-x="384" 
d="M352 0h-320q-14 0 -23 -9t-9 -23t9 -22q9 -9 23 -9h320q14 0 23 9t9 22t-9 22q-9 10 -23 10v0zM48 240h112v-111q0 -14 9 -22q9 -9 23 -9t23 9t9 22v111h112q14 0 23 9t9 23t-9 23t-23 9h-112v112q0 14 -9 23t-23 9t-23 -9t-9 -23v-112h-112q-14 0 -23 -9t-9 -23t9 -23
t23 -9v0z" />
    <glyph glyph-name="paragraph" unicode="&#xf1dd;" horiz-adv-x="448" 
d="M448 385q0 -14 -9 -24v0q-9 -9 -23 -9h-32v-352q0 -14 -9 -23t-22 -9t-23 9t-10 23v352h-32v-352q0 -14 -9 -23t-22 -9t-23 9t-10 23v96h-25q-65 1 -112 41q-46 40 -54 103q-5 74 41 124t117 52h224q14 0 24 -9q9 -9 9 -22v0z" />
    <glyph glyph-name="paragraph" unicode="&#xb6;" horiz-adv-x="448" 
d="M448 385q0 -14 -9 -24v0q-9 -9 -23 -9h-32v-352q0 -14 -9 -23t-22 -9t-23 9t-10 23v352h-32v-352q0 -14 -9 -23t-22 -9t-23 9t-10 23v96h-25q-65 1 -112 41q-46 40 -54 103q-5 74 41 124t117 52h224q14 0 24 -9q9 -9 9 -22v0z" />
    <glyph glyph-name="angles-right" unicode="&#xf101;" horiz-adv-x="448" 
d="M247 215l-160 160q-10 9 -23 9t-23 -9q-9 -10 -9 -23t9 -23l138 -137l-138 -137q-9 -10 -9 -23t9 -23q10 -9 23 -9t23 9l160 160q9 10 9 23t-9 23v0zM439 215l-160 160q-10 9 -23 9t-23 -9q-9 -10 -9 -23t9 -23l138 -137l-138 -137q-9 -10 -9 -23t9 -23q10 -9 23 -9t23 9
l160 160q9 10 9 23t-9 23v0z" />
    <glyph glyph-name="angles-right" unicode="&#xbb;" horiz-adv-x="448" 
d="M247 215l-160 160q-10 9 -23 9t-23 -9q-9 -10 -9 -23t9 -23l138 -137l-138 -137q-9 -10 -9 -23t9 -23q10 -9 23 -9t23 9l160 160q9 10 9 23t-9 23v0zM439 215l-160 160q-10 9 -23 9t-23 -9q-9 -10 -9 -23t9 -23l138 -137l-138 -137q-9 -10 -9 -23t9 -23q10 -9 23 -9t23 9
l160 160q9 10 9 23t-9 23v0z" />
    <glyph glyph-name="xmark" unicode="&#x1f5d9;" horiz-adv-x="320" 
d="M311 87q9 -10 9 -23v0q0 -13 -9 -23q-10 -9 -23 -9t-23 9l-105 106l-105 -106q-10 -9 -23 -9t-23 9q-9 10 -9 23t9 23l106 105l-106 105q-9 10 -9 23t9 23q10 9 23 9t23 -9l105 -106l105 106q10 9 23 9t23 -9q9 -10 9 -23t-9 -23l-106 -105l106 -105v0z" />
    <glyph glyph-name="xmark" unicode="&#xf00d;" horiz-adv-x="320" 
d="M311 87q9 -10 9 -23v0q0 -13 -9 -23q-10 -9 -23 -9t-23 9l-105 106l-105 -106q-10 -9 -23 -9t-23 9q-9 10 -9 23t9 23l106 105l-106 105q-9 10 -9 23t9 23q10 9 23 9t23 -9l105 -106l105 106q10 9 23 9t23 -9q9 -10 9 -23t-9 -23l-106 -105l106 -105v0z" />
    <glyph glyph-name="xmark" unicode="&#x274c;" horiz-adv-x="320" 
d="M311 87q9 -10 9 -23v0q0 -13 -9 -23q-10 -9 -23 -9t-23 9l-105 106l-105 -106q-10 -9 -23 -9t-23 9q-9 10 -9 23t9 23l106 105l-106 105q-9 10 -9 23t9 23q10 9 23 9t23 -9l105 -106l105 106q10 9 23 9t23 -9q9 -10 9 -23t-9 -23l-106 -105l106 -105v0z" />
    <glyph glyph-name="xmark" unicode="&#x2716;" horiz-adv-x="320" 
d="M311 87q9 -10 9 -23v0q0 -13 -9 -23q-10 -9 -23 -9t-23 9l-105 106l-105 -106q-10 -9 -23 -9t-23 9q-9 10 -9 23t9 23l106 105l-106 105q-9 10 -9 23t9 23q10 9 23 9t23 -9l105 -106l105 106q10 9 23 9t23 -9q9 -10 9 -23t-9 -23l-106 -105l106 -105v0z" />
    <glyph glyph-name="xmark" unicode="&#x2715;" horiz-adv-x="320" 
d="M311 87q9 -10 9 -23v0q0 -13 -9 -23q-10 -9 -23 -9t-23 9l-105 106l-105 -106q-10 -9 -23 -9t-23 9q-9 10 -9 23t9 23l106 105l-106 105q-9 10 -9 23t9 23q10 9 23 9t23 -9l105 -106l105 106q10 9 23 9t23 -9q9 -10 9 -23t-9 -23l-106 -105l106 -105v0z" />
    <glyph glyph-name="xmark" unicode="&#xd7;" horiz-adv-x="320" 
d="M311 87q9 -10 9 -23v0q0 -13 -9 -23q-10 -9 -23 -9t-23 9l-105 106l-105 -106q-10 -9 -23 -9t-23 9q-9 10 -9 23t9 23l106 105l-106 105q-9 10 -9 23t9 23q10 9 23 9t23 -9l105 -106l105 106q10 9 23 9t23 -9q9 -10 9 -23t-9 -23l-106 -105l106 -105v0z" />
    <glyph glyph-name="empty-set" unicode="&#xf656;" 
d="M503 439q-10 9 -23 9v0q-13 0 -23 -9l-67 -68q-57 44 -134 45q-62 -1 -113 -31q-50 -30 -80 -80q-30 -51 -31 -113q1 -77 45 -134l-68 -67q-9 -10 -9 -23t9 -23q10 -9 23 -9t23 9l67 68q57 -44 134 -45q62 1 113 31q50 30 80 80q30 51 31 113q-1 77 -45 134l68 67
q9 10 9 23t-9 23v0zM96 192q2 68 47 113v0q45 45 113 47q49 -1 88 -27l-221 -221q-26 38 -27 88v0zM416 192q-2 -68 -47 -113v0q-45 -45 -113 -47q-49 1 -88 27l221 221q26 -38 27 -88v0z" />
    <glyph glyph-name="empty-set" unicode="&#x2205;" 
d="M503 439q-10 9 -23 9v0q-13 0 -23 -9l-67 -68q-57 44 -134 45q-62 -1 -113 -31q-50 -30 -80 -80q-30 -51 -31 -113q1 -77 45 -134l-68 -67q-9 -10 -9 -23t9 -23q10 -9 23 -9t23 9l67 68q57 -44 134 -45q62 1 113 31q50 30 80 80q30 51 31 113q-1 77 -45 134l68 67
q9 10 9 23t-9 23v0zM96 192q2 68 47 113v0q45 45 113 47q49 -1 88 -27l-221 -221q-26 38 -27 88v0zM416 192q-2 -68 -47 -113v0q-45 -45 -113 -47q-49 1 -88 27l221 221q26 -38 27 -88v0z" />
    <glyph glyph-name="empty-set" unicode="&#xd8;" 
d="M503 439q-10 9 -23 9v0q-13 0 -23 -9l-67 -68q-57 44 -134 45q-62 -1 -113 -31q-50 -30 -80 -80q-30 -51 -31 -113q1 -77 45 -134l-68 -67q-9 -10 -9 -23t9 -23q10 -9 23 -9t23 9l67 68q57 -44 134 -45q62 1 113 31q50 30 80 80q30 51 31 113q-1 77 -45 134l68 67
q9 10 9 23t-9 23v0zM96 192q2 68 47 113v0q45 45 113 47q49 -1 88 -27l-221 -221q-26 38 -27 88v0zM416 192q-2 -68 -47 -113v0q-45 -45 -113 -47q-49 1 -88 27l221 221q26 -38 27 -88v0z" />
    <glyph glyph-name="divide" unicode="&#xf529;" horiz-adv-x="448" 
d="M400 224h-352q-14 0 -23 -9t-9 -22t9 -22q9 -10 23 -10h352q14 0 23 9t9 23q0 13 -9 22t-23 9v0zM224 304q20 1 34 14v0q13 14 14 34q-1 20 -14 34q-14 13 -34 14q-20 -1 -34 -14q-13 -14 -14 -34q1 -20 14 -34q14 -13 34 -14v0zM224 80q-20 -1 -34 -14v0
q-13 -14 -14 -34q1 -20 14 -34q14 -13 34 -14q20 1 34 14q13 14 14 34q-1 20 -14 34q-14 13 -34 14v0z" />
    <glyph glyph-name="divide" unicode="&#x2797;" horiz-adv-x="448" 
d="M400 224h-352q-14 0 -23 -9t-9 -22t9 -22q9 -10 23 -10h352q14 0 23 9t9 23q0 13 -9 22t-23 9v0zM224 304q20 1 34 14v0q13 14 14 34q-1 20 -14 34q-14 13 -34 14q-20 -1 -34 -14q-13 -14 -14 -34q1 -20 14 -34q14 -13 34 -14v0zM224 80q-20 -1 -34 -14v0
q-13 -14 -14 -34q1 -20 14 -34q14 -13 34 -14q20 1 34 14q13 14 14 34q-1 20 -14 34q-14 13 -34 14v0z" />
    <glyph glyph-name="divide" unicode="&#xf7;" horiz-adv-x="448" 
d="M400 224h-352q-14 0 -23 -9t-9 -22t9 -22q9 -10 23 -10h352q14 0 23 9t9 23q0 13 -9 22t-23 9v0zM224 304q20 1 34 14v0q13 14 14 34q-1 20 -14 34q-14 13 -34 14q-20 -1 -34 -14q-13 -14 -14 -34q1 -20 14 -34q14 -13 34 -14v0zM224 80q-20 -1 -34 -14v0
q-13 -14 -14 -34q1 -20 14 -34q14 -13 34 -14q20 1 34 14q13 14 14 34q-1 20 -14 34q-14 13 -34 14v0z" />
    <glyph glyph-name="minus" unicode="&#xf068;" horiz-adv-x="448" 
d="M400 160h-352q-14 0 -23 9t-9 23t9 23t23 9h352q14 0 23 -9t9 -23t-9 -23t-23 -9v0z" />
    <glyph glyph-name="minus" unicode="&#x2796;" horiz-adv-x="448" 
d="M400 160h-352q-14 0 -23 9t-9 23t9 23t23 9h352q14 0 23 -9t9 -23t-9 -23t-23 -9v0z" />
    <glyph glyph-name="minus" unicode="&#x2212;" horiz-adv-x="448" 
d="M400 160h-352q-14 0 -23 9t-9 23t9 23t23 9h352q14 0 23 -9t9 -23t-9 -23t-23 -9v0z" />
    <glyph glyph-name="minus" unicode="&#x2013;" horiz-adv-x="448" 
d="M400 160h-352q-14 0 -23 9t-9 23t9 23t23 9h352q14 0 23 -9t9 -23t-9 -23t-23 -9v0z" />
    <glyph glyph-name="dash" unicode="&#x2014;" 
d="M512 192q0 -14 -9 -23v0q-9 -9 -23 -9h-448q-14 0 -23 9t-9 23t9 23t23 9h448q14 0 23 -9t9 -23v0z" />
    <glyph glyph-name="horizontal-rule" unicode="&#xf86c;" horiz-adv-x="640" 
d="M608 160h-576q-14 0 -23 9t-9 23t9 23t23 9h576q14 0 23 -9t9 -22t-9 -23t-23 -10v0z" />
    <glyph glyph-name="horizontal-rule" unicode="&#x2015;" horiz-adv-x="640" 
d="M608 160h-576q-14 0 -23 9t-9 23t9 23t23 9h576q14 0 23 -9t9 -22t-9 -23t-23 -10v0z" />
    <glyph glyph-name="quote-left" unicode="&#xf10d;" horiz-adv-x="448" 
d="M96 224q-17 0 -32 -6v6q1 27 19 45t45 19q14 0 23 9t9 23t-9 23t-23 9q-54 -1 -90 -38q-37 -36 -38 -90v-96q1 -41 28 -68t68 -28q41 1 68 28t28 68q-1 41 -28 68t-68 28v0zM352 224q-17 0 -32 -6v6q1 27 19 45t45 19q14 0 23 9t9 23t-9 23t-23 9q-54 -1 -90 -38
q-37 -36 -38 -90v-96q1 -41 28 -68t68 -28q41 1 68 28t28 68q-1 41 -28 68t-68 28v0z" />
    <glyph glyph-name="quote-left" unicode="&#x201c;" horiz-adv-x="448" 
d="M96 224q-17 0 -32 -6v6q1 27 19 45t45 19q14 0 23 9t9 23t-9 23t-23 9q-54 -1 -90 -38q-37 -36 -38 -90v-96q1 -41 28 -68t68 -28q41 1 68 28t28 68q-1 41 -28 68t-68 28v0zM352 224q-17 0 -32 -6v6q1 27 19 45t45 19q14 0 23 9t9 23t-9 23t-23 9q-54 -1 -90 -38
q-37 -36 -38 -90v-96q1 -41 28 -68t68 -28q41 1 68 28t28 68q-1 41 -28 68t-68 28v0z" />
    <glyph glyph-name="quote-right" unicode="&#xf10e;" horiz-adv-x="448" 
d="M96 352q-41 -1 -68 -28v0q-27 -27 -28 -68q1 -41 28 -68t68 -28q17 0 32 6v-6q-1 -27 -19 -45t-45 -19q-14 0 -23 -9t-9 -23t9 -23t23 -9q54 1 90 38q37 36 38 90v96q-1 41 -28 68t-68 28v0zM448 256q-1 41 -28 68v0q-27 27 -68 28q-41 -1 -68 -28t-28 -68q1 -41 28 -68
t68 -28q17 0 32 6v-6q-1 -27 -19 -45t-45 -19q-14 0 -23 -9t-9 -23t9 -23t23 -9q54 1 90 38q37 36 38 90v96v0z" />
    <glyph glyph-name="quote-right" unicode="&#x201d;" horiz-adv-x="448" 
d="M96 352q-41 -1 -68 -28v0q-27 -27 -28 -68q1 -41 28 -68t68 -28q17 0 32 6v-6q-1 -27 -19 -45t-45 -19q-14 0 -23 -9t-9 -23t9 -23t23 -9q54 1 90 38q37 36 38 90v96q-1 41 -28 68t-68 28v0zM448 256q-1 41 -28 68v0q-27 27 -68 28q-41 -1 -68 -28t-28 -68q1 -41 28 -68
t68 -28q17 0 32 6v-6q-1 -27 -19 -45t-45 -19q-14 0 -23 -9t-9 -23t9 -23t23 -9q54 1 90 38q37 36 38 90v96v0z" />
    <glyph glyph-name="angle-left" unicode="&#xf104;" horiz-adv-x="256" 
d="M192 0q-13 0 -23 9l-160 160q-9 10 -9 23t9 23l160 160q10 9 23 9t23 -9q9 -10 9 -23t-9 -23l-138 -137l138 -137q9 -10 9 -23t-9 -23q-10 -9 -23 -9v0z" />
    <glyph glyph-name="angle-left" unicode="&#x2039;" horiz-adv-x="256" 
d="M192 0q-13 0 -23 9l-160 160q-9 10 -9 23t9 23l160 160q10 9 23 9t23 -9q9 -10 9 -23t-9 -23l-138 -137l138 -137q9 -10 9 -23t-9 -23q-10 -9 -23 -9v0z" />
    <glyph glyph-name="angle-right" unicode="&#xf105;" horiz-adv-x="256" 
d="M64 0q-13 0 -23 9q-9 10 -9 23t9 23l138 137l-138 137q-9 10 -9 23t9 23q10 9 23 9t23 -9l160 -160q9 -10 9 -23t-9 -23l-160 -160q-10 -9 -23 -9v0z" />
    <glyph glyph-name="angle-right" unicode="&#x203a;" horiz-adv-x="256" 
d="M64 0q-13 0 -23 9q-9 10 -9 23t9 23l138 137l-138 137q-9 10 -9 23t9 23q10 9 23 9t23 -9l160 -160q9 -10 9 -23t-9 -23l-160 -160q-10 -9 -23 -9v0z" />
    <glyph glyph-name="lira-sign" unicode="&#xf195;" horiz-adv-x="320" 
d="M320 0q0 -14 -9 -23v0q-9 -9 -23 -9h-256q-20 1 -29 18q-8 19 4 34q28 34 38 76h-13q-14 0 -23 9t-9 23t9 23t23 9h19v32h-19q-14 0 -23 9t-9 23t9 23t23 9h19v35q2 53 38 88q36 36 90 37q20 0 40 -6l79 -26q13 -5 19 -16q5 -12 1 -25q-4 -12 -16 -18q-11 -6 -24 -2
l-79 26q-10 3 -20 3q-27 -1 -45 -18t-19 -43v-35h109q14 0 23 -9t9 -23t-9 -23t-23 -9h-109v-32h109q14 0 23 -9t9 -23t-9 -23t-23 -9h-113q-6 -33 -21 -64h198q14 0 23 -9t9 -23v0z" />
    <glyph glyph-name="lira-sign" unicode="&#x20a4;" horiz-adv-x="320" 
d="M320 0q0 -14 -9 -23v0q-9 -9 -23 -9h-256q-20 1 -29 18q-8 19 4 34q28 34 38 76h-13q-14 0 -23 9t-9 23t9 23t23 9h19v32h-19q-14 0 -23 9t-9 23t9 23t23 9h19v35q2 53 38 88q36 36 90 37q20 0 40 -6l79 -26q13 -5 19 -16q5 -12 1 -25q-4 -12 -16 -18q-11 -6 -24 -2
l-79 26q-10 3 -20 3q-27 -1 -45 -18t-19 -43v-35h109q14 0 23 -9t9 -23t-9 -23t-23 -9h-109v-32h109q14 0 23 -9t9 -23t-9 -23t-23 -9h-113q-6 -33 -21 -64h198q14 0 23 -9t9 -23v0z" />
    <glyph glyph-name="rupee-sign" unicode="&#xf156;" 
d="M394 142l-8 3q-26 9 -31 15q-5 7 -3 15v0v1q-1 3 7 11q7 8 35 4q10 -2 26 -9q13 -4 24 1q12 5 18 17q4 13 -1 25q-5 11 -17 17q-22 9 -38 12q-51 8 -85 -15q-27 -20 -32 -54q-4 -35 9 -56q14 -20 34 -30q19 -10 33 -14l9 -3q31 -10 37 -17q7 -6 5 -16q-3 -12 -15 -16
q-12 -3 -28 0q-15 4 -34 12v0l-7 3q-12 5 -24 0t-18 -17q-4 -13 0 -25q5 -11 18 -17l6 -3q22 -10 48 -16q13 -2 26 -2q34 0 59 17q27 20 32 54q5 52 -25 74t-60 29v0zM288 272q-2 61 -42 102v0q-41 40 -102 42h-80q-14 0 -23 -9t-9 -23v-384q0 -14 9 -23t23 -9t23 9t9 23
v128h42l56 -140q9 -19 30 -20q6 0 12 2q12 6 17 17q5 12 1 25l-52 129q39 17 62 52q23 34 24 79v0zM144 192h-48v160h48q34 -1 57 -23q22 -23 23 -57q-1 -34 -23 -57q-23 -22 -57 -23v0z" />
    <glyph glyph-name="rupee-sign" unicode="&#x20a8;" 
d="M394 142l-8 3q-26 9 -31 15q-5 7 -3 15v0v1q-1 3 7 11q7 8 35 4q10 -2 26 -9q13 -4 24 1q12 5 18 17q4 13 -1 25q-5 11 -17 17q-22 9 -38 12q-51 8 -85 -15q-27 -20 -32 -54q-4 -35 9 -56q14 -20 34 -30q19 -10 33 -14l9 -3q31 -10 37 -17q7 -6 5 -16q-3 -12 -15 -16
q-12 -3 -28 0q-15 4 -34 12v0l-7 3q-12 5 -24 0t-18 -17q-4 -13 0 -25q5 -11 18 -17l6 -3q22 -10 48 -16q13 -2 26 -2q34 0 59 17q27 20 32 54q5 52 -25 74t-60 29v0zM288 272q-2 61 -42 102v0q-41 40 -102 42h-80q-14 0 -23 -9t-9 -23v-384q0 -14 9 -23t23 -9t23 9t9 23
v128h42l56 -140q9 -19 30 -20q6 0 12 2q12 6 17 17q5 12 1 25l-52 129q39 17 62 52q23 34 24 79v0zM144 192h-48v160h48q34 -1 57 -23q22 -23 23 -57q-1 -34 -23 -57q-23 -22 -57 -23v0z" />
    <glyph glyph-name="won-sign" unicode="&#xf159;" 
d="M480 208h-25l55 166q4 13 -1 24q-6 12 -19 16t-24 -1q-12 -6 -16 -19l-62 -186h-55l-46 184q-7 23 -31 24q-24 -1 -32 -24l-45 -184h-55l-62 186q-4 13 -16 19q-11 5 -24 1t-19 -16q-5 -11 -1 -24l55 -166h-25q-14 0 -23 -9t-9 -23t9 -23t23 -9h46l52 -154q8 -22 31 -22
q23 2 30 24l37 152h54l38 -152q7 -22 30 -24q1 0 2 1v0q22 1 30 22l52 154l46 -1q14 0 23 9t9 23t-9 23t-23 9v0zM156 114l-10 30h17l-7 -30v0zM244 208l12 44l11 -44h-23v0zM356 114l-8 30h17l-9 -30v0z" />
    <glyph glyph-name="won-sign" unicode="&#x20a9;" 
d="M480 208h-25l55 166q4 13 -1 24q-6 12 -19 16t-24 -1q-12 -6 -16 -19l-62 -186h-55l-46 184q-7 23 -31 24q-24 -1 -32 -24l-45 -184h-55l-62 186q-4 13 -16 19q-11 5 -24 1t-19 -16q-5 -11 -1 -24l55 -166h-25q-14 0 -23 -9t-9 -23t9 -23t23 -9h46l52 -154q8 -22 31 -22
q23 2 30 24l37 152h54l38 -152q7 -22 30 -24q1 0 2 1v0q22 1 30 22l52 154l46 -1q14 0 23 9t9 23t-9 23t-23 9v0zM156 114l-10 30h17l-7 -30v0zM244 208l12 44l11 -44h-23v0zM356 114l-8 30h17l-9 -30v0z" />
    <glyph glyph-name="shekel-sign" unicode="&#xf20b;" horiz-adv-x="448" 
d="M256 288v-160q0 -14 9 -23t23 -9t23 9t9 23v160q-1 54 -38 90q-36 37 -90 38h-160q-14 0 -23 -9t-9 -23v-384q0 -14 9 -23t23 -9t23 9t9 23v352h128q27 -1 45 -19t19 -45v0zM416 416q-14 0 -23 -9v0q-9 -9 -9 -23v-288q-1 -27 -19 -45t-45 -19h-128v224q0 14 -9 23t-23 9
t-23 -9t-9 -23v-256q0 -14 9 -23t23 -9h160q54 1 90 38q37 36 38 90v288q0 14 -9 23t-23 9v0z" />
    <glyph glyph-name="shekel-sign" unicode="&#x20aa;" horiz-adv-x="448" 
d="M256 288v-160q0 -14 9 -23t23 -9t23 9t9 23v160q-1 54 -38 90q-36 37 -90 38h-160q-14 0 -23 -9t-9 -23v-384q0 -14 9 -23t23 -9t23 9t9 23v352h128q27 -1 45 -19t19 -45v0zM416 416q-14 0 -23 -9v0q-9 -9 -9 -23v-288q-1 -27 -19 -45t-45 -19h-128v224q0 14 -9 23t-23 9
t-23 -9t-9 -23v-256q0 -14 9 -23t23 -9h160q54 1 90 38q37 36 38 90v288q0 14 -9 23t-23 9v0z" />
    <glyph glyph-name="euro-sign" unicode="&#xf153;" horiz-adv-x="384" 
d="M351 12q3 -14 -4 -24v0q-7 -11 -20 -15q-24 -5 -47 -5q-89 1 -153 66q-33 35 -49 78h-30q-14 0 -23 9t-9 23t9 23t23 9h17q-1 16 0 32h-17q-14 0 -23 9t-9 23t9 23t23 9h30q16 43 49 78q40 41 92 57q53 16 108 4q13 -4 20 -15q7 -10 4 -24q-3 -13 -14 -20q-11 -6 -24 -4
q-39 9 -75 -2q-37 -11 -65 -40q-14 -16 -24 -34h123q14 0 22 -9q9 -9 9 -23t-9 -23q-8 -9 -22 -9h-143q-1 -16 0 -32h143q14 0 22 -9q9 -9 9 -22t-9 -23q-8 -10 -22 -10h-123q10 -18 24 -34q28 -29 65 -40q36 -11 75 -2q13 3 24 -4t14 -20v0z" />
    <glyph glyph-name="euro-sign" unicode="&#x20ac;" horiz-adv-x="384" 
d="M351 12q3 -14 -4 -24v0q-7 -11 -20 -15q-24 -5 -47 -5q-89 1 -153 66q-33 35 -49 78h-30q-14 0 -23 9t-9 23t9 23t23 9h17q-1 16 0 32h-17q-14 0 -23 9t-9 23t9 23t23 9h30q16 43 49 78q40 41 92 57q53 16 108 4q13 -4 20 -15q7 -10 4 -24q-3 -13 -14 -20q-11 -6 -24 -4
q-39 9 -75 -2q-37 -11 -65 -40q-14 -16 -24 -34h123q14 0 22 -9q9 -9 9 -23t-9 -23q-8 -9 -22 -9h-143q-1 -16 0 -32h143q14 0 22 -9q9 -9 9 -22t-9 -23q-8 -10 -22 -10h-123q10 -18 24 -34q28 -29 65 -40q36 -11 75 -2q13 3 24 -4t14 -20v0z" />
    <glyph glyph-name="hryvnia-sign" unicode="&#xf6f2;" horiz-adv-x="384" 
d="M384 144q0 -14 -9 -23v0q-9 -9 -23 -9h-230q-10 -13 -10 -30q1 -21 15 -35t35 -15h49q32 1 54 23q10 9 23 9t23 -9q9 -10 9 -23t-9 -23q-43 -40 -100 -41h-49q-48 1 -81 33q-32 33 -33 81q0 15 4 30h-20q-14 0 -23 9t-9 23t9 23t23 9h66l1 1q2 1 3 2l53 29h-123
q-14 0 -23 9t-9 23t9 23t23 9h230q9 13 10 30q-1 21 -15 35t-35 15h-49q-32 -1 -54 -23q-10 -9 -23 -9t-23 9q-9 10 -9 23t9 23q42 40 100 41h49q48 -1 81 -33q32 -33 33 -81q0 -15 -4 -30h20q14 0 23 -9t9 -23t-9 -23t-23 -9h-66l-1 -1q-2 -1 -3 -2l-53 -29h123q14 0 23 -9
t9 -23v0z" />
    <glyph glyph-name="hryvnia-sign" unicode="&#x20b4;" horiz-adv-x="384" 
d="M384 144q0 -14 -9 -23v0q-9 -9 -23 -9h-230q-10 -13 -10 -30q1 -21 15 -35t35 -15h49q32 1 54 23q10 9 23 9t23 -9q9 -10 9 -23t-9 -23q-43 -40 -100 -41h-49q-48 1 -81 33q-32 33 -33 81q0 15 4 30h-20q-14 0 -23 9t-9 23t9 23t23 9h66l1 1q2 1 3 2l53 29h-123
q-14 0 -23 9t-9 23t9 23t23 9h230q9 13 10 30q-1 21 -15 35t-35 15h-49q-32 -1 -54 -23q-10 -9 -23 -9t-23 9q-9 10 -9 23t9 23q42 40 100 41h49q48 -1 81 -33q32 -33 33 -81q0 -15 -4 -30h20q14 0 23 -9t9 -23t-9 -23t-23 -9h-66l-1 -1q-2 -1 -3 -2l-53 -29h123q14 0 23 -9
t9 -23v0z" />
    <glyph glyph-name="tenge-sign" unicode="&#xf7d7;" horiz-adv-x="384" 
d="M32 352h320q14 0 23 9t9 23t-9 23t-23 9h-320q-14 0 -23 -9t-9 -23t9 -23t23 -9v0zM352 288h-320q-14 0 -23 -9t-9 -23t9 -23t23 -9h128v-224q0 -14 9 -23t23 -9t23 9t9 23v224h128q14 0 23 9t9 23t-9 23t-23 9v0z" />
    <glyph glyph-name="tenge-sign" unicode="&#x20b8;" horiz-adv-x="384" 
d="M32 352h320q14 0 23 9t9 23t-9 23t-23 9h-320q-14 0 -23 -9t-9 -23t9 -23t23 -9v0zM352 288h-320q-14 0 -23 -9t-9 -23t9 -23t23 -9h128v-224q0 -14 9 -23t23 -9t23 9t9 23v224h128q14 0 23 9t9 23t-9 23t-23 9v0z" />
    <glyph glyph-name="ruble-sign" unicode="&#xf158;" horiz-adv-x="384" 
d="M240 128q61 2 102 42v0q40 41 42 102q-2 61 -42 102q-41 40 -102 42h-144q-14 0 -23 -9t-9 -23v-192h-32q-14 0 -23 -9t-9 -23t9 -23t23 -9h32v-32h-32q-14 0 -23 -9t-9 -23t9 -23t23 -9h32v-32q0 -14 9 -23t23 -9t23 9t9 23v32h160q14 0 23 9t9 23t-9 23t-23 9h-160v32
h112v0zM128 352h112q34 -1 57 -23q22 -23 23 -57q-1 -34 -23 -57q-23 -22 -57 -23h-112v160v0z" />
    <glyph glyph-name="ruble-sign" unicode="&#x20bd;" horiz-adv-x="384" 
d="M240 128q61 2 102 42v0q40 41 42 102q-2 61 -42 102q-41 40 -102 42h-144q-14 0 -23 -9t-9 -23v-192h-32q-14 0 -23 -9t-9 -23t9 -23t23 -9h32v-32h-32q-14 0 -23 -9t-9 -23t9 -23t23 -9h32v-32q0 -14 9 -23t23 -9t23 9t9 23v32h160q14 0 23 9t9 23t-9 23t-23 9h-160v32
h112v0zM128 352h112q34 -1 57 -23q22 -23 23 -57q-1 -34 -23 -57q-23 -22 -57 -23h-112v160v0z" />
    <glyph glyph-name="trademark" unicode="&#xf25c;" horiz-adv-x="640" 
d="M618 350q-21 6 -36 -11l-118 -158l-118 158q-15 17 -36 11q-21 -8 -22 -30v-256q0 -14 9 -23t23 -9t23 9t9 23v160l86 -115q10 -12 26 -12t26 12l86 115v-160q0 -14 9 -23t23 -9t23 9t9 23v256q-1 22 -22 30v0zM224 352h-192q-14 0 -23 -9t-9 -23t9 -23t23 -9h64v-223
q0 -14 9 -23t23 -9t23 9t9 23v223h64q14 0 23 9t9 23t-9 23t-23 9v0z" />
    <glyph glyph-name="trademark" unicode="&#x2122;" horiz-adv-x="640" 
d="M618 350q-21 6 -36 -11l-118 -158l-118 158q-15 17 -36 11q-21 -8 -22 -30v-256q0 -14 9 -23t23 -9t23 9t9 23v160l86 -115q10 -12 26 -12t26 12l86 115v-160q0 -14 9 -23t23 -9t23 9t9 23v256q-1 22 -22 30v0zM224 352h-192q-14 0 -23 -9t-9 -23t9 -23t23 -9h64v-223
q0 -14 9 -23t23 -9t23 9t9 23v223h64q14 0 23 9t9 23t-9 23t-23 9v0z" />
    <glyph glyph-name="square-info" unicode="&#xf30f;" horiz-adv-x="448" 
d="M384 416h-320q-27 -1 -45 -19t-19 -45v-320q1 -27 19 -45t45 -19h320q27 1 45 19t19 45v320q-1 27 -19 45t-45 19v0zM224 320q14 0 23 -9v0q9 -9 9 -23t-9 -23t-23 -9t-23 9t-9 23t9 23t23 9v0zM264 64h-80q-22 2 -24 24q2 22 24 24h16v64h-8q-22 2 -24 24q2 22 24 24h32
q22 -2 24 -24v-88h16q22 -2 24 -24q-2 -22 -24 -24v0z" />
    <glyph glyph-name="square-info" unicode="&#x2139;" horiz-adv-x="448" 
d="M384 416h-320q-27 -1 -45 -19t-19 -45v-320q1 -27 19 -45t45 -19h320q27 1 45 19t19 45v320q-1 27 -19 45t-45 19v0zM224 320q14 0 23 -9v0q9 -9 9 -23t-9 -23t-23 -9t-23 9t-9 23t9 23t23 9v0zM264 64h-80q-22 2 -24 24q2 22 24 24h16v64h-8q-22 2 -24 24q2 22 24 24h32
q22 -2 24 -24v-88h16q22 -2 24 -24q-2 -22 -24 -24v0z" />
    <glyph glyph-name="arrow-left" unicode="&#xf060;" horiz-adv-x="448" 
d="M447 192q0 -14 -9 -23v0q-8 -9 -22 -9h-307l106 -105q9 -10 9 -23t-9 -23q-10 -9 -23 -9t-23 9l-160 160q-9 10 -9 23t9 23l160 160q10 9 23 9t23 -9q9 -10 9 -23t-9 -23l-106 -105h307q14 0 22 -9q9 -9 9 -23v0z" />
    <glyph glyph-name="arrow-left" unicode="&#x2190;" horiz-adv-x="448" 
d="M447 192q0 -14 -9 -23v0q-8 -9 -22 -9h-307l106 -105q9 -10 9 -23t-9 -23q-10 -9 -23 -9t-23 9l-160 160q-9 10 -9 23t9 23l160 160q10 9 23 9t23 -9q9 -10 9 -23t-9 -23l-106 -105h307q14 0 22 -9q9 -9 9 -23v0z" />
    <glyph glyph-name="arrow-up" unicode="&#xf062;" horiz-adv-x="384" 
d="M375 201q-10 -9 -23 -9t-23 9l-105 106v-307q0 -14 -9 -22q-9 -9 -22 -9t-23 9q-10 8 -10 22v307l-105 -106q-10 -9 -23 -9t-23 9q-9 10 -9 23t9 23l160 160q10 9 23 9t23 -9l160 -160q9 -10 9 -23t-9 -23v0z" />
    <glyph glyph-name="arrow-up" unicode="&#x2191;" horiz-adv-x="384" 
d="M375 201q-10 -9 -23 -9t-23 9l-105 106v-307q0 -14 -9 -22q-9 -9 -22 -9t-23 9q-10 8 -10 22v307l-105 -106q-10 -9 -23 -9t-23 9q-9 10 -9 23t9 23l160 160q10 9 23 9t23 -9l160 -160q9 -10 9 -23t-9 -23v0z" />
    <glyph glyph-name="arrow-right" unicode="&#xf061;" horiz-adv-x="448" 
d="M439 169l-160 -160q-10 -9 -23 -9t-23 9q-9 10 -9 23t9 23l106 105h-307q-14 0 -23 9t-9 23t9 23t23 9h307l-106 105q-9 10 -9 23t9 23q10 9 23 9t23 -9l160 -160q9 -10 9 -23t-9 -23v0z" />
    <glyph glyph-name="arrow-right" unicode="&#x2192;" horiz-adv-x="448" 
d="M439 169l-160 -160q-10 -9 -23 -9t-23 9q-9 10 -9 23t9 23l106 105h-307q-14 0 -23 9t-9 23t9 23t23 9h307l-106 105q-9 10 -9 23t9 23q10 9 23 9t23 -9l160 -160q9 -10 9 -23t-9 -23v0z" />
    <glyph glyph-name="arrow-down" unicode="&#xf063;" horiz-adv-x="384" 
d="M375 137l-160 -160q-10 -9 -23 -9t-23 9l-160 160q-9 10 -9 23t9 23q10 9 23 9t23 -9l105 -106v307q0 14 9 22q9 9 22 9t23 -9q10 -8 10 -22v-307l105 106q10 9 23 9t23 -9q9 -10 9 -23t-9 -23v0z" />
    <glyph glyph-name="arrow-down" unicode="&#x2193;" horiz-adv-x="384" 
d="M375 137l-160 -160q-10 -9 -23 -9t-23 9l-160 160q-9 10 -9 23t9 23q10 9 23 9t23 -9l105 -106v307q0 14 9 22q9 9 22 9t23 -9q10 -8 10 -22v-307l105 106q10 9 23 9t23 -9q9 -10 9 -23t-9 -23v0z" />
    <glyph glyph-name="left-right" unicode="&#xf337;" 
d="M503 174l-112 -104q-12 -10 -26 -4q-14 7 -14 22v56h-192v-56q-1 -15 -15 -22q-14 -6 -26 4l-112 104q-7 8 -7 18t7 18l112 104q12 10 26 4q15 -7 16 -22v-55h192v56q0 15 14 22q14 5 26 -5l112 -104q7 -7 7 -18q0 -10 -8 -18v0z" />
    <glyph glyph-name="left-right" unicode="&#x2194;" 
d="M503 174l-112 -104q-12 -10 -26 -4q-14 7 -14 22v56h-192v-56q-1 -15 -15 -22q-14 -6 -26 4l-112 104q-7 8 -7 18t7 18l112 104q12 10 26 4q15 -7 16 -22v-55h192v56q0 15 14 22q14 5 26 -5l112 -104q7 -7 7 -18q0 -10 -8 -18v0z" />
    <glyph glyph-name="up-down" unicode="&#xf338;" horiz-adv-x="256" 
d="M250 56l-104 -112q-8 -8 -18 -8t-18 8l-103 112q-10 11 -4 26q6 13 21 14h56v192h-56q-15 1 -22 14q-6 15 4 26l104 112q8 8 18 8t18 -8l104 -112q10 -11 4 -26q-7 -13 -22 -14h-56v-192h56q15 -1 22 -14q6 -15 -4 -26v0z" />
    <glyph glyph-name="up-down" unicode="&#x2b0d;" horiz-adv-x="256" 
d="M250 56l-104 -112q-8 -8 -18 -8t-18 8l-103 112q-10 11 -4 26q6 13 21 14h56v192h-56q-15 1 -22 14q-6 15 4 26l104 112q8 8 18 8t18 -8l104 -112q10 -11 4 -26q-7 -13 -22 -14h-56v-192h56q15 -1 22 -14q6 -15 -4 -26v0z" />
    <glyph glyph-name="up-down" unicode="&#x2195;" horiz-adv-x="256" 
d="M250 56l-104 -112q-8 -8 -18 -8t-18 8l-103 112q-10 11 -4 26q6 13 21 14h56v192h-56q-15 1 -22 14q-6 15 4 26l104 112q8 8 18 8t18 -8l104 -112q10 -11 4 -26q-7 -13 -22 -14h-56v-192h56q15 -1 22 -14q6 -15 -4 -26v0z" />
    <glyph glyph-name="square-up-right" unicode="&#xf360;" horiz-adv-x="448" 
d="M384 416h-320q-27 -1 -45 -19t-19 -45v-320q1 -27 19 -45t45 -19h320q27 1 45 19t19 45v320q-1 27 -19 45t-45 19v0zM331 124q-1 -10 -10 -15q-10 -3 -18 4l-45 45l-68 -68q-10 -9 -23 -9q-12 0 -22 9l-23 23q-9 10 -9 23q0 12 9 23l68 68l-45 44q-7 8 -4 18q5 9 15 9
h158q15 -1 16 -15v-159h1z" />
    <glyph glyph-name="square-up-right" unicode="&#x2197;" horiz-adv-x="448" 
d="M384 416h-320q-27 -1 -45 -19t-19 -45v-320q1 -27 19 -45t45 -19h320q27 1 45 19t19 45v320q-1 27 -19 45t-45 19v0zM331 124q-1 -10 -10 -15q-10 -3 -18 4l-45 45l-68 -68q-10 -9 -23 -9q-12 0 -22 9l-23 23q-9 10 -9 23q0 12 9 23l68 68l-45 44q-7 8 -4 18q5 9 15 9
h158q15 -1 16 -15v-159h1z" />
    <glyph glyph-name="arrow-left-from-line" unicode="&#xf344;" horiz-adv-x="448" 
d="M183 87l-74 73h179q14 0 23 9t9 23t-9 23t-23 9h-179l74 73q9 10 9 23t-9 23q-10 9 -23 9t-23 -9l-128 -128q-9 -10 -9 -23t9 -23l128 -128q10 -9 23 -9t23 9q9 10 9 23t-9 23v0zM384 352v-320q0 -14 9 -23t23 -9t23 9t9 23v320q0 14 -9 23t-23 9t-23 -9t-9 -23v0z" />
    <glyph glyph-name="arrow-left-from-line" unicode="&#x21a4;" horiz-adv-x="448" 
d="M183 87l-74 73h179q14 0 23 9t9 23t-9 23t-23 9h-179l74 73q9 10 9 23t-9 23q-10 9 -23 9t-23 -9l-128 -128q-9 -10 -9 -23t9 -23l128 -128q10 -9 23 -9t23 9q9 10 9 23t-9 23v0zM384 352v-320q0 -14 9 -23t23 -9t23 9t9 23v320q0 14 -9 23t-23 9t-23 -9t-9 -23v0z" />
    <glyph glyph-name="arrow-up-from-line" unicode="&#xf342;" horiz-adv-x="384" 
d="M87 233l73 74v-179q0 -14 9 -23t23 -9t23 9t9 23v179l73 -74q10 -9 23 -9t23 9q9 10 9 23t-9 23l-128 128q-10 9 -23 9t-23 -9l-128 -128q-9 -10 -9 -23t9 -23q10 -9 23 -9t23 9v0zM352 32h-320q-14 0 -23 -9t-9 -23t9 -23t23 -9h320q14 0 23 9t9 23t-9 23t-23 9v0z" />
    <glyph glyph-name="arrow-up-from-line" unicode="&#x21a5;" horiz-adv-x="384" 
d="M87 233l73 74v-179q0 -14 9 -23t23 -9t23 9t9 23v179l73 -74q10 -9 23 -9t23 9q9 10 9 23t-9 23l-128 128q-10 9 -23 9t-23 -9l-128 -128q-9 -10 -9 -23t9 -23q10 -9 23 -9t23 9v0zM352 32h-320q-14 0 -23 -9t-9 -23t9 -23t23 -9h320q14 0 23 9t9 23t-9 23t-23 9v0z" />
    <glyph glyph-name="arrow-right-from-line" unicode="&#xf343;" horiz-adv-x="448" 
d="M265 297l74 -73h-179q-14 0 -23 -9t-9 -23t9 -23t23 -9h179l-74 -73q-9 -10 -9 -23t9 -23q10 -9 23 -9t23 9l128 128q9 10 9 23t-9 23l-128 128q-10 9 -23 9t-23 -9q-9 -10 -9 -23t9 -23v0zM64 32v320q0 14 -9 23t-23 9t-23 -9t-9 -23v-320q0 -14 9 -23t23 -9t23 9t9 23
v0z" />
    <glyph glyph-name="arrow-right-from-line" unicode="&#x21a6;" horiz-adv-x="448" 
d="M265 297l74 -73h-179q-14 0 -23 -9t-9 -23t9 -23t23 -9h179l-74 -73q-9 -10 -9 -23t9 -23q10 -9 23 -9t23 9l128 128q9 10 9 23t-9 23l-128 128q-10 9 -23 9t-23 -9q-9 -10 -9 -23t9 -23v0zM64 32v320q0 14 -9 23t-23 9t-23 -9t-9 -23v-320q0 -14 9 -23t23 -9t23 9t9 23
v0z" />
    <glyph glyph-name="arrow-down-from-line" unicode="&#xf345;" horiz-adv-x="384" 
d="M297 151l-73 -74v179q0 14 -9 23t-23 9t-23 -9t-9 -23v-179l-73 74q-10 9 -23 9t-23 -9q-9 -10 -9 -23t9 -23l128 -128q10 -9 23 -9t23 9l128 128q9 10 9 23t-9 23q-10 9 -23 9t-23 -9v0zM32 352h320q14 0 23 9t9 23t-9 23t-23 9h-320q-14 0 -23 -9t-9 -23t9 -23t23 -9v0
z" />
    <glyph glyph-name="arrow-down-from-line" unicode="&#x21a7;" horiz-adv-x="384" 
d="M297 151l-73 -74v179q0 14 -9 23t-23 9t-23 -9t-9 -23v-179l-73 74q-10 9 -23 9t-23 -9q-9 -10 -9 -23t9 -23l128 -128q10 -9 23 -9t23 9l128 128q9 10 9 23t-9 23q-10 9 -23 9t-23 -9v0zM32 352h320q14 0 23 9t9 23t-9 23t-23 9h-320q-14 0 -23 -9t-9 -23t9 -23t23 -9v0
z" />
    <glyph glyph-name="arrow-rotate-left" unicode="&#xf0e2;" 
d="M480 192q-1 -62 -31 -113v0q-30 -50 -80 -80v0q-50 -30 -113 -31q-74 1 -134 45q-11 8 -13 21q-1 13 7 24q8 10 21 12q12 2 23 -6q43 -32 96 -32q68 2 113 47t47 113q-2 68 -47 113t-113 47q-38 0 -71 -17t-56 -47h63q14 0 23 -9t9 -23t-9 -23t-23 -9h-144q-14 0 -23 9
t-9 23v144q0 14 9 23t23 9t23 -9t9 -23v-70q32 40 78 63q45 23 98 23q63 -1 113 -31t80 -80q30 -51 31 -113v0z" />
    <glyph glyph-name="arrow-rotate-left" unicode="&#x21ba;" 
d="M480 192q-1 -62 -31 -113v0q-30 -50 -80 -80v0q-50 -30 -113 -31q-74 1 -134 45q-11 8 -13 21q-1 13 7 24q8 10 21 12q12 2 23 -6q43 -32 96 -32q68 2 113 47t47 113q-2 68 -47 113t-113 47q-38 0 -71 -17t-56 -47h63q14 0 23 -9t9 -23t-9 -23t-23 -9h-144q-14 0 -23 9
t-9 23v144q0 14 9 23t23 9t23 -9t9 -23v-70q32 40 78 63q45 23 98 23q63 -1 113 -31t80 -80q30 -51 31 -113v0z" />
    <glyph glyph-name="arrow-rotate-right" unicode="&#xf01e;" 
d="M496 400v-144q0 -14 -9 -23t-23 -9h-144q-14 0 -23 9t-9 23t9 23t23 9h63q-23 30 -56 47t-71 17q-68 -2 -113 -47t-47 -113q2 -68 47 -113t113 -47q53 0 96 32q11 8 23 6q13 -2 21 -12q8 -11 7 -24q-2 -13 -13 -21q-60 -44 -134 -45q-63 1 -113 31t-80 80q-30 51 -31 113
q1 62 31 113q30 50 80 80t113 31q52 0 98 -23t78 -63v70q0 14 9 23t23 9t23 -9t9 -23v0z" />
    <glyph glyph-name="arrow-rotate-right" unicode="&#x21bb;" 
d="M496 400v-144q0 -14 -9 -23t-23 -9h-144q-14 0 -23 9t-9 23t9 23t23 9h63q-23 30 -56 47t-71 17q-68 -2 -113 -47t-47 -113q2 -68 47 -113t113 -47q53 0 96 32q11 8 23 6q13 -2 21 -12q8 -11 7 -24q-2 -13 -13 -21q-60 -44 -134 -45q-63 1 -113 31t-80 80q-30 51 -31 113
q1 62 31 113q30 50 80 80t113 31q52 0 98 -23t78 -63v70q0 14 9 23t23 9t23 -9t9 -23v0z" />
    <glyph glyph-name="arrow-right-arrow-left" unicode="&#xf0ec;" 
d="M32 272h371l-58 -57q-9 -10 -9 -23t9 -23q10 -9 23 -9t23 9l112 112q9 10 9 23t-9 23l-112 112q-10 9 -23 9t-23 -9q-9 -10 -9 -23t9 -23l58 -57h-371q-14 0 -23 -9t-9 -23t9 -23t23 -9v0zM480 112h-371l58 57q9 10 9 23t-9 23q-10 9 -23 9t-23 -9l-112 -112
q-9 -10 -9 -23t9 -23l112 -112q10 -9 23 -9t23 9q9 10 9 23t-9 23l-58 57h371q14 0 23 9t9 23t-9 23t-23 9v0z" />
    <glyph glyph-name="arrow-right-arrow-left" unicode="&#x21c4;" 
d="M32 272h371l-58 -57q-9 -10 -9 -23t9 -23q10 -9 23 -9t23 9l112 112q9 10 9 23t-9 23l-112 112q-10 9 -23 9t-23 -9q-9 -10 -9 -23t9 -23l58 -57h-371q-14 0 -23 -9t-9 -23t9 -23t23 -9v0zM480 112h-371l58 57q9 10 9 23t-9 23q-10 9 -23 9t-23 -9l-112 -112
q-9 -10 -9 -23t9 -23l112 -112q10 -9 23 -9t23 9q9 10 9 23t-9 23l-58 57h371q14 0 23 9t9 23t-9 23t-23 9v0z" />
    <glyph glyph-name="arrow-left-to-line" unicode="&#xf33e;" horiz-adv-x="448" 
d="M311 343q-10 9 -23 9v0q-13 0 -23 -9l-128 -128q-9 -10 -9 -23t9 -23l128 -128q10 -9 23 -9t23 9q9 10 9 23t-9 23l-74 73h179q14 0 23 9t9 23t-9 23t-23 9h-179l74 73q9 10 9 23t-9 23v0zM32 384q-14 0 -23 -9v0q-9 -9 -9 -23v-320q0 -14 9 -23t23 -9t23 9t9 23v320
q0 14 -9 23t-23 9v0z" />
    <glyph glyph-name="arrow-left-to-line" unicode="&#x21e4;" horiz-adv-x="448" 
d="M311 343q-10 9 -23 9v0q-13 0 -23 -9l-128 -128q-9 -10 -9 -23t9 -23l128 -128q10 -9 23 -9t23 9q9 10 9 23t-9 23l-74 73h179q14 0 23 9t9 23t-9 23t-23 9h-179l74 73q9 10 9 23t-9 23v0zM32 384q-14 0 -23 -9v0q-9 -9 -9 -23v-320q0 -14 9 -23t23 -9t23 9t9 23v320
q0 14 -9 23t-23 9v0z" />
    <glyph glyph-name="arrow-right-to-line" unicode="&#xf340;" horiz-adv-x="448" 
d="M137 297l74 -73h-179q-14 0 -23 -9t-9 -23t9 -23t23 -9h179l-74 -73q-9 -10 -9 -23t9 -23q10 -9 23 -9t23 9l128 128q9 10 9 23t-9 23l-128 128q-10 9 -23 9t-23 -9q-9 -10 -9 -23t9 -23v0zM384 352v-320q0 -14 9 -23t23 -9t23 9t9 23v320q0 14 -9 23t-23 9t-23 -9
t-9 -23v0z" />
    <glyph glyph-name="arrow-right-to-line" unicode="&#x21e5;" horiz-adv-x="448" 
d="M137 297l74 -73h-179q-14 0 -23 -9t-9 -23t9 -23t23 -9h179l-74 -73q-9 -10 -9 -23t9 -23q10 -9 23 -9t23 9l128 128q9 10 9 23t-9 23l-128 128q-10 9 -23 9t-23 -9q-9 -10 -9 -23t9 -23v0zM384 352v-320q0 -14 9 -23t23 -9t23 9t9 23v320q0 14 -9 23t-23 9t-23 -9
t-9 -23v0z" />
    <glyph glyph-name="sigma" unicode="&#xf68b;" horiz-adv-x="384" 
d="M352 -32h-320q-21 1 -30 20q-7 19 7 35l170 169l-170 169q-14 16 -7 35q9 19 30 20h320q14 0 23 -9t9 -23v-64q0 -14 -9 -22q-9 -9 -23 -9t-23 9q-9 8 -9 22v32h-211l138 -137q9 -10 9 -23t-9 -23l-138 -137h211v32q0 14 9 23t22 9t23 -9t10 -23v-64q0 -14 -9 -23t-23 -9
v0z" />
    <glyph glyph-name="sigma" unicode="&#x2211;" horiz-adv-x="384" 
d="M352 -32h-320q-21 1 -30 20q-7 19 7 35l170 169l-170 169q-14 16 -7 35q9 19 30 20h320q14 0 23 -9t9 -23v-64q0 -14 -9 -22q-9 -9 -23 -9t-23 9q-9 8 -9 22v32h-211l138 -137q9 -10 9 -23t-9 -23l-138 -137h211v32q0 14 9 23t22 9t23 -9t10 -23v-64q0 -14 -9 -23t-23 -9
v0z" />
    <glyph glyph-name="square-root" unicode="&#xf697;" horiz-adv-x="576" 
d="M207 -64q-19 1 -29 18l-102 206h-44q-14 0 -23 9t-9 23t9 22q9 9 23 9h64q19 -1 29 -18l73 -146l91 364q7 24 31 25h224q14 0 23 -9t9 -22t-9 -22q-9 -10 -23 -10h-199l-106 -425q-6 -20 -28 -24q-1 1 -2 0h-2v0z" />
    <glyph glyph-name="square-root" unicode="&#x221a;" horiz-adv-x="576" 
d="M207 -64q-19 1 -29 18l-102 206h-44q-14 0 -23 9t-9 23t9 22q9 9 23 9h64q19 -1 29 -18l73 -146l91 364q7 24 31 25h224q14 0 23 -9t9 -22t-9 -22q-9 -10 -23 -10h-199l-106 -425q-6 -20 -28 -24q-1 1 -2 0h-2v0z" />
    <glyph glyph-name="infinity" unicode="&#xf534;" horiz-adv-x="640" 
d="M495 352q-60 -1 -103 -43l-72 -72l-72 72q-43 42 -103 43q-61 -2 -102 -43t-43 -102v-30q2 -61 43 -102t102 -43q60 1 103 43l72 72l72 -73q43 -41 103 -42q61 2 102 43t43 102v30q-2 61 -43 102t-102 43v0zM203 120q-24 -24 -58 -24q-34 1 -57 24t-24 57v30q1 34 24 57
t57 24q34 0 58 -24l72 -72l-72 -72v0zM576 177q-1 -34 -24 -57v0q-23 -23 -57 -24q-34 0 -58 24l-72 72l72 72q24 24 58 24q34 -1 57 -24t24 -57v-30v0z" />
    <glyph glyph-name="infinity" unicode="&#x267e;" horiz-adv-x="640" 
d="M495 352q-60 -1 -103 -43l-72 -72l-72 72q-43 42 -103 43q-61 -2 -102 -43t-43 -102v-30q2 -61 43 -102t102 -43q60 1 103 43l72 72l72 -73q43 -41 103 -42q61 2 102 43t43 102v30q-2 61 -43 102t-102 43v0zM203 120q-24 -24 -58 -24q-34 1 -57 24t-24 57v30q1 34 24 57
t57 24q34 0 58 -24l72 -72l-72 -72v0zM576 177q-1 -34 -24 -57v0q-23 -23 -57 -24q-34 0 -58 24l-72 72l72 72q24 24 58 24q34 -1 57 -24t24 -57v-30v0z" />
    <glyph glyph-name="infinity" unicode="&#x221e;" horiz-adv-x="640" 
d="M495 352q-60 -1 -103 -43l-72 -72l-72 72q-43 42 -103 43q-61 -2 -102 -43t-43 -102v-30q2 -61 43 -102t102 -43q60 1 103 43l72 72l72 -73q43 -41 103 -42q61 2 102 43t43 102v30q-2 61 -43 102t-102 43v0zM203 120q-24 -24 -58 -24q-34 1 -57 24t-24 57v30q1 34 24 57
t57 24q34 0 58 -24l72 -72l-72 -72v0zM576 177q-1 -34 -24 -57v0q-23 -23 -57 -24q-34 0 -58 24l-72 72l72 72q24 24 58 24q34 -1 57 -24t24 -57v-30v0z" />
    <glyph glyph-name="wave-sine" unicode="&#xf899;" horiz-adv-x="640" 
d="M639 151q-3 -12 -22 -56v0q-20 -43 -58 -84v0q-37 -40 -96 -43q-56 3 -94 49q-37 45 -56 96q-20 50 -24 69q-1 1 -1 2q-7 29 -23 68t-39 69q-23 29 -50 31q-30 -2 -53 -28q-24 -26 -39 -58q-16 -32 -21 -51q-5 -13 -16 -19t-24 -3q-13 5 -19 16t-3 24q3 12 22 56
q20 43 57 84q38 40 96 43q44 -1 76 -31q32 -29 54 -69q21 -40 32 -73q11 -34 13 -43q7 -29 24 -68q16 -39 39 -68q23 -30 49 -32q30 2 53 28q24 26 39 58q16 32 21 51q5 13 16 19t24 3q14 -5 20 -16t3 -24v0z" />
    <glyph glyph-name="wave-sine" unicode="&#x223f;" horiz-adv-x="640" 
d="M639 151q-3 -12 -22 -56v0q-20 -43 -58 -84v0q-37 -40 -96 -43q-56 3 -94 49q-37 45 -56 96q-20 50 -24 69q-1 1 -1 2q-7 29 -23 68t-39 69q-23 29 -50 31q-30 -2 -53 -28q-24 -26 -39 -58q-16 -32 -21 -51q-5 -13 -16 -19t-24 -3q-13 5 -19 16t-3 24q3 12 22 56
q20 43 57 84q38 40 96 43q44 -1 76 -31q32 -29 54 -69q21 -40 32 -73q11 -34 13 -43q7 -29 24 -68q16 -39 39 -68q23 -30 49 -32q30 2 53 28q24 26 39 58q16 32 21 51q5 13 16 19t24 3q14 -5 20 -16t3 -24v0z" />
    <glyph glyph-name="intersection" unicode="&#xf668;" horiz-adv-x="384" 
d="M352 -32q-14 0 -23 9v0q-9 9 -9 23v224q-1 54 -38 90q-36 37 -90 38q-54 -1 -90 -38q-37 -36 -38 -90v-223q0 -14 -9 -23t-23 -9t-23 9t-9 23v223q2 81 56 136q55 54 136 56q81 -2 136 -56q54 -55 56 -136v-224q0 -14 -9 -23t-23 -9v0z" />
    <glyph glyph-name="intersection" unicode="&#x22c2;" horiz-adv-x="384" 
d="M352 -32q-14 0 -23 9v0q-9 9 -9 23v224q-1 54 -38 90q-36 37 -90 38q-54 -1 -90 -38q-37 -36 -38 -90v-223q0 -14 -9 -23t-23 -9t-23 9t-9 23v223q2 81 56 136q55 54 136 56q81 -2 136 -56q54 -55 56 -136v-224q0 -14 -9 -23t-23 -9v0z" />
    <glyph glyph-name="union" unicode="&#xf6a2;" horiz-adv-x="384" 
d="M192 -32q-81 2 -136 56v0q-54 54 -56 135v225q0 14 9 23t23 9t23 -9t9 -23v-223q1 -54 38 -91q36 -36 90 -37q54 1 90 37q37 37 38 91v223q0 14 9 23t23 9t23 -9t9 -23v-223q-2 -82 -56 -137q-55 -54 -136 -56v0z" />
    <glyph glyph-name="union" unicode="&#x22c3;" horiz-adv-x="384" 
d="M192 -32q-81 2 -136 56v0q-54 54 -56 135v225q0 14 9 23t23 9t23 -9t9 -23v-223q1 -54 38 -91q36 -36 90 -37q54 1 90 37q37 37 38 91v223q0 14 9 23t23 9t23 -9t9 -23v-223q-2 -82 -56 -137q-55 -54 -136 -56v0z" />
    <glyph glyph-name="angle-up" unicode="&#xf106;" horiz-adv-x="384" 
d="M352 96q-13 0 -23 9l-137 138l-137 -138q-10 -9 -23 -9t-23 9q-9 10 -9 23t9 23l160 160q10 9 23 9t23 -9l160 -160q9 -10 9 -23t-9 -23q-10 -9 -23 -9v0z" />
    <glyph glyph-name="angle-up" unicode="&#x2303;" horiz-adv-x="384" 
d="M352 96q-13 0 -23 9l-137 138l-137 -138q-10 -9 -23 -9t-23 9q-9 10 -9 23t9 23l160 160q10 9 23 9t23 -9l160 -160q9 -10 9 -23t-9 -23q-10 -9 -23 -9v0z" />
    <glyph glyph-name="angle-down" unicode="&#xf107;" horiz-adv-x="384" 
d="M192 64q-13 0 -23 9l-160 160q-9 10 -9 23t9 23q10 9 23 9t23 -9l137 -138l137 138q10 9 23 9t23 -9q9 -10 9 -23t-9 -23l-160 -160q-10 -9 -23 -9v0z" />
    <glyph glyph-name="angle-down" unicode="&#x2304;" horiz-adv-x="384" 
d="M192 64q-13 0 -23 9l-160 160q-9 10 -9 23t9 23q10 9 23 9t23 -9l137 -138l137 138q10 9 23 9t23 -9q9 -10 9 -23t-9 -23l-160 -160q-10 -9 -23 -9v0z" />
    <glyph glyph-name="watch" unicode="&#xf2e1;" horiz-adv-x="384" 
d="M320 335v65q-1 20 -14 34q-14 13 -34 14h-160q-20 -1 -34 -14q-13 -14 -14 -34v-65q-30 -27 -47 -63q-17 -37 -17 -80t17 -80q17 -36 47 -63v-65q1 -20 14 -34q14 -13 34 -14h160q20 1 34 14q13 14 14 34v65q30 27 47 63q17 37 17 80t-17 80q-17 36 -47 63v0zM192 48
q-61 2 -102 42v0q-40 41 -42 102q2 61 42 102q41 40 102 42q61 -2 102 -42q40 -41 42 -102q-2 -61 -42 -102q-41 -40 -102 -42v0zM216 211v61q-2 22 -24 24q-22 -2 -24 -24v-72q0 -11 9 -18l48 -40q7 -6 15 -6q11 0 18 9q13 18 -3 33l-39 33v0z" />
    <glyph glyph-name="watch" unicode="&#x231a;" horiz-adv-x="384" 
d="M320 335v65q-1 20 -14 34q-14 13 -34 14h-160q-20 -1 -34 -14q-13 -14 -14 -34v-65q-30 -27 -47 -63q-17 -37 -17 -80t17 -80q17 -36 47 -63v-65q1 -20 14 -34q14 -13 34 -14h160q20 1 34 14q13 14 14 34v65q30 27 47 63q17 37 17 80t-17 80q-17 36 -47 63v0zM192 48
q-61 2 -102 42v0q-40 41 -42 102q2 61 42 102q41 40 102 42q61 -2 102 -42q40 -41 42 -102q-2 -61 -42 -102q-41 -40 -102 -42v0zM216 211v61q-2 22 -24 24q-22 -2 -24 -24v-72q0 -11 9 -18l48 -40q7 -6 15 -6q11 0 18 9q13 18 -3 33l-39 33v0z" />
    <glyph glyph-name="hourglass-end" unicode="&#xf253;" horiz-adv-x="384" 
d="M352 0v21q0 43 -26 77l-70 94l70 94q26 35 26 77v21q14 0 23 9t9 23t-9 23t-23 9h-320q-14 0 -23 -9t-9 -23t9 -23t23 -9v-21q0 -43 26 -77l70 -94l-70 -94q-26 -33 -26 -77v-21q-14 0 -23 -9t-9 -23t9 -23t23 -9h320q14 0 23 9t9 23t-9 23t-23 9v0zM109 324
q-13 17 -13 39v21h192v-21q0 -22 -13 -39l-83 -111l-83 111v0z" />
    <glyph glyph-name="hourglass-end" unicode="&#x231b;" horiz-adv-x="384" 
d="M352 0v21q0 43 -26 77l-70 94l70 94q26 35 26 77v21q14 0 23 9t9 23t-9 23t-23 9h-320q-14 0 -23 -9t-9 -23t9 -23t23 -9v-21q0 -43 26 -77l70 -94l-70 -94q-26 -33 -26 -77v-21q-14 0 -23 -9t-9 -23t9 -23t23 -9h320q14 0 23 9t9 23t-9 23t-23 9v0zM109 324
q-13 17 -13 39v21h192v-21q0 -22 -13 -39l-83 -111l-83 111v0z" />
    <glyph glyph-name="keyboard" unicode="&#xf11c;" horiz-adv-x="576" 
d="M512 0h-448q-27 1 -45 19t-19 45v256q1 27 19 45t45 19h448q27 -1 45 -19t19 -45v-256q-1 -27 -19 -45t-45 -19v0zM128 268v40q-1 11 -12 12h-40q-11 -1 -12 -12v-40q1 -11 12 -12h40q11 1 12 12v0zM224 268v40q-1 11 -12 12h-40q-11 -1 -12 -12v-40q1 -11 12 -12h40
q11 1 12 12v0zM320 268v40q-1 11 -12 12h-40q-11 -1 -12 -12v-40q1 -11 12 -12h40q11 1 12 12v0zM416 268v40q-1 11 -12 12h-40q-11 -1 -12 -12v-40q1 -11 12 -12h40q11 1 12 12v0zM512 268v40q-1 11 -12 12h-40q-11 -1 -12 -12v-40q1 -11 12 -12h40q11 1 12 12v0zM128 172
v40q-1 11 -12 12h-40q-11 -1 -12 -12v-40q1 -11 12 -12h40q11 1 12 12v0zM224 172v40q-1 11 -12 12h-40q-11 -1 -12 -12v-40q1 -11 12 -12h40q11 1 12 12v0zM320 172v40q-1 11 -12 12h-40q-11 -1 -12 -12v-40q1 -11 12 -12h40q11 1 12 12v0zM416 172v40q-1 11 -12 12h-40
q-11 -1 -12 -12v-40q1 -11 12 -12h40q11 1 12 12v0zM512 172v40q-1 11 -12 12h-40q-11 -1 -12 -12v-40q1 -11 12 -12h40q11 1 12 12v0zM128 76v40q-1 11 -12 12h-40q-11 -1 -12 -12v-40q1 -11 12 -12h40q11 1 12 12v0zM416 76v40q-1 11 -12 12h-232q-11 -1 -12 -12v-40
q1 -11 12 -12h232q11 1 12 12v0zM512 76v40q-1 11 -12 12h-40q-11 -1 -12 -12v-40q1 -11 12 -12h40q11 1 12 12v0z" />
    <glyph glyph-name="keyboard" unicode="&#x2328;" horiz-adv-x="576" 
d="M512 0h-448q-27 1 -45 19t-19 45v256q1 27 19 45t45 19h448q27 -1 45 -19t19 -45v-256q-1 -27 -19 -45t-45 -19v0zM128 268v40q-1 11 -12 12h-40q-11 -1 -12 -12v-40q1 -11 12 -12h40q11 1 12 12v0zM224 268v40q-1 11 -12 12h-40q-11 -1 -12 -12v-40q1 -11 12 -12h40
q11 1 12 12v0zM320 268v40q-1 11 -12 12h-40q-11 -1 -12 -12v-40q1 -11 12 -12h40q11 1 12 12v0zM416 268v40q-1 11 -12 12h-40q-11 -1 -12 -12v-40q1 -11 12 -12h40q11 1 12 12v0zM512 268v40q-1 11 -12 12h-40q-11 -1 -12 -12v-40q1 -11 12 -12h40q11 1 12 12v0zM128 172
v40q-1 11 -12 12h-40q-11 -1 -12 -12v-40q1 -11 12 -12h40q11 1 12 12v0zM224 172v40q-1 11 -12 12h-40q-11 -1 -12 -12v-40q1 -11 12 -12h40q11 1 12 12v0zM320 172v40q-1 11 -12 12h-40q-11 -1 -12 -12v-40q1 -11 12 -12h40q11 1 12 12v0zM416 172v40q-1 11 -12 12h-40
q-11 -1 -12 -12v-40q1 -11 12 -12h40q11 1 12 12v0zM512 172v40q-1 11 -12 12h-40q-11 -1 -12 -12v-40q1 -11 12 -12h40q11 1 12 12v0zM128 76v40q-1 11 -12 12h-40q-11 -1 -12 -12v-40q1 -11 12 -12h40q11 1 12 12v0zM416 76v40q-1 11 -12 12h-232q-11 -1 -12 -12v-40
q1 -11 12 -12h232q11 1 12 12v0zM512 76v40q-1 11 -12 12h-40q-11 -1 -12 -12v-40q1 -11 12 -12h40q11 1 12 12v0z" />
    <glyph glyph-name="chevron-left" unicode="&#xf053;" horiz-adv-x="320" 
d="M224 -32q-13 0 -23 9l-192 192q-9 10 -9 23t9 23l192 192q10 9 23 9t23 -9q9 -10 9 -23t-9 -23l-170 -169l170 -169q9 -10 9 -23t-9 -23q-10 -9 -23 -9v0z" />
    <glyph glyph-name="chevron-left" unicode="&#x2329;" horiz-adv-x="320" 
d="M224 -32q-13 0 -23 9l-192 192q-9 10 -9 23t9 23l192 192q10 9 23 9t23 -9q9 -10 9 -23t-9 -23l-170 -169l170 -169q9 -10 9 -23t-9 -23q-10 -9 -23 -9v0z" />
    <glyph glyph-name="chevron-right" unicode="&#xf054;" horiz-adv-x="320" 
d="M96 -32q-13 0 -23 9q-9 10 -9 23t9 23l170 169l-170 169q-9 10 -9 23t9 23q10 9 23 9t23 -9l192 -192q9 -10 9 -23t-9 -23l-192 -192q-10 -9 -23 -9v0z" />
    <glyph glyph-name="chevron-right" unicode="&#x232a;" horiz-adv-x="320" 
d="M96 -32q-13 0 -23 9q-9 10 -9 23t9 23l170 169l-170 169q-9 10 -9 23t9 23q10 9 23 9t23 -9l192 -192q9 -10 9 -23t-9 -23l-192 -192q-10 -9 -23 -9v0z" />
    <glyph glyph-name="delete-left" unicode="&#xf55a;" horiz-adv-x="576" 
d="M512 384h-307q-26 0 -45 -19l-151 -150q-9 -10 -9 -23t9 -23l151 -150q19 -19 45 -19h307q27 1 45 19t19 45v256q-1 27 -19 45t-45 19v0zM432 145q14 -17 0 -34q-17 -14 -34 0l-46 47l-47 -47q-17 -14 -34 0q-14 17 0 34l47 47l-47 48q-14 17 0 34q17 14 34 0l47 -48
l47 47q17 14 34 0q14 -17 0 -34l-47 -47l46 -47v0z" />
    <glyph glyph-name="delete-left" unicode="&#x232b;" horiz-adv-x="576" 
d="M512 384h-307q-26 0 -45 -19l-151 -150q-9 -10 -9 -23t9 -23l151 -150q19 -19 45 -19h307q27 1 45 19t19 45v256q-1 27 -19 45t-45 19v0zM432 145q14 -17 0 -34q-17 -14 -34 0l-46 47l-47 -47q-17 -14 -34 0q-14 17 0 34l47 47l-47 48q-14 17 0 34q17 14 34 0l47 -48
l47 47q17 14 34 0q14 -17 0 -34l-47 -47l46 -47v0z" />
    <glyph glyph-name="print" unicode="&#x1f5b6;" 
d="M448 256h-384q-27 -1 -45 -19t-19 -45v-96q0 -14 9 -23t23 -9h32v-96q0 -14 9 -23t23 -9h320q14 0 23 9t9 23v96h32q14 0 23 9t9 23v96q-1 27 -19 45t-45 19v0zM384 0h-256v96h256v-96v0zM432 152q-22 2 -24 24q2 22 24 24q22 -2 24 -24q-2 -22 -24 -24v0zM128 384h230
l26 -27v-69h64v83q0 13 -9 22l-46 46q-9 9 -22 9h-275q-14 0 -23 -9t-9 -23v-128h64v96v0z" />
    <glyph glyph-name="print" unicode="&#x1f5a8;" 
d="M448 256h-384q-27 -1 -45 -19t-19 -45v-96q0 -14 9 -23t23 -9h32v-96q0 -14 9 -23t23 -9h320q14 0 23 9t9 23v96h32q14 0 23 9t9 23v96q-1 27 -19 45t-45 19v0zM384 0h-256v96h256v-96v0zM432 152q-22 2 -24 24q2 22 24 24q22 -2 24 -24q-2 -22 -24 -24v0zM128 384h230
l26 -27v-69h64v83q0 13 -9 22l-46 46q-9 9 -22 9h-275q-14 0 -23 -9t-9 -23v-128h64v96v0z" />
    <glyph glyph-name="print" unicode="&#xf02f;" 
d="M448 256h-384q-27 -1 -45 -19t-19 -45v-96q0 -14 9 -23t23 -9h32v-96q0 -14 9 -23t23 -9h320q14 0 23 9t9 23v96h32q14 0 23 9t9 23v96q-1 27 -19 45t-45 19v0zM384 0h-256v96h256v-96v0zM432 152q-22 2 -24 24q2 22 24 24q22 -2 24 -24q-2 -22 -24 -24v0zM128 384h230
l26 -27v-69h64v83q0 13 -9 22l-46 46q-9 9 -22 9h-275q-14 0 -23 -9t-9 -23v-128h64v96v0z" />
    <glyph glyph-name="print" unicode="&#x2399;" 
d="M448 256h-384q-27 -1 -45 -19t-19 -45v-96q0 -14 9 -23t23 -9h32v-96q0 -14 9 -23t23 -9h320q14 0 23 9t9 23v96h32q14 0 23 9t9 23v96q-1 27 -19 45t-45 19v0zM384 0h-256v96h256v-96v0zM432 152q-22 2 -24 24q2 22 24 24q22 -2 24 -24q-2 -22 -24 -24v0zM128 384h230
l26 -27v-69h64v83q0 13 -9 22l-46 46q-9 9 -22 9h-275q-14 0 -23 -9t-9 -23v-128h64v96v0z" />
    <glyph glyph-name="eject" unicode="&#xf052;" horiz-adv-x="448" 
d="M48 129h351q32 2 44 29q12 26 -9 51l-175 192q-15 16 -35 16t-35 -16l-176 -193q-21 -25 -9 -51t44 -28v0zM399 64h-351q-20 -1 -34 -14q-13 -14 -14 -34q1 -20 14 -34q14 -13 34 -14h351q20 1 34 14q14 14 14 34t-14 34q-13 13 -34 14v0z" />
    <glyph glyph-name="eject" unicode="&#x23cf;" horiz-adv-x="448" 
d="M48 129h351q32 2 44 29q12 26 -9 51l-175 192q-15 16 -35 16t-35 -16l-176 -193q-21 -25 -9 -51t44 -28v0zM399 64h-351q-20 -1 -34 -14q-13 -14 -14 -34q1 -20 14 -34q14 -13 34 -14h351q20 1 34 14q14 14 14 34t-14 34q-13 13 -34 14v0z" />
    <glyph glyph-name="forward" unicode="&#xf04e;" 
d="M53 7l171 143v84l-171 143q-17 12 -34 4q-18 -8 -19 -29v-320q1 -21 19 -29q17 -8 34 4v0zM309 7l192 159q11 11 11 25t-11 25l-192 159q-17 12 -34 4q-18 -8 -19 -29v-320q1 -20 19 -27q17 -8 34 4v0z" />
    <glyph glyph-name="forward" unicode="&#x23e9;" 
d="M53 7l171 143v84l-171 143q-17 12 -34 4q-18 -8 -19 -29v-320q1 -21 19 -29q17 -8 34 4v0zM309 7l192 159q11 11 11 25t-11 25l-192 159q-17 12 -34 4q-18 -8 -19 -29v-320q1 -20 19 -27q17 -8 34 4v0z" />
    <glyph glyph-name="backward" unicode="&#xf04a;" 
d="M460 377l-172 -143v-84l172 -143q16 -12 33 -4q18 8 19 30v319q-1 21 -19 29q-17 8 -33 -4v0zM204 377l-193 -160q-11 -11 -11 -25t11 -25l192 -159q17 -12 34 -4q18 8 19 29v320q-2 20 -19 28t-33 -4v0z" />
    <glyph glyph-name="backward" unicode="&#x23ea;" 
d="M460 377l-172 -143v-84l172 -143q16 -12 33 -4q18 8 19 30v319q-1 21 -19 29q-17 8 -33 -4v0zM204 377l-193 -160q-11 -11 -11 -25t11 -25l192 -159q17 -12 34 -4q18 8 19 29v320q-2 20 -19 28t-33 -4v0z" />
    <glyph glyph-name="forward-fast" unicode="&#xf050;" 
d="M512 352v-320q0 -13 -9 -22t-22 -9q-14 0 -24 9q-9 9 -9 23v131l-171 -157q-17 -12 -34 -4q-18 8 -19 30v131l-171 -157q-17 -12 -34 -4q-18 8 -19 30v319q1 21 19 29q17 8 34 -4l171 -156v131q1 21 19 29q17 8 34 -4l171 -156v131q0 14 9 22q9 9 22 9q14 0 24 -9
q9 -8 9 -22v0z" />
    <glyph glyph-name="forward-fast" unicode="&#x23ed;" 
d="M512 352v-320q0 -13 -9 -22t-22 -9q-14 0 -24 9q-9 9 -9 23v131l-171 -157q-17 -12 -34 -4q-18 8 -19 30v131l-171 -157q-17 -12 -34 -4q-18 8 -19 30v319q1 21 19 29q17 8 34 -4l171 -156v131q1 21 19 29q17 8 34 -4l171 -156v131q0 14 9 22q9 9 22 9q14 0 24 -9
q9 -8 9 -22v0z" />
    <glyph glyph-name="backward-fast" unicode="&#xf049;" 
d="M0 33v319q0 14 9 22q9 9 22 9q14 0 24 -9q9 -8 9 -22v-132l172 157q16 12 33 4q18 -8 19 -29v-132l172 157q16 12 33 4q18 -8 19 -29v-320q-1 -21 -19 -29q-17 -8 -33 4l-172 156v-131q-1 -21 -19 -29q-17 -8 -33 4l-172 156v-131q0 -13 -9 -22t-22 -9q-14 0 -24 9
q-9 9 -9 23v0z" />
    <glyph glyph-name="backward-fast" unicode="&#x23ee;" 
d="M0 33v319q0 14 9 22q9 9 22 9q14 0 24 -9q9 -8 9 -22v-132l172 157q16 12 33 4q18 -8 19 -29v-132l172 157q16 12 33 4q18 -8 19 -29v-320q-1 -21 -19 -29q-17 -8 -33 4l-172 156v-131q-1 -21 -19 -29q-17 -8 -33 4l-172 156v-131q0 -13 -9 -22t-22 -9q-14 0 -24 9
q-9 9 -9 23v0z" />
    <glyph glyph-name="alarm-clock" unicode="&#xf34e;" 
d="M161 422l-146 -121q-15 22 -15 51q1 41 28 68t68 28q39 -1 65 -26v0zM415 448q-38 -1 -65 -26l146 -121q15 22 15 51q-1 41 -28 68t-68 28v0zM479 160q-1 -77 -45 -133l36 -36q10 -10 10 -23t-9 -23q-10 -9 -23 -9t-23 9l-35 36q-57 -44 -134 -45q-77 1 -133 45l-36 -36
q-10 -9 -24 -9q-13 0 -23 9q-8 10 -8 24q0 13 9 23l36 35q-44 56 -45 133q1 63 31 113q29 50 80 80q50 29 113 30q65 0 115 -31q50 -30 79 -81q29 -50 29 -111v0zM344 96q0 12 -10 19l-54 41v108q-2 22 -24 24q-22 -2 -24 -24v-120q0 -12 10 -19l64 -48q6 -5 13 -5
q23 2 25 24v0z" />
    <glyph glyph-name="alarm-clock" unicode="&#x23f0;" 
d="M161 422l-146 -121q-15 22 -15 51q1 41 28 68t68 28q39 -1 65 -26v0zM415 448q-38 -1 -65 -26l146 -121q15 22 15 51q-1 41 -28 68t-68 28v0zM479 160q-1 -77 -45 -133l36 -36q10 -10 10 -23t-9 -23q-10 -9 -23 -9t-23 9l-35 36q-57 -44 -134 -45q-77 1 -133 45l-36 -36
q-10 -9 -24 -9q-13 0 -23 9q-8 10 -8 24q0 13 9 23l36 35q-44 56 -45 133q1 63 31 113q29 50 80 80q50 29 113 30q65 0 115 -31q50 -30 79 -81q29 -50 29 -111v0zM344 96q0 12 -10 19l-54 41v108q-2 22 -24 24q-22 -2 -24 -24v-120q0 -12 10 -19l64 -48q6 -5 13 -5
q23 2 25 24v0z" />
    <glyph glyph-name="stopwatch" unicode="&#xf2f2;" horiz-adv-x="448" 
d="M399 257l27 27q9 12 0 23l-23 23q-11 9 -23 0l-24 -25q-43 35 -100 44v35h16q14 0 22 9q9 9 9 22t-9 23t-22 10h-96q-14 0 -23 -9t-9 -23t9 -23t23 -9h16v-35q-75 -12 -123 -67q-49 -54 -53 -131q-1 -57 26 -106q27 -48 74 -77t105 -31q59 -1 106 27q48 27 76 75
q28 47 29 105q-1 64 -33 113v0zM248 120q-2 -22 -24 -24q-22 2 -24 24v112q2 22 24 24q22 -2 24 -24v-112v0z" />
    <glyph glyph-name="stopwatch" unicode="&#x23f1;" horiz-adv-x="448" 
d="M399 257l27 27q9 12 0 23l-23 23q-11 9 -23 0l-24 -25q-43 35 -100 44v35h16q14 0 22 9q9 9 9 22t-9 23t-22 10h-96q-14 0 -23 -9t-9 -23t9 -23t23 -9h16v-35q-75 -12 -123 -67q-49 -54 -53 -131q-1 -57 26 -106q27 -48 74 -77t105 -31q59 -1 106 27q48 27 76 75
q28 47 29 105q-1 64 -33 113v0zM248 120q-2 -22 -24 -24q-22 2 -24 24v112q2 22 24 24q22 -2 24 -24v-112v0z" />
    <glyph glyph-name="hourglass" unicode="&#xf254;" horiz-adv-x="384" 
d="M352 0v21q0 43 -26 77l-70 94l70 94q26 35 26 77v21q14 0 23 9t9 23t-9 23t-23 9h-320q-14 0 -23 -9t-9 -23t9 -23t23 -9v-21q0 -43 26 -77l70 -94l-70 -94q-26 -33 -26 -77v-21q-14 0 -23 -9t-9 -23t9 -23t23 -9h320q14 0 23 9t9 23t-9 23t-23 9v0zM111 320l-2 4
q-13 17 -13 39v21h192v-21q0 -22 -13 -39l-3 -4h-161v0zM192 171l80 -107h-161l81 107v0z" />
    <glyph glyph-name="hourglass" unicode="&#xf250;" horiz-adv-x="384" 
d="M352 0v21q0 43 -26 77l-70 94l70 94q26 35 26 77v21q14 0 23 9t9 23t-9 23t-23 9h-320q-14 0 -23 -9t-9 -23t9 -23t23 -9v-21q0 -43 26 -77l70 -94l-70 -94q-26 -33 -26 -77v-21q-14 0 -23 -9t-9 -23t9 -23t23 -9h320q14 0 23 9t9 23t-9 23t-23 9v0zM111 320l-2 4
q-13 17 -13 39v21h192v-21q0 -22 -13 -39l-3 -4h-161v0zM192 171l80 -107h-161l81 107v0z" />
    <glyph glyph-name="hourglass" unicode="&#x23f3;" horiz-adv-x="384" 
d="M352 0v21q0 43 -26 77l-70 94l70 94q26 35 26 77v21q14 0 23 9t9 23t-9 23t-23 9h-320q-14 0 -23 -9t-9 -23t9 -23t23 -9v-21q0 -43 26 -77l70 -94l-70 -94q-26 -33 -26 -77v-21q-14 0 -23 -9t-9 -23t9 -23t23 -9h320q14 0 23 9t9 23t-9 23t-23 9v0zM111 320l-2 4
q-13 17 -13 39v21h192v-21q0 -22 -13 -39l-3 -4h-161v0zM192 171l80 -107h-161l81 107v0z" />
    <glyph glyph-name="pause" unicode="&#xf04c;" horiz-adv-x="320" 
d="M272 385h-32q-20 -1 -34 -14q-13 -13 -14 -33v-288q1 -21 14 -34q14 -14 34 -14l32 -2q20 1 34 14q13 14 14 34v288q-1 20 -14 34q-14 14 -34 15v0zM80 385h-32q-20 -1 -34 -14q-13 -14 -14 -34v-288q1 -21 14 -35q14 -14 34 -14h32q20 1 34 14q13 14 14 34v288
q-1 20 -14 34q-14 14 -34 15v0z" />
    <glyph glyph-name="pause" unicode="&#x23f8;" horiz-adv-x="320" 
d="M272 385h-32q-20 -1 -34 -14q-13 -13 -14 -33v-288q1 -21 14 -34q14 -14 34 -14l32 -2q20 1 34 14q13 14 14 34v288q-1 20 -14 34q-14 14 -34 15v0zM80 385h-32q-20 -1 -34 -14q-13 -14 -14 -34v-288q1 -21 14 -35q14 -14 34 -14h32q20 1 34 14q13 14 14 34v288
q-1 20 -14 34q-14 14 -34 15v0z" />
    <glyph glyph-name="stop" unicode="&#xf04d;" horiz-adv-x="384" 
d="M384 320v-255q-1 -27 -19 -45t-45 -19h-256q-27 1 -45 19t-19 45v255q1 27 19 45t45 19h256q27 -1 45 -19t19 -45v0z" />
    <glyph glyph-name="stop" unicode="&#x23f9;" horiz-adv-x="384" 
d="M384 320v-255q-1 -27 -19 -45t-45 -19h-256q-27 1 -45 19t-19 45v255q1 27 19 45t45 19h256q27 -1 45 -19t19 -45v0z" />
    <glyph glyph-name="power-off" unicode="&#xf011;" 
d="M256 160q14 0 23 9v0q9 9 9 23v224q0 14 -9 23t-23 9t-23 -9t-9 -23v-224q0 -14 9 -23t23 -9v0zM404 381q-11 8 -24 7v0q-13 -2 -21 -12q-8 -11 -7 -24q2 -13 12 -21q33 -26 50 -62q18 -36 18 -77q-2 -75 -52 -124q-49 -50 -124 -52q-75 2 -124 52q-50 49 -52 124
q0 41 18 77q17 36 50 62q10 8 12 21q1 13 -7 24q-8 10 -21 12q-13 1 -24 -7q-44 -35 -68 -84t-24 -105q1 -67 33 -121t86 -86t121 -33q67 1 121 33t86 86t33 121q0 56 -24 105t-68 84v0z" />
    <glyph glyph-name="power-off" unicode="&#x23fb;" 
d="M256 160q14 0 23 9v0q9 9 9 23v224q0 14 -9 23t-23 9t-23 -9t-9 -23v-224q0 -14 9 -23t23 -9v0zM404 381q-11 8 -24 7v0q-13 -2 -21 -12q-8 -11 -7 -24q2 -13 12 -21q33 -26 50 -62q18 -36 18 -77q-2 -75 -52 -124q-49 -50 -124 -52q-75 2 -124 52q-50 49 -52 124
q0 41 18 77q17 36 50 62q10 8 12 21q1 13 -7 24q-8 10 -21 12q-13 1 -24 -7q-44 -35 -68 -84t-24 -105q1 -67 33 -121t86 -86t121 -33q67 1 121 33t86 86t33 121q0 56 -24 105t-68 84v0z" />
    <glyph glyph-name="moon" unicode="&#x1f319;" 
d="M32 192q1 63 31 113v0q29 51 80 80v0q50 30 113 31q9 0 20 -1q12 -1 21 -3q7 -2 8 -8q1 -7 -5 -11q-42 -24 -65 -65q-23 -40 -24 -88q1 -55 30 -98q29 -42 76 -63t103 -11q7 1 10 -5q4 -6 0 -12q-32 -39 -77 -61t-97 -22q-63 1 -113 31q-51 29 -80 80q-30 50 -31 113v0z
" />
    <glyph glyph-name="moon" unicode="&#xf186;" 
d="M32 192q1 63 31 113v0q29 51 80 80v0q50 30 113 31q9 0 20 -1q12 -1 21 -3q7 -2 8 -8q1 -7 -5 -11q-42 -24 -65 -65q-23 -40 -24 -88q1 -55 30 -98q29 -42 76 -63t103 -11q7 1 10 -5q4 -6 0 -12q-32 -39 -77 -61t-97 -22q-63 1 -113 31q-51 29 -80 80q-30 50 -31 113v0z
" />
    <glyph glyph-name="moon" unicode="&#x23fe;" 
d="M32 192q1 63 31 113v0q29 51 80 80v0q50 30 113 31q9 0 20 -1q12 -1 21 -3q7 -2 8 -8q1 -7 -5 -11q-42 -24 -65 -65q-23 -40 -24 -88q1 -55 30 -98q29 -42 76 -63t103 -11q7 1 10 -5q4 -6 0 -12q-32 -39 -77 -61t-97 -22q-63 1 -113 31q-51 29 -80 80q-30 50 -31 113v0z
" />
    <glyph glyph-name="circle-h" unicode="&#xf47e;" 
d="M256 448q-72 -1 -129 -35v0q-58 -34 -92 -92v0q-34 -57 -35 -129q1 -72 35 -129q34 -58 92 -92q57 -34 129 -35q72 1 129 35q58 34 92 92q34 57 35 129q-1 72 -35 129q-34 58 -92 92q-57 34 -129 35v0zM368 88q-2 -22 -24 -24q-22 2 -24 24v80h-128v-80q-2 -22 -24 -24
q-22 2 -24 24v208q2 22 24 24q22 -2 24 -24v-80h128v80q2 22 24 24q22 -2 24 -24v-208v0z" />
    <glyph glyph-name="circle-h" unicode="&#x24bd;" 
d="M256 448q-72 -1 -129 -35v0q-58 -34 -92 -92v0q-34 -57 -35 -129q1 -72 35 -129q34 -58 92 -92q57 -34 129 -35q72 1 129 35q58 34 92 92q34 57 35 129q-1 72 -35 129q-34 58 -92 92q-57 34 -129 35v0zM368 88q-2 -22 -24 -24q-22 2 -24 24v80h-128v-80q-2 -22 -24 -24
q-22 2 -24 24v208q2 22 24 24q22 -2 24 -24v-80h128v80q2 22 24 24q22 -2 24 -24v-208v0z" />
    <glyph glyph-name="square" unicode="&#xf0c8;" horiz-adv-x="448" 
d="M448 353v-320q-1 -27 -19 -45t-45 -19h-320q-27 1 -45 19t-19 45v320q1 27 19 45q18 17 45 18h320q27 0 45 -18t19 -45v0z" />
    <glyph glyph-name="square" unicode="&#xf096;" horiz-adv-x="448" 
d="M448 353v-320q-1 -27 -19 -45t-45 -19h-320q-27 1 -45 19t-19 45v320q1 27 19 45q18 17 45 18h320q27 0 45 -18t19 -45v0z" />
    <glyph glyph-name="square" unicode="&#x25fc;" horiz-adv-x="448" 
d="M448 353v-320q-1 -27 -19 -45t-45 -19h-320q-27 1 -45 19t-19 45v320q1 27 19 45q18 17 45 18h320q27 0 45 -18t19 -45v0z" />
    <glyph glyph-name="square" unicode="&#x25fb;" horiz-adv-x="448" 
d="M448 353v-320q-1 -27 -19 -45t-45 -19h-320q-27 1 -45 19t-19 45v320q1 27 19 45q18 17 45 18h320q27 0 45 -18t19 -45v0z" />
    <glyph glyph-name="square" unicode="&#x25a0;" horiz-adv-x="448" 
d="M448 353v-320q-1 -27 -19 -45t-45 -19h-320q-27 1 -45 19t-19 45v320q1 27 19 45q18 17 45 18h320q27 0 45 -18t19 -45v0z" />
    <glyph glyph-name="rectangle" unicode="&#xf2fa;" 
d="M448 0h-384q-27 1 -45 19t-19 45v256q1 27 19 45q18 17 45 18h384q27 -1 45 -19q18 -17 19 -44v-256q-1 -27 -19 -45t-45 -19v0z" />
    <glyph glyph-name="rectangle" unicode="&#x25ac;" 
d="M448 0h-384q-27 1 -45 19t-19 45v256q1 27 19 45q18 17 45 18h384q27 -1 45 -19q18 -17 19 -44v-256q-1 -27 -19 -45t-45 -19v0z" />
    <glyph glyph-name="triangle" unicode="&#xf2ec;" 
d="M506 31q12 -22 0 -42v0q-11 -20 -36 -21h-427q-26 1 -37 21t1 42l213 364q14 21 37 21t36 -21l213 -364v0z" />
    <glyph glyph-name="triangle" unicode="&#x25b2;" 
d="M506 31q12 -22 0 -42v0q-11 -20 -36 -21h-427q-26 1 -37 21t1 42l213 364q14 21 37 21t36 -21l213 -364v0z" />
    <glyph glyph-name="play" unicode="&#xf04b;" 
d="M176 -32q-21 1 -34 14v0q-14 14 -14 34v352q0 20 14 34q13 13 34 14q13 0 25 -7l288 -176q22 -15 23 -41q-1 -26 -23 -41l-288 -176q-12 -7 -25 -7v0z" />
    <glyph glyph-name="play" unicode="&#x25b6;" 
d="M176 -32q-21 1 -34 14v0q-14 14 -14 34v352q0 20 14 34q13 13 34 14q13 0 25 -7l288 -176q22 -15 23 -41q-1 -26 -23 -41l-288 -176q-12 -7 -25 -7v0z" />
    <glyph glyph-name="circle" unicode="&#x1f7e4;" 
d="M512 192q-1 -72 -35 -129v0q-34 -58 -92 -92v0q-57 -34 -129 -35q-72 1 -129 35q-58 34 -92 92q-34 57 -35 129q1 72 35 129q34 58 92 92q57 34 129 35q72 -1 129 -35q58 -34 92 -92q34 -57 35 -129v0z" />
    <glyph glyph-name="circle" unicode="&#x1f7e3;" 
d="M512 192q-1 -72 -35 -129v0q-34 -58 -92 -92v0q-57 -34 -129 -35q-72 1 -129 35q-58 34 -92 92q-34 57 -35 129q1 72 35 129q34 58 92 92q57 34 129 35q72 -1 129 -35q58 -34 92 -92q34 -57 35 -129v0z" />
    <glyph glyph-name="circle" unicode="&#x1f7e2;" 
d="M512 192q-1 -72 -35 -129v0q-34 -58 -92 -92v0q-57 -34 -129 -35q-72 1 -129 35q-58 34 -92 92q-34 57 -35 129q1 72 35 129q34 58 92 92q57 34 129 35q72 -1 129 -35q58 -34 92 -92q34 -57 35 -129v0z" />
    <glyph glyph-name="circle" unicode="&#x1f7e1;" 
d="M512 192q-1 -72 -35 -129v0q-34 -58 -92 -92v0q-57 -34 -129 -35q-72 1 -129 35q-58 34 -92 92q-34 57 -35 129q1 72 35 129q34 58 92 92q57 34 129 35q72 -1 129 -35q58 -34 92 -92q34 -57 35 -129v0z" />
    <glyph glyph-name="circle" unicode="&#x1f7e0;" 
d="M512 192q-1 -72 -35 -129v0q-34 -58 -92 -92v0q-57 -34 -129 -35q-72 1 -129 35q-58 34 -92 92q-34 57 -35 129q1 72 35 129q34 58 92 92q57 34 129 35q72 -1 129 -35q58 -34 92 -92q34 -57 35 -129v0z" />
    <glyph glyph-name="circle" unicode="&#x1f535;" 
d="M512 192q-1 -72 -35 -129v0q-34 -58 -92 -92v0q-57 -34 -129 -35q-72 1 -129 35q-58 34 -92 92q-34 57 -35 129q1 72 35 129q34 58 92 92q57 34 129 35q72 -1 129 -35q58 -34 92 -92q34 -57 35 -129v0z" />
    <glyph glyph-name="circle" unicode="&#x1f534;" 
d="M512 192q-1 -72 -35 -129v0q-34 -58 -92 -92v0q-57 -34 -129 -35q-72 1 -129 35q-58 34 -92 92q-34 57 -35 129q1 72 35 129q34 58 92 92q57 34 129 35q72 -1 129 -35q58 -34 92 -92q34 -57 35 -129v0z" />
    <glyph glyph-name="circle" unicode="&#xf1db;" 
d="M512 192q-1 -72 -35 -129v0q-34 -58 -92 -92v0q-57 -34 -129 -35q-72 1 -129 35q-58 34 -92 92q-34 57 -35 129q1 72 35 129q34 58 92 92q57 34 129 35q72 -1 129 -35q58 -34 92 -92q34 -57 35 -129v0z" />
    <glyph glyph-name="circle" unicode="&#xf111;" 
d="M512 192q-1 -72 -35 -129v0q-34 -58 -92 -92v0q-57 -34 -129 -35q-72 1 -129 35q-58 34 -92 92q-34 57 -35 129q1 72 35 129q34 58 92 92q57 34 129 35q72 -1 129 -35q58 -34 92 -92q34 -57 35 -129v0z" />
    <glyph glyph-name="circle" unicode="&#xf10c;" 
d="M512 192q-1 -72 -35 -129v0q-34 -58 -92 -92v0q-57 -34 -129 -35q-72 1 -129 35q-58 34 -92 92q-34 57 -35 129q1 72 35 129q34 58 92 92q57 34 129 35q72 -1 129 -35q58 -34 92 -92q34 -57 35 -129v0z" />
    <glyph glyph-name="circle" unicode="&#x2b24;" 
d="M512 192q-1 -72 -35 -129v0q-34 -58 -92 -92v0q-57 -34 -129 -35q-72 1 -129 35q-58 34 -92 92q-34 57 -35 129q1 72 35 129q34 58 92 92q57 34 129 35q72 -1 129 -35q58 -34 92 -92q34 -57 35 -129v0z" />
    <glyph glyph-name="circle" unicode="&#x26ab;" 
d="M512 192q-1 -72 -35 -129v0q-34 -58 -92 -92v0q-57 -34 -129 -35q-72 1 -129 35q-58 34 -92 92q-34 57 -35 129q1 72 35 129q34 58 92 92q57 34 129 35q72 -1 129 -35q58 -34 92 -92q34 -57 35 -129v0z" />
    <glyph glyph-name="circle" unicode="&#x26aa;" 
d="M512 192q-1 -72 -35 -129v0q-34 -58 -92 -92v0q-57 -34 -129 -35q-72 1 -129 35q-58 34 -92 92q-34 57 -35 129q1 72 35 129q34 58 92 92q57 34 129 35q72 -1 129 -35q58 -34 92 -92q34 -57 35 -129v0z" />
    <glyph glyph-name="circle" unicode="&#x25cf;" 
d="M512 192q-1 -72 -35 -129v0q-34 -58 -92 -92v0q-57 -34 -129 -35q-72 1 -129 35q-58 34 -92 92q-34 57 -35 129q1 72 35 129q34 58 92 92q57 34 129 35q72 -1 129 -35q58 -34 92 -92q34 -57 35 -129v0z" />
    <glyph glyph-name="circle-half-stroke" unicode="&#xf042;" 
d="M256 448q-72 -1 -129 -35v0q-58 -34 -92 -92v0q-34 -57 -35 -129q1 -72 35 -129q34 -58 92 -92q57 -34 129 -35q72 1 129 35q58 34 92 92q34 57 35 129q-1 72 -35 129q-34 58 -92 92q-57 34 -129 35v0zM256 0v384q81 -2 136 -56q54 -55 56 -136q-2 -81 -56 -136
q-55 -54 -136 -56v0z" />
    <glyph glyph-name="circle-half-stroke" unicode="&#x25d0;" 
d="M256 448q-72 -1 -129 -35v0q-58 -34 -92 -92v0q-34 -57 -35 -129q1 -72 35 -129q34 -58 92 -92q57 -34 129 -35q72 1 129 35q58 34 92 92q34 57 35 129q-1 72 -35 129q-34 58 -92 92q-57 34 -129 35v0zM256 0v384q81 -2 136 -56q54 -55 56 -136q-2 -81 -56 -136
q-55 -54 -136 -56v0z" />
    <glyph glyph-name="sun" unicode="&#xf185;" 
d="M256 289q-41 -1 -67 -28v0q-27 -27 -28 -67q1 -40 27 -68q27 -28 68 -29q41 1 68 28q26 27 27 67q-1 40 -28 68q-26 28 -67 29v0zM509 101l-63 92l63 91q5 7 2 14q-3 8 -12 10l-109 19l-19 109q-2 9 -9 12q-8 3 -15 -2l-91 -64l-92 63q-7 5 -14 2q-8 -3 -10 -12l-18 -109
l-109 -19q-9 -2 -12 -9t2 -14l63 -92l-63 -91q-5 -7 -2 -15q3 -7 12 -9l109 -19l19 -109q2 -9 9 -12q8 -3 15 2l91 63l91 -63q7 -5 15 -2q7 3 9 12l19 109l109 19q9 2 12 9q3 8 -2 15v0zM256 65q-54 1 -90 37v0q-36 36 -37 90q1 54 37 90t90 37q54 -1 90 -37t37 -90
q-1 -54 -37 -90t-90 -37v0z" />
    <glyph glyph-name="sun" unicode="&#x2600;" 
d="M256 289q-41 -1 -67 -28v0q-27 -27 -28 -67q1 -40 27 -68q27 -28 68 -29q41 1 68 28q26 27 27 67q-1 40 -28 68q-26 28 -67 29v0zM509 101l-63 92l63 91q5 7 2 14q-3 8 -12 10l-109 19l-19 109q-2 9 -9 12q-8 3 -15 -2l-91 -64l-92 63q-7 5 -14 2q-8 -3 -10 -12l-18 -109
l-109 -19q-9 -2 -12 -9t2 -14l63 -92l-63 -91q-5 -7 -2 -15q3 -7 12 -9l109 -19l19 -109q2 -9 9 -12q8 -3 15 2l91 63l91 -63q7 -5 15 -2q7 3 9 12l19 109l109 19q9 2 12 9q3 8 -2 15v0zM256 65q-54 1 -90 37v0q-36 36 -37 90q1 54 37 90t90 37q54 -1 90 -37t37 -90
q-1 -54 -37 -90t-90 -37v0z" />
    <glyph glyph-name="cloud" unicode="&#xf0c2;" horiz-adv-x="640" 
d="M640 96q-1 -54 -37 -91v0q-37 -36 -91 -37h-368q-61 2 -102 42q-40 41 -42 102q1 48 27 84t69 52v1v7q2 68 47 113t113 47q45 -1 81 -22q36 -22 58 -58q23 16 53 16q41 -1 68 -28t28 -68q0 -18 -6 -35q44 -9 73 -44q28 -34 29 -81v0z" />
    <glyph glyph-name="cloud" unicode="&#x2601;" horiz-adv-x="640" 
d="M640 96q-1 -54 -37 -91v0q-37 -36 -91 -37h-368q-61 2 -102 42q-40 41 -42 102q1 48 27 84t69 52v1v7q2 68 47 113t113 47q45 -1 81 -22q36 -22 58 -58q23 16 53 16q41 -1 68 -28t28 -68q0 -18 -6 -35q44 -9 73 -44q28 -34 29 -81v0z" />
    <glyph glyph-name="snowman" unicode="&#xf7d0;" 
d="M511 296l-6 14q-7 13 -21 9l-28 -12v29q-2 15 -17 16h-16q-14 -1 -16 -16v-47v0v-1l-49 -21q-8 19 -22 34q15 22 15 51q-1 41 -28 68t-68 28q-41 -1 -68 -28q-26 -27 -27 -67q0 -29 15 -51q-14 -16 -22 -35l-49 21v1v0v47q-1 15 -16 16h-16q-15 -1 -16 -16v-29l-28 12
q-14 4 -21 -9l-6 -14q-4 -14 9 -21l134 -55q1 -19 8 -36q-54 -46 -56 -120q0 -40 18 -73q17 -33 47 -55h190q30 22 47 55q18 33 18 73q-3 74 -56 120q7 17 7 36l135 55q13 7 9 21v0zM224 353q-14 2 -15 15q2 13 15 15q13 -2 15 -15q-1 -13 -15 -15v0zM256 81q-14 2 -15 15
q1 14 15 17q14 -2 15 -15q-1 -15 -15 -17v0zM256 145q-14 2 -15 15q1 14 15 17q14 -2 15 -15q-1 -15 -15 -17v0zM256 209q-14 2 -15 15q1 14 15 17q14 -2 15 -15q-1 -15 -15 -17v0zM256 296q-1 1 -8 13v0q-6 11 -7 19q1 15 15 16q14 -1 15 -16q-1 -8 -7 -19q-7 -12 -8 -13v0
v0zM287 353q-14 2 -15 15q2 13 15 15q14 -2 15 -15q0 -13 -15 -15v0z" />
    <glyph glyph-name="snowman" unicode="&#x26c4;" 
d="M511 296l-6 14q-7 13 -21 9l-28 -12v29q-2 15 -17 16h-16q-14 -1 -16 -16v-47v0v-1l-49 -21q-8 19 -22 34q15 22 15 51q-1 41 -28 68t-68 28q-41 -1 -68 -28q-26 -27 -27 -67q0 -29 15 -51q-14 -16 -22 -35l-49 21v1v0v47q-1 15 -16 16h-16q-15 -1 -16 -16v-29l-28 12
q-14 4 -21 -9l-6 -14q-4 -14 9 -21l134 -55q1 -19 8 -36q-54 -46 -56 -120q0 -40 18 -73q17 -33 47 -55h190q30 22 47 55q18 33 18 73q-3 74 -56 120q7 17 7 36l135 55q13 7 9 21v0zM224 353q-14 2 -15 15q2 13 15 15q13 -2 15 -15q-1 -13 -15 -15v0zM256 81q-14 2 -15 15
q1 14 15 17q14 -2 15 -15q-1 -15 -15 -17v0zM256 145q-14 2 -15 15q1 14 15 17q14 -2 15 -15q-1 -15 -15 -17v0zM256 209q-14 2 -15 15q1 14 15 17q14 -2 15 -15q-1 -15 -15 -17v0zM256 296q-1 1 -8 13v0q-6 11 -7 19q1 15 15 16q14 -1 15 -16q-1 -8 -7 -19q-7 -12 -8 -13v0
v0zM287 353q-14 2 -15 15q2 13 15 15q14 -2 15 -15q0 -13 -15 -15v0z" />
    <glyph glyph-name="snowman" unicode="&#x2603;" 
d="M511 296l-6 14q-7 13 -21 9l-28 -12v29q-2 15 -17 16h-16q-14 -1 -16 -16v-47v0v-1l-49 -21q-8 19 -22 34q15 22 15 51q-1 41 -28 68t-68 28q-41 -1 -68 -28q-26 -27 -27 -67q0 -29 15 -51q-14 -16 -22 -35l-49 21v1v0v47q-1 15 -16 16h-16q-15 -1 -16 -16v-29l-28 12
q-14 4 -21 -9l-6 -14q-4 -14 9 -21l134 -55q1 -19 8 -36q-54 -46 -56 -120q0 -40 18 -73q17 -33 47 -55h190q30 22 47 55q18 33 18 73q-3 74 -56 120q7 17 7 36l135 55q13 7 9 21v0zM224 353q-14 2 -15 15q2 13 15 15q13 -2 15 -15q-1 -13 -15 -15v0zM256 81q-14 2 -15 15
q1 14 15 17q14 -2 15 -15q-1 -15 -15 -17v0zM256 145q-14 2 -15 15q1 14 15 17q14 -2 15 -15q-1 -15 -15 -17v0zM256 209q-14 2 -15 15q1 14 15 17q14 -2 15 -15q-1 -15 -15 -17v0zM256 296q-1 1 -8 13v0q-6 11 -7 19q1 15 15 16q14 -1 15 -16q-1 -8 -7 -19q-7 -12 -8 -13v0
v0zM287 353q-14 2 -15 15q2 13 15 15q14 -2 15 -15q0 -13 -15 -15v0z" />
    <glyph glyph-name="meteor" unicode="&#xf753;" 
d="M511 427q-9 -30 -25 -80v0q-16 -50 -36 -108l8 -2q6 -2 11 -3q7 -2 10 -9t-1 -14q-11 -22 -33 -61q-22 -38 -51 -80q-28 -42 -58 -73l-2 -2q0 -1 -1 -2q-60 -57 -138 -57t-138 57q-57 60 -57 138t57 138q1 0 2 1l2 2q31 30 73 58q42 29 80 51t60 33q7 4 14 1t9 -10
q1 -5 3 -11q1 -4 3 -8q57 20 107 36t80 25q9 3 16 -4t5 -16v0zM319 129q-1 54 -37 90v0q-37 37 -91 38q-54 -1 -90 -38q-37 -36 -38 -90q1 -55 38 -91q36 -36 90 -37q55 1 91 37t37 91v0zM191 161q0 -14 -9 -23v0q-9 -9 -23 -9t-23 9t-9 23q0 13 9 23q9 9 23 9q13 0 23 -9
q9 -11 9 -23v0zM224 81q-2 -15 -16 -16q-15 1 -16 16q1 15 16 16q14 -2 16 -16v0z" />
    <glyph glyph-name="meteor" unicode="&#x2604;" 
d="M511 427q-9 -30 -25 -80v0q-16 -50 -36 -108l8 -2q6 -2 11 -3q7 -2 10 -9t-1 -14q-11 -22 -33 -61q-22 -38 -51 -80q-28 -42 -58 -73l-2 -2q0 -1 -1 -2q-60 -57 -138 -57t-138 57q-57 60 -57 138t57 138q1 0 2 1l2 2q31 30 73 58q42 29 80 51t60 33q7 4 14 1t9 -10
q1 -5 3 -11q1 -4 3 -8q57 20 107 36t80 25q9 3 16 -4t5 -16v0zM319 129q-1 54 -37 90v0q-37 37 -91 38q-54 -1 -90 -38q-37 -36 -38 -90q1 -55 38 -91q36 -36 90 -37q55 1 91 37t37 91v0zM191 161q0 -14 -9 -23v0q-9 -9 -23 -9t-23 9t-9 23q0 13 9 23q9 9 23 9q13 0 23 -9
q9 -11 9 -23v0zM224 81q-2 -15 -16 -16q-15 1 -16 16q1 15 16 16q14 -2 16 -16v0z" />
    <glyph glyph-name="phone-rotary" unicode="&#xf8d3;" 
d="M370 256q-19 31 -55 32h-118q-36 -1 -55 -32l-106 -185q-4 -7 -4 -16v-55q0 -14 9 -23t23 -9h384q14 0 23 9t9 23v55q0 9 -4 16l-106 185v0zM256 64q-31 1 -51 21v0q-20 20 -21 51q1 31 21 51t51 21q31 -1 51 -21t21 -51q-1 -31 -21 -51t-51 -21v0zM506 325
q-52 44 -117 67v0q-64 24 -133 24t-133 -24q-65 -23 -117 -67q-6 -5 -6 -13v-56q1 -15 16 -16h70q10 0 14 9l28 71q60 25 128 24q68 1 128 -24l28 -71q4 -9 14 -9h70q15 1 16 16v56q0 8 -6 13v0z" />
    <glyph glyph-name="phone-rotary" unicode="&#x260e;" 
d="M370 256q-19 31 -55 32h-118q-36 -1 -55 -32l-106 -185q-4 -7 -4 -16v-55q0 -14 9 -23t23 -9h384q14 0 23 9t9 23v55q0 9 -4 16l-106 185v0zM256 64q-31 1 -51 21v0q-20 20 -21 51q1 31 21 51t51 21q31 -1 51 -21t21 -51q-1 -31 -21 -51t-51 -21v0zM506 325
q-52 44 -117 67v0q-64 24 -133 24t-133 -24q-65 -23 -117 -67q-6 -5 -6 -13v-56q1 -15 16 -16h70q10 0 14 9l28 71q60 25 128 24q68 1 128 -24l28 -71q4 -9 14 -9h70q15 1 16 16v56q0 8 -6 13v0z" />
    <glyph glyph-name="square-check" unicode="&#xf14a;" horiz-adv-x="448" 
d="M384 416h-320q-27 -1 -45 -19t-19 -45v-320q1 -27 19 -45t45 -19h320q27 1 45 19t19 45v320q-1 27 -19 45t-45 19v0zM340 236l-128 -128q-9 -8 -20 -8t-20 8l-64 64q-8 9 -8 20t8 20q9 8 20 8t20 -8l44 -44l108 108q9 8 20 8t20 -8q8 -9 8 -20t-8 -20v0z" />
    <glyph glyph-name="square-check" unicode="&#xf046;" horiz-adv-x="448" 
d="M384 416h-320q-27 -1 -45 -19t-19 -45v-320q1 -27 19 -45t45 -19h320q27 1 45 19t19 45v320q-1 27 -19 45t-45 19v0zM340 236l-128 -128q-9 -8 -20 -8t-20 8l-64 64q-8 9 -8 20t8 20q9 8 20 8t20 -8l44 -44l108 108q9 8 20 8t20 -8q8 -9 8 -20t-8 -20v0z" />
    <glyph glyph-name="square-check" unicode="&#x2705;" horiz-adv-x="448" 
d="M384 416h-320q-27 -1 -45 -19t-19 -45v-320q1 -27 19 -45t45 -19h320q27 1 45 19t19 45v320q-1 27 -19 45t-45 19v0zM340 236l-128 -128q-9 -8 -20 -8t-20 8l-64 64q-8 9 -8 20t8 20q9 8 20 8t20 -8l44 -44l108 108q9 8 20 8t20 -8q8 -9 8 -20t-8 -20v0z" />
    <glyph glyph-name="square-check" unicode="&#x2611;" horiz-adv-x="448" 
d="M384 416h-320q-27 -1 -45 -19t-19 -45v-320q1 -27 19 -45t45 -19h320q27 1 45 19t19 45v320q-1 27 -19 45t-45 19v0zM340 236l-128 -128q-9 -8 -20 -8t-20 8l-64 64q-8 9 -8 20t8 20q9 8 20 8t20 -8l44 -44l108 108q9 8 20 8t20 -8q8 -9 8 -20t-8 -20v0z" />
    <glyph glyph-name="mug-hot" unicode="&#xf7b6;" 
d="M400 256h-368q-14 0 -23 -9t-9 -23v-192q1 -41 28 -68t68 -28h192q41 1 68 28t28 68h16q48 1 79 33q32 31 33 79q-1 48 -33 79q-31 32 -79 33v0zM400 96h-16v96h16q20 -1 34 -14q13 -14 14 -34q-1 -20 -14 -34q-14 -13 -34 -14v0zM108 347q19 -11 20 -35q2 -22 24 -24
q10 0 17 8q7 7 7 16q0 24 -12 44q-11 21 -32 33q-19 12 -20 35q-2 22 -24 24q-22 -2 -24 -24q0 -24 12 -44q11 -21 32 -33v0zM220 347q19 -11 20 -35q2 -22 24 -24q10 0 17 8q7 7 7 16q0 24 -12 44q-11 21 -32 33q-19 12 -20 35q-2 22 -24 24q-22 -2 -24 -24q0 -24 12 -44
q11 -21 32 -33v0z" />
    <glyph glyph-name="mug-hot" unicode="&#x2615;" 
d="M400 256h-368q-14 0 -23 -9t-9 -23v-192q1 -41 28 -68t68 -28h192q41 1 68 28t28 68h16q48 1 79 33q32 31 33 79q-1 48 -33 79q-31 32 -79 33v0zM400 96h-16v96h16q20 -1 34 -14q13 -14 14 -34q-1 -20 -14 -34q-14 -13 -34 -14v0zM108 347q19 -11 20 -35q2 -22 24 -24
q10 0 17 8q7 7 7 16q0 24 -12 44q-11 21 -32 33q-19 12 -20 35q-2 22 -24 24q-22 -2 -24 -24q0 -24 12 -44q11 -21 32 -33v0zM220 347q19 -11 20 -35q2 -22 24 -24q10 0 17 8q7 7 7 16q0 24 -12 44q-11 21 -32 33q-19 12 -20 35q-2 22 -24 24q-22 -2 -24 -24q0 -24 12 -44
q11 -21 32 -33v0z" />
    <glyph glyph-name="hand-point-up" unicode="&#xf0a6;" horiz-adv-x="448" 
d="M288 160q14 0 23 9v0q9 9 9 23v64q0 14 -9 23t-23 9t-23 -9t-9 -23v-64q0 -14 9 -23t23 -9v0zM224 204v84q0 14 -9 23t-23 9t-23 -9t-9 -23v-80h40q13 0 24 -4v0zM128 208v208q0 14 -9 23t-23 9t-23 -9t-9 -23v-209h2q3 1 6 1h56v0zM384 256q-14 0 -23 -9v0q-9 -9 -9 -23
v-64q0 -14 9 -23t23 -9t23 9t9 23v64q0 14 -9 23t-23 9v0zM324 139q-16 -10 -36 -11q-9 0 -17 3q-2 -29 -22 -48q-20 -18 -49 -19h-73q-13 1 -15 16q2 15 15 16h70q13 0 27 9q14 10 15 31q0 17 -11 28q-11 12 -28 12h-128q-17 0 -28 -12q-12 -11 -12 -28v-63q1 -53 43 -85
l36 -26q36 -26 80 -26h89q58 1 96 40q39 38 40 96v33q-14 -9 -32 -9q-21 0 -37 12t-23 31v0z" />
    <glyph glyph-name="hand-point-up" unicode="&#x261d;" horiz-adv-x="448" 
d="M288 160q14 0 23 9v0q9 9 9 23v64q0 14 -9 23t-23 9t-23 -9t-9 -23v-64q0 -14 9 -23t23 -9v0zM224 204v84q0 14 -9 23t-23 9t-23 -9t-9 -23v-80h40q13 0 24 -4v0zM128 208v208q0 14 -9 23t-23 9t-23 -9t-9 -23v-209h2q3 1 6 1h56v0zM384 256q-14 0 -23 -9v0q-9 -9 -9 -23
v-64q0 -14 9 -23t23 -9t23 9t9 23v64q0 14 -9 23t-23 9v0zM324 139q-16 -10 -36 -11q-9 0 -17 3q-2 -29 -22 -48q-20 -18 -49 -19h-73q-13 1 -15 16q2 15 15 16h70q13 0 27 9q14 10 15 31q0 17 -11 28q-11 12 -28 12h-128q-17 0 -28 -12q-12 -11 -12 -28v-63q1 -53 43 -85
l36 -26q36 -26 80 -26h89q58 1 96 40q39 38 40 96v33q-14 -9 -32 -9q-21 0 -37 12t-23 31v0z" />
    <glyph glyph-name="skull-crossbones" unicode="&#x1f571;" horiz-adv-x="448" 
d="M439 -5l-142 69l142 69q13 8 7 22l-14 28q-8 13 -21 7l-187 -90l-187 90q-13 6 -21 -7l-14 -29q-6 -13 7 -21l142 -69l-142 -69q-13 -8 -7 -22l14 -28q8 -13 21 -7l187 90l187 -90q13 -6 21 7l14 28q6 14 -7 22v0zM149 211l-4 -26q-2 -10 2 -17q5 -8 13 -8h126q9 0 14 8
q4 7 3 17l-6 26q32 17 50 45q19 29 19 64q0 54 -40 91q-41 36 -102 37q-61 -1 -102 -37q-40 -36 -42 -90q0 -36 19 -65q19 -28 50 -45v0zM280 336q14 0 23 -9v0q9 -9 9 -23t-9 -23t-23 -9t-23 9t-9 23t9 23t23 9v0zM167 336q14 0 23 -9v0q9 -9 9 -23t-9 -23t-23 -9t-23 9
t-9 23q1 14 10 23t22 9v0z" />
    <glyph glyph-name="skull-crossbones" unicode="&#xf714;" horiz-adv-x="448" 
d="M439 -5l-142 69l142 69q13 8 7 22l-14 28q-8 13 -21 7l-187 -90l-187 90q-13 6 -21 -7l-14 -29q-6 -13 7 -21l142 -69l-142 -69q-13 -8 -7 -22l14 -28q8 -13 21 -7l187 90l187 -90q13 -6 21 7l14 28q6 14 -7 22v0zM149 211l-4 -26q-2 -10 2 -17q5 -8 13 -8h126q9 0 14 8
q4 7 3 17l-6 26q32 17 50 45q19 29 19 64q0 54 -40 91q-41 36 -102 37q-61 -1 -102 -37q-40 -36 -42 -90q0 -36 19 -65q19 -28 50 -45v0zM280 336q14 0 23 -9v0q9 -9 9 -23t-9 -23t-23 -9t-23 9t-9 23t9 23t23 9v0zM167 336q14 0 23 -9v0q9 -9 9 -23t-9 -23t-23 -9t-23 9
t-9 23q1 14 10 23t22 9v0z" />
    <glyph glyph-name="skull-crossbones" unicode="&#x2620;" horiz-adv-x="448" 
d="M439 -5l-142 69l142 69q13 8 7 22l-14 28q-8 13 -21 7l-187 -90l-187 90q-13 6 -21 -7l-14 -29q-6 -13 7 -21l142 -69l-142 -69q-13 -8 -7 -22l14 -28q8 -13 21 -7l187 90l187 -90q13 -6 21 7l14 28q6 14 -7 22v0zM149 211l-4 -26q-2 -10 2 -17q5 -8 13 -8h126q9 0 14 8
q4 7 3 17l-6 26q32 17 50 45q19 29 19 64q0 54 -40 91q-41 36 -102 37q-61 -1 -102 -37q-40 -36 -42 -90q0 -36 19 -65q19 -28 50 -45v0zM280 336q14 0 23 -9v0q9 -9 9 -23t-9 -23t-23 -9t-23 9t-9 23t9 23t23 9v0zM167 336q14 0 23 -9v0q9 -9 9 -23t-9 -23t-23 -9t-23 9
t-9 23q1 14 10 23t22 9v0z" />
    <glyph glyph-name="circle-radiation" unicode="&#xf7ba;" 
d="M226 239l-41 67q-10 13 -24 4q-47 -38 -56 -99q0 -17 16 -19h79q1 31 26 47v0zM256 160q14 0 23 9v0q9 9 9 23t-9 23t-23 9t-23 -9t-9 -23t9 -23t23 -9v0zM286 145q-14 -9 -30 -9q-17 0 -30 9l-41 -67q-7 -15 7 -23q29 -15 64 -15t64 15q14 8 7 23l-41 67v0zM351 310
q-13 9 -24 -4l-41 -67q25 -16 26 -47h79q16 2 16 19q-9 61 -56 99v0zM256 432q-67 -1 -121 -33v0q-54 -32 -86 -86v0q-32 -54 -33 -121q1 -67 33 -121t86 -86t121 -33q67 1 121 33t86 86t33 121q-1 67 -33 121t-86 86t-121 33v0zM256 16q-75 2 -124 52v0q-50 49 -52 124
q2 75 51 124q50 50 125 52q75 -2 125 -52q49 -49 51 -124q-2 -75 -52 -124q-49 -50 -124 -52v0z" />
    <glyph glyph-name="circle-radiation" unicode="&#x2622;" 
d="M226 239l-41 67q-10 13 -24 4q-47 -38 -56 -99q0 -17 16 -19h79q1 31 26 47v0zM256 160q14 0 23 9v0q9 9 9 23t-9 23t-23 9t-23 -9t-9 -23t9 -23t23 -9v0zM286 145q-14 -9 -30 -9q-17 0 -30 9l-41 -67q-7 -15 7 -23q29 -15 64 -15t64 15q14 8 7 23l-41 67v0zM351 310
q-13 9 -24 -4l-41 -67q25 -16 26 -47h79q16 2 16 19q-9 61 -56 99v0zM256 432q-67 -1 -121 -33v0q-54 -32 -86 -86v0q-32 -54 -33 -121q1 -67 33 -121t86 -86t121 -33q67 1 121 33t86 86t33 121q-1 67 -33 121t-86 86t-121 33v0zM256 16q-75 2 -124 52v0q-50 49 -52 124
q2 75 51 124q50 50 125 52q75 -2 125 -52q49 -49 51 -124q-2 -75 -52 -124q-49 -50 -124 -52v0z" />
    <glyph glyph-name="biohazard" unicode="&#xf780;" horiz-adv-x="576" 
d="M576 164q-21 61 -75 93q-26 15 -55 20q10 26 10 56q-1 63 -41 112q-4 5 -10 2q-5 -4 -4 -10q7 -20 7 -38q-1 -52 -35 -87t-85 -36q-51 1 -85 36t-35 87q0 18 7 38q1 6 -4 10q-6 3 -10 -2q-40 -49 -41 -112q1 -30 10 -56q-29 -5 -55 -20q-53 -32 -75 -92q-1 -7 4 -10
q6 -3 10 1q14 17 29 25q45 25 91 13q46 -13 73 -58q24 -45 12 -92q-12 -48 -56 -75q-15 -9 -36 -14q-6 -2 -6 -8t6 -8q62 -11 116 20q27 16 45 40q18 -24 45 -40q54 -31 115 -20q7 2 7 8t-6 8q-21 5 -36 14q-44 27 -56 74q-12 48 12 93q26 45 73 58q46 12 91 -13
q15 -9 29 -25q4 -4 10 -1q5 3 4 9v0zM287 128q-20 0 -34 14v0q-13 13 -14 34q1 20 14 34q14 13 34 14q20 -1 34 -14q14 -14 14 -34t-14 -34q-13 -14 -34 -14v0zM385 70q2 -35 27 -61q36 27 58 67q22 39 25 87q-34 9 -65 -9q-9 -50 -45 -84v0zM253 315q37 10 70 0
q34 16 47 52q-38 17 -82 17t-82 -17q13 -35 47 -52v0zM164 9q25 26 27 62q-36 33 -45 83q-30 18 -65 9q3 -48 25 -87q22 -40 58 -67v0z" />
    <glyph glyph-name="biohazard" unicode="&#x2623;" horiz-adv-x="576" 
d="M576 164q-21 61 -75 93q-26 15 -55 20q10 26 10 56q-1 63 -41 112q-4 5 -10 2q-5 -4 -4 -10q7 -20 7 -38q-1 -52 -35 -87t-85 -36q-51 1 -85 36t-35 87q0 18 7 38q1 6 -4 10q-6 3 -10 -2q-40 -49 -41 -112q1 -30 10 -56q-29 -5 -55 -20q-53 -32 -75 -92q-1 -7 4 -10
q6 -3 10 1q14 17 29 25q45 25 91 13q46 -13 73 -58q24 -45 12 -92q-12 -48 -56 -75q-15 -9 -36 -14q-6 -2 -6 -8t6 -8q62 -11 116 20q27 16 45 40q18 -24 45 -40q54 -31 115 -20q7 2 7 8t-6 8q-21 5 -36 14q-44 27 -56 74q-12 48 12 93q26 45 73 58q46 12 91 -13
q15 -9 29 -25q4 -4 10 -1q5 3 4 9v0zM287 128q-20 0 -34 14v0q-13 13 -14 34q1 20 14 34q14 13 34 14q20 -1 34 -14q14 -14 14 -34t-14 -34q-13 -14 -34 -14v0zM385 70q2 -35 27 -61q36 27 58 67q22 39 25 87q-34 9 -65 -9q-9 -50 -45 -84v0zM253 315q37 10 70 0
q34 16 47 52q-38 17 -82 17t-82 -17q13 -35 47 -52v0zM164 9q25 26 27 62q-36 33 -45 83q-30 18 -65 9q3 -48 25 -87q22 -40 58 -67v0z" />
    <glyph glyph-name="ankh" unicode="&#xf644;" horiz-adv-x="320" 
d="M296 192h-45q17 26 27 55t10 57q-1 67 -37 105q-37 38 -91 39q-54 -1 -91 -39q-36 -38 -37 -105q0 -28 10 -57t27 -55h-45q-22 -2 -24 -24v-32q2 -22 24 -24h96v-152q2 -22 24 -24h32q22 2 24 24v152h96q22 2 24 24v32q-2 22 -24 24v0zM160 368q46 -2 48 -64
q-1 -27 -16 -55t-32 -46q-17 18 -32 46t-16 55q2 62 48 64v0z" />
    <glyph glyph-name="ankh" unicode="&#x2625;" horiz-adv-x="320" 
d="M296 192h-45q17 26 27 55t10 57q-1 67 -37 105q-37 38 -91 39q-54 -1 -91 -39q-36 -38 -37 -105q0 -28 10 -57t27 -55h-45q-22 -2 -24 -24v-32q2 -22 24 -24h96v-152q2 -22 24 -24h32q22 2 24 24v152h96q22 2 24 24v32q-2 22 -24 24v0zM160 368q46 -2 48 -64
q-1 -27 -16 -55t-32 -46q-17 18 -32 46t-16 55q2 62 48 64v0z" />
    <glyph glyph-name="star-and-crescent" unicode="&#xf699;" 
d="M341 -18q-2 0 -4 -1v0h-6q-89 2 -149 62q-59 60 -62 149q3 89 62 149q60 60 149 62h6q2 -1 4 -1q11 1 14 12q2 12 -9 18q-44 16 -90 16q-71 -1 -129 -35t-92 -92t-35 -129q1 -71 35 -129t92 -92t129 -35q46 0 89 16q10 4 11 15q-1 13 -15 15v0zM504 234l-77 11l-34 69
q-3 6 -9 6t-9 -6l-34 -69l-77 -11q-6 -1 -8 -7q-1 -5 3 -10l55 -54l-13 -76q-1 -11 10 -12q2 0 5 2l68 36l68 -36q3 -2 5 -2q10 1 10 12l-13 76l55 54q4 5 2 11q-1 5 -7 6v0z" />
    <glyph glyph-name="star-and-crescent" unicode="&#x262a;" 
d="M341 -18q-2 0 -4 -1v0h-6q-89 2 -149 62q-59 60 -62 149q3 89 62 149q60 60 149 62h6q2 -1 4 -1q11 1 14 12q2 12 -9 18q-44 16 -90 16q-71 -1 -129 -35t-92 -92t-35 -129q1 -71 35 -129t92 -92t129 -35q46 0 89 16q10 4 11 15q-1 13 -15 15v0zM504 234l-77 11l-34 69
q-3 6 -9 6t-9 -6l-34 -69l-77 -11q-6 -1 -8 -7q-1 -5 3 -10l55 -54l-13 -76q-1 -11 10 -12q2 0 5 2l68 36l68 -36q3 -2 5 -2q10 1 10 12l-13 76l55 54q4 5 2 11q-1 5 -7 6v0z" />
    <glyph glyph-name="khanda" unicode="&#xf66d;" horiz-adv-x="576" 
d="M448 383q-11 5 -20 -3q-7 -9 -2 -20q25 -40 26 -87q-1 -41 -19 -75q-19 -35 -53 -57l-76 -54v20l44 36q6 7 3 16l-8 16q26 15 41 40t16 57q-1 31 -15 56q-15 25 -40 40l5 11q4 9 -3 15l-59 54l-59 -53q-8 -7 -4 -16l5 -11q-25 -15 -39 -40q-15 -25 -15 -55q0 -32 16 -57
q15 -25 41 -40l-9 -18q-2 -9 4 -16l43 -36v-20l-76 54q-33 23 -52 57q-18 35 -19 75q0 47 25 87q6 11 -2 19q-9 9 -20 3q-60 -34 -84 -96q-23 -63 2 -133q11 -27 31 -49l56 -65q8 -9 19 -4l80 42l29 -20l-47 -33q-1 0 -2 1h-2q-22 -2 -24 -24q2 -21 24 -23q19 2 23 21l41 28
v-30q-15 -9 -16 -27q0 -14 9 -22q9 -9 22 -9t22 9t9 22q-1 18 -16 27v30l41 -28q4 -19 23 -21q22 2 24 24q-2 22 -24 24q-2 0 -3 -1h-2l-47 33l29 20l80 -42q11 -5 19 4l53 61q28 33 41 75q16 64 -8 120q-25 56 -81 88v0zM352 272q-2 -35 -29 -53l-6 12q-13 38 0 76l8 17
q26 -19 27 -52v0zM224 272q1 33 26 52l8 -17q13 -38 0 -76l-5 -12q-28 18 -29 53v0z" />
    <glyph glyph-name="khanda" unicode="&#x262c;" horiz-adv-x="576" 
d="M448 383q-11 5 -20 -3q-7 -9 -2 -20q25 -40 26 -87q-1 -41 -19 -75q-19 -35 -53 -57l-76 -54v20l44 36q6 7 3 16l-8 16q26 15 41 40t16 57q-1 31 -15 56q-15 25 -40 40l5 11q4 9 -3 15l-59 54l-59 -53q-8 -7 -4 -16l5 -11q-25 -15 -39 -40q-15 -25 -15 -55q0 -32 16 -57
q15 -25 41 -40l-9 -18q-2 -9 4 -16l43 -36v-20l-76 54q-33 23 -52 57q-18 35 -19 75q0 47 25 87q6 11 -2 19q-9 9 -20 3q-60 -34 -84 -96q-23 -63 2 -133q11 -27 31 -49l56 -65q8 -9 19 -4l80 42l29 -20l-47 -33q-1 0 -2 1h-2q-22 -2 -24 -24q2 -21 24 -23q19 2 23 21l41 28
v-30q-15 -9 -16 -27q0 -14 9 -22q9 -9 22 -9t22 9t9 22q-1 18 -16 27v30l41 -28q4 -19 23 -21q22 2 24 24q-2 22 -24 24q-2 0 -3 -1h-2l-47 33l29 20l80 -42q11 -5 19 4l53 61q28 33 41 75q16 64 -8 120q-25 56 -81 88v0zM352 272q-2 -35 -29 -53l-6 12q-13 38 0 76l8 17
q26 -19 27 -52v0zM224 272q1 33 26 52l8 -17q13 -38 0 -76l-5 -12q-28 18 -29 53v0z" />
    <glyph glyph-name="peace" unicode="&#xf67c;" 
d="M256 448q-72 -1 -129 -35v0q-58 -34 -92 -92v0q-34 -57 -35 -129q1 -72 35 -129q34 -58 92 -92q57 -34 129 -35q72 1 129 35q58 34 92 92q34 57 35 129q-1 72 -35 129q-34 58 -92 92q-57 34 -129 35v0zM224 3q-55 10 -96 46l96 76v-122v0zM288 125l96 -76
q-41 -35 -96 -46v122v0zM64 192q2 73 46 124v0q45 52 114 65v-174l-136 -108q-23 42 -24 93v0zM424 99l-136 108v174q70 -13 114 -65q45 -51 46 -124q-1 -51 -24 -93v0z" />
    <glyph glyph-name="peace" unicode="&#x262e;" 
d="M256 448q-72 -1 -129 -35v0q-58 -34 -92 -92v0q-34 -57 -35 -129q1 -72 35 -129q34 -58 92 -92q57 -34 129 -35q72 1 129 35q58 34 92 92q34 57 35 129q-1 72 -35 129q-34 58 -92 92q-57 34 -129 35v0zM224 3q-55 10 -96 46l96 76v-122v0zM288 125l96 -76
q-41 -35 -96 -46v122v0zM64 192q2 73 46 124v0q45 52 114 65v-174l-136 -108q-23 42 -24 93v0zM424 99l-136 108v174q70 -13 114 -65q45 -51 46 -124q-1 -51 -24 -93v0z" />
    <glyph glyph-name="yin-yang" unicode="&#xf6ad;" 
d="M256 320q-14 0 -23 -9v0q-9 -9 -9 -23t9 -23t23 -9t23 9t9 23t-9 23t-23 9v0zM256 448q-72 -1 -129 -35v0q-58 -34 -92 -92v0q-34 -57 -35 -129q1 -72 35 -129q34 -58 92 -92q57 -34 129 -35q72 1 129 35q58 34 92 92q34 57 35 129q-1 72 -35 129q-34 58 -92 92
q-57 34 -129 35v0zM256 64q-14 0 -23 9v0q-9 9 -9 23t9 23t23 9t23 -9t9 -23t-9 -23t-23 -9v0zM256 192q-41 -1 -68 -28v0q-27 -27 -28 -68q1 -41 28 -68t68 -28q-82 2 -136 56t-56 136q2 82 56 136t136 56q41 -1 68 -28t28 -68q-1 -41 -28 -68t-68 -28v0z" />
    <glyph glyph-name="yin-yang" unicode="&#x262f;" 
d="M256 320q-14 0 -23 -9v0q-9 -9 -9 -23t9 -23t23 -9t23 9t9 23t-9 23t-23 9v0zM256 448q-72 -1 -129 -35v0q-58 -34 -92 -92v0q-34 -57 -35 -129q1 -72 35 -129q34 -58 92 -92q57 -34 129 -35q72 1 129 35q58 34 92 92q34 57 35 129q-1 72 -35 129q-34 58 -92 92
q-57 34 -129 35v0zM256 64q-14 0 -23 9v0q-9 9 -9 23t9 23t23 9t23 -9t9 -23t-9 -23t-23 -9v0zM256 192q-41 -1 -68 -28v0q-27 -27 -28 -68q1 -41 28 -68t68 -28q-82 2 -136 56t-56 136q2 82 56 136t136 56q41 -1 68 -28t28 -68q-1 -41 -28 -68t-68 -28v0z" />
    <glyph glyph-name="dharmachakra" unicode="&#xf655;" 
d="M495 223l-17 -1q-9 60 -44 106l12 11q10 11 1 24l-20 21q-13 9 -24 -1l-11 -12q-46 35 -106 44l1 16q-1 15 -16 17h-30q-15 -2 -16 -17l1 -17q-60 -9 -106 -44l-11 13q-11 10 -23 1l-22 -22q-9 -12 1 -23l12 -11q-35 -46 -43 -106l-17 1q-15 -1 -17 -16v-30q2 -15 17 -16
l17 1q9 -60 44 -106l-12 -11q-10 -11 -1 -23l22 -22q11 -9 23 1l11 12q46 -35 106 -44l-2 -16q1 -15 16 -17h30q15 2 16 17l-1 17q60 9 106 44l11 -12q11 -10 24 -1l21 22q9 11 -1 23l-12 11q35 46 44 106l16 -2q15 1 17 16v30q-2 15 -17 16v0zM282 349q37 -6 67 -27
l-42 -49q-14 9 -29 12l4 64v0zM230 349l4 -64q-15 -3 -28 -12l-43 49q30 21 67 27v0zM126 285l49 -42q-9 -14 -12 -29l-64 4q6 37 27 67v0zM99 166l64 4q3 -15 12 -29l-49 -42q-21 30 -27 67v0zM230 35q-37 6 -67 27l42 49q14 -9 29 -12l-4 -64v0zM256 160q-14 0 -23 9v0
q-9 9 -9 23t9 23t23 9t23 -9t9 -23t-9 -23t-23 -9v0zM282 35l-4 64q15 3 29 12l42 -49q-30 -21 -67 -27v0zM386 99l-49 42q9 14 12 29l64 -4q-6 -37 -27 -67v0zM349 214q-3 15 -12 29l49 42q21 -30 27 -67l-64 -4v0z" />
    <glyph glyph-name="dharmachakra" unicode="&#x2638;" 
d="M495 223l-17 -1q-9 60 -44 106l12 11q10 11 1 24l-20 21q-13 9 -24 -1l-11 -12q-46 35 -106 44l1 16q-1 15 -16 17h-30q-15 -2 -16 -17l1 -17q-60 -9 -106 -44l-11 13q-11 10 -23 1l-22 -22q-9 -12 1 -23l12 -11q-35 -46 -43 -106l-17 1q-15 -1 -17 -16v-30q2 -15 17 -16
l17 1q9 -60 44 -106l-12 -11q-10 -11 -1 -23l22 -22q11 -9 23 1l11 12q46 -35 106 -44l-2 -16q1 -15 16 -17h30q15 2 16 17l-1 17q60 9 106 44l11 -12q11 -10 24 -1l21 22q9 11 -1 23l-12 11q35 46 44 106l16 -2q15 1 17 16v30q-2 15 -17 16v0zM282 349q37 -6 67 -27
l-42 -49q-14 9 -29 12l4 64v0zM230 349l4 -64q-15 -3 -28 -12l-43 49q30 21 67 27v0zM126 285l49 -42q-9 -14 -12 -29l-64 4q6 37 27 67v0zM99 166l64 4q3 -15 12 -29l-49 -42q-21 30 -27 67v0zM230 35q-37 6 -67 27l42 49q14 -9 29 -12l-4 -64v0zM256 160q-14 0 -23 9v0
q-9 9 -9 23t9 23t23 9t23 -9t9 -23t-9 -23t-23 -9v0zM282 35l-4 64q15 3 29 12l42 -49q-30 -21 -67 -27v0zM386 99l-49 42q9 14 12 29l64 -4q-6 -37 -27 -67v0zM349 214q-3 15 -12 29l49 42q21 -30 27 -67l-64 -4v0z" />
    <glyph glyph-name="face-frown" unicode="&#xf119;" 
d="M256 448q-72 -1 -129 -35v0q-58 -34 -92 -92v0q-34 -57 -35 -129q1 -72 35 -129q34 -58 92 -92q57 -34 129 -35q72 1 129 35q58 34 92 92q34 57 35 129q-1 72 -35 129q-34 58 -92 92q-57 34 -129 35v0zM336 272q14 0 23 -9v0q9 -9 9 -23t-9 -23t-23 -9t-23 9t-9 23t9 23
t23 9v0zM175 272q14 0 23 -9v0q9 -9 9 -23t-9 -23t-23 -9t-23 9t-9 23q1 14 10 23t22 9v0zM371 48h-4q-12 1 -16 13q1 2 -6 18q-7 17 -28 32q-21 16 -61 17q-40 -1 -61 -17q-21 -15 -28 -32q-8 -16 -7 -18q-5 -14 -19 -13q-14 5 -13 19q4 27 34 59q30 31 94 34q64 -3 94 -34
q30 -32 34 -59q1 -14 -13 -19v0z" />
    <glyph glyph-name="face-frown" unicode="&#x2639;" 
d="M256 448q-72 -1 -129 -35v0q-58 -34 -92 -92v0q-34 -57 -35 -129q1 -72 35 -129q34 -58 92 -92q57 -34 129 -35q72 1 129 35q58 34 92 92q34 57 35 129q-1 72 -35 129q-34 58 -92 92q-57 34 -129 35v0zM336 272q14 0 23 -9v0q9 -9 9 -23t-9 -23t-23 -9t-23 9t-9 23t9 23
t23 9v0zM175 272q14 0 23 -9v0q9 -9 9 -23t-9 -23t-23 -9t-23 9t-9 23q1 14 10 23t22 9v0zM371 48h-4q-12 1 -16 13q1 2 -6 18q-7 17 -28 32q-21 16 -61 17q-40 -1 -61 -17q-21 -15 -28 -32q-8 -16 -7 -18q-5 -14 -19 -13q-14 5 -13 19q4 27 34 59q30 31 94 34q64 -3 94 -34
q30 -32 34 -59q1 -14 -13 -19v0z" />
    <glyph glyph-name="mercury" unicode="&#xf223;" horiz-adv-x="384" 
d="M368 225q0 42 -18 77v0q-17 35 -47 60q31 26 48 64q3 8 -2 15q-4 7 -13 8h-54q-8 0 -13 -7q-28 -40 -77 -41q-50 2 -77 41q-5 5 -13 6h-54q-9 0 -13 -7q-5 -7 -2 -16q17 -37 48 -64q-30 -25 -47 -60q-18 -35 -18 -76q1 -66 41 -113t103 -59v-21h-32q-15 -1 -16 -16v-32
q1 -15 16 -16h32v-16q1 -15 16 -16h32q15 1 16 16v16h32q15 1 16 16v32q-1 15 -16 16h-32v19q63 13 103 60t41 114v0zM192 128q-41 1 -68 28v0q-27 27 -28 68q1 41 28 67q27 27 68 28q41 -1 68 -28t28 -67q-1 -41 -28 -68t-68 -28v0z" />
    <glyph glyph-name="mercury" unicode="&#x263f;" horiz-adv-x="384" 
d="M368 225q0 42 -18 77v0q-17 35 -47 60q31 26 48 64q3 8 -2 15q-4 7 -13 8h-54q-8 0 -13 -7q-28 -40 -77 -41q-50 2 -77 41q-5 5 -13 6h-54q-9 0 -13 -7q-5 -7 -2 -16q17 -37 48 -64q-30 -25 -47 -60q-18 -35 -18 -76q1 -66 41 -113t103 -59v-21h-32q-15 -1 -16 -16v-32
q1 -15 16 -16h32v-16q1 -15 16 -16h32q15 1 16 16v16h32q15 1 16 16v32q-1 15 -16 16h-32v19q63 13 103 60t41 114v0zM192 128q-41 1 -68 28v0q-27 27 -28 68q1 41 28 67q27 27 68 28q41 -1 68 -28t28 -67q-1 -41 -28 -68t-68 -28v0z" />
    <glyph glyph-name="venus" unicode="&#xf221;" horiz-adv-x="384" 
d="M368 272q-2 75 -52 124v0q-49 50 -124 52q-75 -2 -124 -52q-50 -49 -52 -124q1 -66 41 -113t103 -59v-35h-48q-15 -2 -16 -16v-32q1 -15 16 -16h48v-48q1 -15 16 -16h32q15 1 16 16v48h48q15 1 16 16v32q-1 14 -16 16h-48v35q63 12 103 59t41 113v0zM192 176
q-41 1 -68 28v0q-27 27 -28 68q1 41 28 68t68 28q41 -1 68 -28t28 -68q-1 -41 -28 -68t-68 -28v0z" />
    <glyph glyph-name="venus" unicode="&#x2640;" horiz-adv-x="384" 
d="M368 272q-2 75 -52 124v0q-49 50 -124 52q-75 -2 -124 -52q-50 -49 -52 -124q1 -66 41 -113t103 -59v-35h-48q-15 -2 -16 -16v-32q1 -15 16 -16h48v-48q1 -15 16 -16h32q15 1 16 16v48h48q15 1 16 16v32q-1 14 -16 16h-48v35q63 12 103 59t41 113v0zM192 176
q-41 1 -68 28v0q-27 27 -28 68q1 41 28 68t68 28q41 -1 68 -28t28 -68q-1 -41 -28 -68t-68 -28v0z" />
    <glyph glyph-name="mars" unicode="&#xf222;" horiz-adv-x="448" 
d="M431 417h-112q-17 -1 -23 -15q-5 -14 6 -26l29 -30l-57 -56q-46 31 -100 31q-75 0 -131 -59q-45 -53 -44 -121q2 -67 49 -119q56 -54 128 -54q70 0 124 52q46 47 51 109q5 61 -30 115l56 56l30 -29q8 -8 17 -7q21 1 24 24v113q-1 14 -17 16v0zM244 76q-30 -28 -68 -28
q-39 0 -69 28q-28 30 -28 68t28 68q30 28 69 28q38 0 68 -28q28 -30 28 -68t-28 -68v0z" />
    <glyph glyph-name="mars" unicode="&#x2642;" horiz-adv-x="448" 
d="M431 417h-112q-17 -1 -23 -15q-5 -14 6 -26l29 -30l-57 -56q-46 31 -100 31q-75 0 -131 -59q-45 -53 -44 -121q2 -67 49 -119q56 -54 128 -54q70 0 124 52q46 47 51 109q5 61 -30 115l56 56l30 -29q8 -8 17 -7q21 1 24 24v113q-1 14 -17 16v0zM244 76q-30 -28 -68 -28
q-39 0 -69 28q-28 30 -28 68t28 68q30 28 69 28q38 0 68 -28q28 -30 28 -68t-28 -68v0z" />
    <glyph glyph-name="chess-king" unicode="&#xf43f;" horiz-adv-x="448" 
d="M367 0h-287q-20 -1 -34 -14t-14 -33q1 -16 16 -17h352q15 1 16 16q0 20 -14 34q-14 13 -35 14v0zM416 288h-160v48h16q14 0 23 9t9 23q-1 14 -10 23t-22 9h-16v16q0 14 -10 23q-9 9 -23 9q-13 0 -22 -9t-10 -23v-16h-16q-13 0 -23 -9q-9 -9 -9 -23q1 -14 10 -23t22 -9h16
v-48h-160q-11 0 -21 -8q-9 -9 -10 -24q0 -5 1 -10l73 -214h300l73 214q1 5 1 10q-1 15 -11 24q-10 8 -21 8v0z" />
    <glyph glyph-name="chess-king" unicode="&#x265a;" horiz-adv-x="448" 
d="M367 0h-287q-20 -1 -34 -14t-14 -33q1 -16 16 -17h352q15 1 16 16q0 20 -14 34q-14 13 -35 14v0zM416 288h-160v48h16q14 0 23 9t9 23q-1 14 -10 23t-22 9h-16v16q0 14 -10 23q-9 9 -23 9q-13 0 -22 -9t-10 -23v-16h-16q-13 0 -23 -9q-9 -9 -9 -23q1 -14 10 -23t22 -9h16
v-48h-160q-11 0 -21 -8q-9 -9 -10 -24q0 -5 1 -10l73 -214h300l73 214q1 5 1 10q-1 15 -11 24q-10 8 -21 8v0z" />
    <glyph glyph-name="chess-queen" unicode="&#xf445;" 
d="M256 336q24 1 40 16v0q15 16 16 40q-1 24 -16 40q-16 15 -40 16q-24 -1 -40 -16q-16 -16 -17 -40q1 -24 17 -40q16 -15 40 -16v0zM399 0h-288q-20 -1 -34 -14q-13 -13 -14 -33q3 -16 17 -17h352q15 1 16 16q-1 20 -15 34q-13 13 -34 14v0zM511 251q0 8 -7 13l-28 16
q-4 2 -8 2q-10 -1 -16 -9q-5 -6 -13 -11q-8 -6 -23 -6q-22 1 -35 16t-13 35q-3 12 -13 13h-39q-10 -1 -13 -10q-4 -17 -17 -27q-13 -11 -31 -11q-17 0 -30 11q-13 10 -17 27q-2 9 -12 10h-39q-13 -1 -14 -13q0 -16 -11 -33t-37 -18q-15 0 -23 5q-8 6 -13 12q-6 8 -16 9
q-4 0 -8 -2l-29 -16q-6 -5 -6 -13q0 -4 2 -8l102 -211h304l102 211q1 3 1 6v2v0z" />
    <glyph glyph-name="chess-queen" unicode="&#x265b;" 
d="M256 336q24 1 40 16v0q15 16 16 40q-1 24 -16 40q-16 15 -40 16q-24 -1 -40 -16q-16 -16 -17 -40q1 -24 17 -40q16 -15 40 -16v0zM399 0h-288q-20 -1 -34 -14q-13 -13 -14 -33q3 -16 17 -17h352q15 1 16 16q-1 20 -15 34q-13 13 -34 14v0zM511 251q0 8 -7 13l-28 16
q-4 2 -8 2q-10 -1 -16 -9q-5 -6 -13 -11q-8 -6 -23 -6q-22 1 -35 16t-13 35q-3 12 -13 13h-39q-10 -1 -13 -10q-4 -17 -17 -27q-13 -11 -31 -11q-17 0 -30 11q-13 10 -17 27q-2 9 -12 10h-39q-13 -1 -14 -13q0 -16 -11 -33t-37 -18q-15 0 -23 5q-8 6 -13 12q-6 8 -16 9
q-4 0 -8 -2l-29 -16q-6 -5 -6 -13q0 -4 2 -8l102 -211h304l102 211q1 3 1 6v2v0z" />
    <glyph glyph-name="chess-rook" unicode="&#xf447;" horiz-adv-x="384" 
d="M368 416h-56q-15 -1 -16 -16v-48h-48v48q-1 15 -16 16h-80q-15 -1 -16 -16v-48h-48v48q-1 15 -16 16h-56q-15 -1 -16 -16v-176l64 -32q0 -36 -2 -74q-3 -38 -11 -86h282q-8 48 -11 86q-2 39 -2 74l64 32v176q-1 15 -16 16v0zM224 128h-64v64q0 14 9 23t23 9t23 -9t9 -23
v-64v0zM336 0h-289q-20 -1 -33 -14t-14 -33q1 -16 16 -17h352q15 1 16 16q-1 20 -14 34q-14 13 -34 14v0z" />
    <glyph glyph-name="chess-rook" unicode="&#x265c;" horiz-adv-x="384" 
d="M368 416h-56q-15 -1 -16 -16v-48h-48v48q-1 15 -16 16h-80q-15 -1 -16 -16v-48h-48v48q-1 15 -16 16h-56q-15 -1 -16 -16v-176l64 -32q0 -36 -2 -74q-3 -38 -11 -86h282q-8 48 -11 86q-2 39 -2 74l64 32v176q-1 15 -16 16v0zM224 128h-64v64q0 14 9 23t23 9t23 -9t9 -23
v-64v0zM336 0h-289q-20 -1 -33 -14t-14 -33q1 -16 16 -17h352q15 1 16 16q-1 20 -14 34q-14 13 -34 14v0z" />
    <glyph glyph-name="chess-bishop" unicode="&#xf43a;" horiz-adv-x="320" 
d="M272 0h-224q-20 -1 -34 -14q-13 -14 -14 -34q1 -15 16 -16h288q15 1 16 16q-1 20 -14 34q-14 13 -34 14v0zM8 160q0 -38 15 -58v0q15 -19 41 -27v-43h192v43q26 8 41 27q15 20 15 58q-1 48 -27 103l-100 -101q-2 -2 -6 -2q-3 0 -5 2l-12 12q-2 2 -2 5q0 4 2 6l108 108
q-32 59 -71 92q23 7 25 31q0 14 -9 23t-23 9h-64q-14 0 -23 -9t-9 -23q2 -24 25 -31q-27 -23 -53 -61q-26 -39 -43 -83q-16 -43 -17 -81v0z" />
    <glyph glyph-name="chess-bishop" unicode="&#x265d;" horiz-adv-x="320" 
d="M272 0h-224q-20 -1 -34 -14q-13 -14 -14 -34q1 -15 16 -16h288q15 1 16 16q-1 20 -14 34q-14 13 -34 14v0zM8 160q0 -38 15 -58v0q15 -19 41 -27v-43h192v43q26 8 41 27q15 20 15 58q-1 48 -27 103l-100 -101q-2 -2 -6 -2q-3 0 -5 2l-12 12q-2 2 -2 5q0 4 2 6l108 108
q-32 59 -71 92q23 7 25 31q0 14 -9 23t-23 9h-64q-14 0 -23 -9t-9 -23q2 -24 25 -31q-27 -23 -53 -61q-26 -39 -43 -83q-16 -43 -17 -81v0z" />
    <glyph glyph-name="chess-knight" unicode="&#xf441;" horiz-adv-x="384" 
d="M19 175l41 -18q6 -2 13 -2q6 0 12 2l12 5q14 6 19 21l9 30q3 11 13 16l22 11v-50q-1 -29 -27 -43l-57 -29q-20 -10 -32 -29t-12 -43v-14h320v192q-2 81 -56 135q-54 55 -136 57h-148q-11 -1 -12 -12q0 -4 2 -8l14 -28l-9 -9q-7 -7 -7 -17v-137q1 -21 19 -30v0zM52 320
q18 -2 20 -20q-2 -18 -20 -20q-18 2 -20 20q2 18 20 20v0zM336 0h-289q-20 -1 -33 -14t-14 -33q1 -16 16 -17h352q15 1 16 16q-1 20 -14 34q-14 13 -34 14v0z" />
    <glyph glyph-name="chess-knight" unicode="&#x265e;" horiz-adv-x="384" 
d="M19 175l41 -18q6 -2 13 -2q6 0 12 2l12 5q14 6 19 21l9 30q3 11 13 16l22 11v-50q-1 -29 -27 -43l-57 -29q-20 -10 -32 -29t-12 -43v-14h320v192q-2 81 -56 135q-54 55 -136 57h-148q-11 -1 -12 -12q0 -4 2 -8l14 -28l-9 -9q-7 -7 -7 -17v-137q1 -21 19 -30v0zM52 320
q18 -2 20 -20q-2 -18 -20 -20q-18 2 -20 20q2 18 20 20v0zM336 0h-289q-20 -1 -33 -14t-14 -33q1 -16 16 -17h352q15 1 16 16q-1 20 -14 34q-14 13 -34 14v0z" />
    <glyph glyph-name="chess-pawn" unicode="&#xf443;" horiz-adv-x="320" 
d="M105 224h-25q-15 -1 -16 -16v-32q1 -14 16 -15l16 -1v-6q3 -67 -24 -122h176q-27 55 -24 122v6h16q15 2 16 15v32q-1 16 -16 17h-25q22 14 35 37q14 23 14 51q-1 44 -31 74q-29 29 -74 30q-45 -1 -73 -30q-29 -30 -30 -74q0 -28 14 -51q13 -23 35 -37v0zM272 0h-225
q-20 -1 -33 -14t-14 -33q1 -16 16 -17h288q15 1 16 16q-1 20 -14 34q-14 13 -34 14v0z" />
    <glyph glyph-name="chess-pawn" unicode="&#x265f;" horiz-adv-x="320" 
d="M105 224h-25q-15 -1 -16 -16v-32q1 -14 16 -15l16 -1v-6q3 -67 -24 -122h176q-27 55 -24 122v6h16q15 2 16 15v32q-1 16 -16 17h-25q22 14 35 37q14 23 14 51q-1 44 -31 74q-29 29 -74 30q-45 -1 -73 -30q-29 -30 -30 -74q0 -28 14 -51q13 -23 35 -37v0zM272 0h-225
q-20 -1 -33 -14t-14 -33q1 -16 16 -17h288q15 1 16 16q-1 20 -14 34q-14 13 -34 14v0z" />
    <glyph glyph-name="spade" unicode="&#xf2f4;" 
d="M512 154q-1 -51 -36 -86v0q-35 -35 -86 -36h-11q-56 2 -91 41v-52q1 -20 20 -26l24 -6q19 -6 20 -26q0 -11 -8 -19t-19 -8h-139q-11 0 -18 8q-8 8 -8 19q1 20 20 26l24 6q19 6 20 27v52q-35 -40 -90 -42h-11q-52 1 -87 36t-36 86q1 51 36 87l197 198q10 9 23 9t23 -9
l197 -198q35 -36 36 -87v0z" />
    <glyph glyph-name="spade" unicode="&#x2660;" 
d="M512 154q-1 -51 -36 -86v0q-35 -35 -86 -36h-11q-56 2 -91 41v-52q1 -20 20 -26l24 -6q19 -6 20 -26q0 -11 -8 -19t-19 -8h-139q-11 0 -18 8q-8 8 -8 19q1 20 20 26l24 6q19 6 20 27v52q-35 -40 -90 -42h-11q-52 1 -87 36t-36 86q1 51 36 87l197 198q10 9 23 9t23 -9
l197 -198q35 -36 36 -87v0z" />
    <glyph glyph-name="club" unicode="&#xf327;" 
d="M512 160q-1 -54 -37 -91v0q-37 -36 -91 -37q-59 2 -96 44v-55q1 -20 20 -26l24 -6q19 -6 20 -26q0 -11 -8 -19t-19 -8h-139q-11 0 -18 8q-8 8 -8 19q1 20 20 26l24 6q19 6 20 27v55q-37 -43 -96 -45q-54 1 -91 37q-36 37 -37 91q1 54 37 91q37 36 91 37h3h2q-5 15 -5 32
q1 54 37 91q37 36 91 37q54 -1 91 -37q36 -37 37 -91q0 -17 -5 -32h2h3q54 -1 91 -37q36 -37 37 -91v0z" />
    <glyph glyph-name="club" unicode="&#x2663;" 
d="M512 160q-1 -54 -37 -91v0q-37 -36 -91 -37q-59 2 -96 44v-55q1 -20 20 -26l24 -6q19 -6 20 -26q0 -11 -8 -19t-19 -8h-139q-11 0 -18 8q-8 8 -8 19q1 20 20 26l24 6q19 6 20 27v55q-37 -43 -96 -45q-54 1 -91 37q-36 37 -37 91q1 54 37 91q37 36 91 37h3h2q-5 15 -5 32
q1 54 37 91q37 36 91 37q54 -1 91 -37q36 -37 37 -91q0 -17 -5 -32h2h3q54 -1 91 -37q36 -37 37 -91v0z" />
    <glyph glyph-name="heart" unicode="&#x1f9e1;" 
d="M472 177l-193 -199q-10 -10 -23 -10t-23 10l-193 199q-42 46 -40 106q2 59 49 102q43 35 95 31q53 -5 92 -44l20 -20l20 20q39 39 91 44q53 4 96 -31q47 -43 49 -102t-40 -106v0z" />
    <glyph glyph-name="heart" unicode="&#x1f90e;" 
d="M472 177l-193 -199q-10 -10 -23 -10t-23 10l-193 199q-42 46 -40 106q2 59 49 102q43 35 95 31q53 -5 92 -44l20 -20l20 20q39 39 91 44q53 4 96 -31q47 -43 49 -102t-40 -106v0z" />
    <glyph glyph-name="heart" unicode="&#x1f90d;" 
d="M472 177l-193 -199q-10 -10 -23 -10t-23 10l-193 199q-42 46 -40 106q2 59 49 102q43 35 95 31q53 -5 92 -44l20 -20l20 20q39 39 91 44q53 4 96 -31q47 -43 49 -102t-40 -106v0z" />
    <glyph glyph-name="heart" unicode="&#x1f5a4;" 
d="M472 177l-193 -199q-10 -10 -23 -10t-23 10l-193 199q-42 46 -40 106q2 59 49 102q43 35 95 31q53 -5 92 -44l20 -20l20 20q39 39 91 44q53 4 96 -31q47 -43 49 -102t-40 -106v0z" />
    <glyph glyph-name="heart" unicode="&#x1f49c;" 
d="M472 177l-193 -199q-10 -10 -23 -10t-23 10l-193 199q-42 46 -40 106q2 59 49 102q43 35 95 31q53 -5 92 -44l20 -20l20 20q39 39 91 44q53 4 96 -31q47 -43 49 -102t-40 -106v0z" />
    <glyph glyph-name="heart" unicode="&#x1f49b;" 
d="M472 177l-193 -199q-10 -10 -23 -10t-23 10l-193 199q-42 46 -40 106q2 59 49 102q43 35 95 31q53 -5 92 -44l20 -20l20 20q39 39 91 44q53 4 96 -31q47 -43 49 -102t-40 -106v0z" />
    <glyph glyph-name="heart" unicode="&#x1f49a;" 
d="M472 177l-193 -199q-10 -10 -23 -10t-23 10l-193 199q-42 46 -40 106q2 59 49 102q43 35 95 31q53 -5 92 -44l20 -20l20 20q39 39 91 44q53 4 96 -31q47 -43 49 -102t-40 -106v0z" />
    <glyph glyph-name="heart" unicode="&#x1f499;" 
d="M472 177l-193 -199q-10 -10 -23 -10t-23 10l-193 199q-42 46 -40 106q2 59 49 102q43 35 95 31q53 -5 92 -44l20 -20l20 20q39 39 91 44q53 4 96 -31q47 -43 49 -102t-40 -106v0z" />
    <glyph glyph-name="heart" unicode="&#xf08a;" 
d="M472 177l-193 -199q-10 -10 -23 -10t-23 10l-193 199q-42 46 -40 106q2 59 49 102q43 35 95 31q53 -5 92 -44l20 -20l20 20q39 39 91 44q53 4 96 -31q47 -43 49 -102t-40 -106v0z" />
    <glyph glyph-name="heart" unicode="&#xf004;" 
d="M472 177l-193 -199q-10 -10 -23 -10t-23 10l-193 199q-42 46 -40 106q2 59 49 102q43 35 95 31q53 -5 92 -44l20 -20l20 20q39 39 91 44q53 4 96 -31q47 -43 49 -102t-40 -106v0z" />
    <glyph glyph-name="heart" unicode="&#x2764;" 
d="M472 177l-193 -199q-10 -10 -23 -10t-23 10l-193 199q-42 46 -40 106q2 59 49 102q43 35 95 31q53 -5 92 -44l20 -20l20 20q39 39 91 44q53 4 96 -31q47 -43 49 -102t-40 -106v0z" />
    <glyph glyph-name="heart" unicode="&#x2665;" 
d="M472 177l-193 -199q-10 -10 -23 -10t-23 10l-193 199q-42 46 -40 106q2 59 49 102q43 35 95 31q53 -5 92 -44l20 -20l20 20q39 39 91 44q53 4 96 -31q47 -43 49 -102t-40 -106v0z" />
    <glyph glyph-name="diamond" unicode="&#xf219;" 
d="M497 226l-208 208q-15 14 -34 14t-34 -14l-207 -208q-14 -15 -14 -34t14 -34l208 -208q15 -14 34 -14t34 14l208 208q14 15 14 34t-15 34v0z" />
    <glyph glyph-name="diamond" unicode="&#x2666;" 
d="M497 226l-208 208q-15 14 -34 14t-34 -14l-207 -208q-14 -15 -14 -34t14 -34l208 -208q15 -14 34 -14t34 14l208 208q14 15 14 34t-15 34v0z" />
    <glyph glyph-name="recycle" unicode="&#xf1b8;" 
d="M180 205q3 -16 -9 -25v0q-12 -9 -27 -1l-24 15l-51 -81q-10 -17 -1 -33q9 -15 28 -16h32q14 0 23 -9t9 -23t-9 -23t-23 -9h-32q-38 1 -63 24q-26 23 -32 56q-6 34 14 67l51 81l-25 15q-13 10 -11 25q3 14 18 19l92 21q14 2 19 -12l21 -91v0zM283 369l41 -66l-24 -15
q-13 -10 -11 -24q3 -15 18 -20l92 -21q14 -2 19 12l21 91q3 17 -9 25q-12 9 -27 1l-24 -15l-42 66q-31 45 -81 45t-81 -45l-8 -12q-7 -12 -4 -24t14 -20q12 -7 24 -4q13 3 20 14l8 12q10 15 27 15t27 -15v0zM497 147l-17 27q-7 11 -20 14q-12 3 -24 -4q-11 -7 -14 -20
q-3 -12 4 -24l17 -27q10 -17 1 -33q-9 -15 -28 -16h-96v29q-1 16 -15 22t-26 -5l-66 -67q-10 -11 0 -22l66 -67q12 -11 26 -5t15 22v29h96q38 1 63 24q26 23 32 56q6 34 -14 67v0z" />
    <glyph glyph-name="recycle" unicode="&#x267b;" 
d="M180 205q3 -16 -9 -25v0q-12 -9 -27 -1l-24 15l-51 -81q-10 -17 -1 -33q9 -15 28 -16h32q14 0 23 -9t9 -23t-9 -23t-23 -9h-32q-38 1 -63 24q-26 23 -32 56q-6 34 14 67l51 81l-25 15q-13 10 -11 25q3 14 18 19l92 21q14 2 19 -12l21 -91v0zM283 369l41 -66l-24 -15
q-13 -10 -11 -24q3 -15 18 -20l92 -21q14 -2 19 12l21 91q3 17 -9 25q-12 9 -27 1l-24 -15l-42 66q-31 45 -81 45t-81 -45l-8 -12q-7 -12 -4 -24t14 -20q12 -7 24 -4q13 3 20 14l8 12q10 15 27 15t27 -15v0zM497 147l-17 27q-7 11 -20 14q-12 3 -24 -4q-11 -7 -14 -20
q-3 -12 4 -24l17 -27q10 -17 1 -33q-9 -15 -28 -16h-96v29q-1 16 -15 22t-26 -5l-66 -67q-10 -11 0 -22l66 -67q12 -11 26 -5t15 22v29h96q38 1 63 24q26 23 32 56q6 34 -14 67v0z" />
    <glyph glyph-name="recycle" unicode="&#x267a;" 
d="M180 205q3 -16 -9 -25v0q-12 -9 -27 -1l-24 15l-51 -81q-10 -17 -1 -33q9 -15 28 -16h32q14 0 23 -9t9 -23t-9 -23t-23 -9h-32q-38 1 -63 24q-26 23 -32 56q-6 34 14 67l51 81l-25 15q-13 10 -11 25q3 14 18 19l92 21q14 2 19 -12l21 -91v0zM283 369l41 -66l-24 -15
q-13 -10 -11 -24q3 -15 18 -20l92 -21q14 -2 19 12l21 91q3 17 -9 25q-12 9 -27 1l-24 -15l-42 66q-31 45 -81 45t-81 -45l-8 -12q-7 -12 -4 -24t14 -20q12 -7 24 -4q13 3 20 14l8 12q10 15 27 15t27 -15v0zM497 147l-17 27q-7 11 -20 14q-12 3 -24 -4q-11 -7 -14 -20
q-3 -12 4 -24l17 -27q10 -17 1 -33q-9 -15 -28 -16h-96v29q-1 16 -15 22t-26 -5l-66 -67q-10 -11 0 -22l66 -67q12 -11 26 -5t15 22v29h96q38 1 63 24q26 23 32 56q6 34 -14 67v0z" />
    <glyph glyph-name="recycle" unicode="&#x2672;" 
d="M180 205q3 -16 -9 -25v0q-12 -9 -27 -1l-24 15l-51 -81q-10 -17 -1 -33q9 -15 28 -16h32q14 0 23 -9t9 -23t-9 -23t-23 -9h-32q-38 1 -63 24q-26 23 -32 56q-6 34 14 67l51 81l-25 15q-13 10 -11 25q3 14 18 19l92 21q14 2 19 -12l21 -91v0zM283 369l41 -66l-24 -15
q-13 -10 -11 -24q3 -15 18 -20l92 -21q14 -2 19 12l21 91q3 17 -9 25q-12 9 -27 1l-24 -15l-42 66q-31 45 -81 45t-81 -45l-8 -12q-7 -12 -4 -24t14 -20q12 -7 24 -4q13 3 20 14l8 12q10 15 27 15t27 -15v0zM497 147l-17 27q-7 11 -20 14q-12 3 -24 -4q-11 -7 -14 -20
q-3 -12 4 -24l17 -27q10 -17 1 -33q-9 -15 -28 -16h-96v29q-1 16 -15 22t-26 -5l-66 -67q-10 -11 0 -22l66 -67q12 -11 26 -5t15 22v29h96q38 1 63 24q26 23 32 56q6 34 -14 67v0z" />
    <glyph glyph-name="dice-one" unicode="&#xf525;" horiz-adv-x="448" 
d="M384 416h-320q-27 -1 -45 -19t-19 -45v-320q1 -27 19 -45t45 -19h320q27 1 45 19t19 45v320q-1 27 -19 45t-45 19v0zM224 160q-14 0 -23 9v0q-9 9 -9 23t9 23t23 9t23 -9t9 -23t-9 -23t-23 -9v0z" />
    <glyph glyph-name="dice-one" unicode="&#x2680;" horiz-adv-x="448" 
d="M384 416h-320q-27 -1 -45 -19t-19 -45v-320q1 -27 19 -45t45 -19h320q27 1 45 19t19 45v320q-1 27 -19 45t-45 19v0zM224 160q-14 0 -23 9v0q-9 9 -9 23t9 23t23 9t23 -9t9 -23t-9 -23t-23 -9v0z" />
    <glyph glyph-name="dice-two" unicode="&#xf528;" horiz-adv-x="448" 
d="M384 416h-320q-27 -1 -45 -19t-19 -45v-320q1 -27 19 -45t45 -19h320q27 1 45 19t19 45v320q-1 27 -19 45t-45 19v0zM128 256q-14 0 -23 9v0q-9 9 -9 23t9 23t23 9t23 -9t9 -23t-9 -23t-23 -9v0zM320 64q-14 0 -23 9v0q-9 9 -9 23t9 23t23 9t23 -9t9 -23t-9 -23t-23 -9v0
z" />
    <glyph glyph-name="dice-two" unicode="&#x2681;" horiz-adv-x="448" 
d="M384 416h-320q-27 -1 -45 -19t-19 -45v-320q1 -27 19 -45t45 -19h320q27 1 45 19t19 45v320q-1 27 -19 45t-45 19v0zM128 256q-14 0 -23 9v0q-9 9 -9 23t9 23t23 9t23 -9t9 -23t-9 -23t-23 -9v0zM320 64q-14 0 -23 9v0q-9 9 -9 23t9 23t23 9t23 -9t9 -23t-9 -23t-23 -9v0
z" />
    <glyph glyph-name="dice-three" unicode="&#xf527;" horiz-adv-x="448" 
d="M384 416h-320q-27 -1 -45 -19t-19 -45v-320q1 -27 19 -45t45 -19h320q27 1 45 19t19 45v320q-1 27 -19 45t-45 19v0zM128 256q-14 0 -23 9v0q-9 9 -9 23t9 23t23 9t23 -9t9 -23t-9 -23t-23 -9v0zM224 160q-14 0 -23 9v0q-9 9 -9 23t9 23t23 9t23 -9t9 -23t-9 -23t-23 -9
v0zM320 64q-14 0 -23 9v0q-9 9 -9 23t9 23t23 9t23 -9t9 -23t-9 -23t-23 -9v0z" />
    <glyph glyph-name="dice-three" unicode="&#x2682;" horiz-adv-x="448" 
d="M384 416h-320q-27 -1 -45 -19t-19 -45v-320q1 -27 19 -45t45 -19h320q27 1 45 19t19 45v320q-1 27 -19 45t-45 19v0zM128 256q-14 0 -23 9v0q-9 9 -9 23t9 23t23 9t23 -9t9 -23t-9 -23t-23 -9v0zM224 160q-14 0 -23 9v0q-9 9 -9 23t9 23t23 9t23 -9t9 -23t-9 -23t-23 -9
v0zM320 64q-14 0 -23 9v0q-9 9 -9 23t9 23t23 9t23 -9t9 -23t-9 -23t-23 -9v0z" />
    <glyph glyph-name="dice-four" unicode="&#xf524;" horiz-adv-x="448" 
d="M384 416h-320q-27 -1 -45 -19t-19 -45v-320q1 -27 19 -45t45 -19h320q27 1 45 19t19 45v320q-1 27 -19 45t-45 19v0zM128 64q-14 0 -23 9v0q-9 9 -9 23t9 23t23 9t23 -9t9 -23t-9 -23t-23 -9v0zM128 256q-14 0 -23 9v0q-9 9 -9 23t9 23t23 9t23 -9t9 -23t-9 -23t-23 -9v0
zM320 64q-14 0 -23 9v0q-9 9 -9 23t9 23t23 9t23 -9t9 -23t-9 -23t-23 -9v0zM320 256q-14 0 -23 9v0q-9 9 -9 23t9 23t23 9t23 -9t9 -23t-9 -23t-23 -9v0z" />
    <glyph glyph-name="dice-four" unicode="&#x2683;" horiz-adv-x="448" 
d="M384 416h-320q-27 -1 -45 -19t-19 -45v-320q1 -27 19 -45t45 -19h320q27 1 45 19t19 45v320q-1 27 -19 45t-45 19v0zM128 64q-14 0 -23 9v0q-9 9 -9 23t9 23t23 9t23 -9t9 -23t-9 -23t-23 -9v0zM128 256q-14 0 -23 9v0q-9 9 -9 23t9 23t23 9t23 -9t9 -23t-9 -23t-23 -9v0
zM320 64q-14 0 -23 9v0q-9 9 -9 23t9 23t23 9t23 -9t9 -23t-9 -23t-23 -9v0zM320 256q-14 0 -23 9v0q-9 9 -9 23t9 23t23 9t23 -9t9 -23t-9 -23t-23 -9v0z" />
    <glyph glyph-name="dice-five" unicode="&#xf523;" horiz-adv-x="448" 
d="M384 416h-320q-27 -1 -45 -19t-19 -45v-320q1 -27 19 -45t45 -19h320q27 1 45 19t19 45v320q-1 27 -19 45t-45 19v0zM128 64q-14 0 -23 9v0q-9 9 -9 23t9 23t23 9t23 -9t9 -23t-9 -23t-23 -9v0zM128 256q-14 0 -23 9v0q-9 9 -9 23t9 23t23 9t23 -9t9 -23t-9 -23t-23 -9v0
zM224 160q-14 0 -23 9v0q-9 9 -9 23t9 23t23 9t23 -9t9 -23t-9 -23t-23 -9v0zM320 64q-14 0 -23 9v0q-9 9 -9 23t9 23t23 9t23 -9t9 -23t-9 -23t-23 -9v0zM320 256q-14 0 -23 9v0q-9 9 -9 23t9 23t23 9t23 -9t9 -23t-9 -23t-23 -9v0z" />
    <glyph glyph-name="dice-five" unicode="&#x2684;" horiz-adv-x="448" 
d="M384 416h-320q-27 -1 -45 -19t-19 -45v-320q1 -27 19 -45t45 -19h320q27 1 45 19t19 45v320q-1 27 -19 45t-45 19v0zM128 64q-14 0 -23 9v0q-9 9 -9 23t9 23t23 9t23 -9t9 -23t-9 -23t-23 -9v0zM128 256q-14 0 -23 9v0q-9 9 -9 23t9 23t23 9t23 -9t9 -23t-9 -23t-23 -9v0
zM224 160q-14 0 -23 9v0q-9 9 -9 23t9 23t23 9t23 -9t9 -23t-9 -23t-23 -9v0zM320 64q-14 0 -23 9v0q-9 9 -9 23t9 23t23 9t23 -9t9 -23t-9 -23t-23 -9v0zM320 256q-14 0 -23 9v0q-9 9 -9 23t9 23t23 9t23 -9t9 -23t-9 -23t-23 -9v0z" />
    <glyph glyph-name="dice-six" unicode="&#xf526;" horiz-adv-x="448" 
d="M384 416h-320q-27 -1 -45 -19t-19 -45v-320q1 -27 19 -45t45 -19h320q27 1 45 19t19 45v320q-1 27 -19 45t-45 19v0zM128 64q-14 0 -23 9v0q-9 9 -9 23t9 23t23 9t23 -9t9 -23t-9 -23t-23 -9v0zM128 160q-14 0 -23 9v0q-9 9 -9 23t9 23t23 9t23 -9t9 -23t-9 -23t-23 -9v0
zM128 256q-14 0 -23 9v0q-9 9 -9 23t9 23t23 9t23 -9t9 -23t-9 -23t-23 -9v0zM320 64q-14 0 -23 9v0q-9 9 -9 23t9 23t23 9t23 -9t9 -23t-9 -23t-23 -9v0zM320 160q-14 0 -23 9v0q-9 9 -9 23t9 23t23 9t23 -9t9 -23t-9 -23t-23 -9v0zM320 256q-14 0 -23 9v0q-9 9 -9 23t9 23
t23 9t23 -9t9 -23t-9 -23t-23 -9v0z" />
    <glyph glyph-name="dice-six" unicode="&#x2685;" horiz-adv-x="448" 
d="M384 416h-320q-27 -1 -45 -19t-19 -45v-320q1 -27 19 -45t45 -19h320q27 1 45 19t19 45v320q-1 27 -19 45t-45 19v0zM128 64q-14 0 -23 9v0q-9 9 -9 23t9 23t23 9t23 -9t9 -23t-9 -23t-23 -9v0zM128 160q-14 0 -23 9v0q-9 9 -9 23t9 23t23 9t23 -9t9 -23t-9 -23t-23 -9v0
zM128 256q-14 0 -23 9v0q-9 9 -9 23t9 23t23 9t23 -9t9 -23t-9 -23t-23 -9v0zM320 64q-14 0 -23 9v0q-9 9 -9 23t9 23t23 9t23 -9t9 -23t-9 -23t-23 -9v0zM320 160q-14 0 -23 9v0q-9 9 -9 23t9 23t23 9t23 -9t9 -23t-9 -23t-23 -9v0zM320 256q-14 0 -23 9v0q-9 9 -9 23t9 23
t23 9t23 -9t9 -23t-9 -23t-23 -9v0z" />
    <glyph glyph-name="anchor" unicode="&#xf13d;" horiz-adv-x="576" 
d="M571 123l-63 64q-11 10 -22 0l-64 -64q-8 -8 -5 -17q4 -9 14 -10h28q-12 -42 -45 -69q-34 -26 -79 -27h-15v208h47q14 1 15 16v32q-1 15 -15 16h-27q41 28 43 80q-1 41 -28 68t-67 28q-40 -1 -68 -28q-27 -27 -28 -68q2 -52 43 -80h-27q-15 -1 -16 -16v-32q2 -15 15 -16
h47v-208h-14q-45 1 -79 27q-33 27 -44 69h27q11 1 15 10q3 9 -4 17l-63 64q-11 10 -22 0l-64 -64q-8 -8 -5 -17q4 -9 15 -10h35q13 -69 65 -114q51 -44 124 -46h95q73 2 125 46q51 45 64 114h35q12 1 16 10t-4 17v0zM288 384q14 0 22 -9v0q9 -9 9 -23t-9 -23t-23 -9
q-13 0 -22 9t-9 23t9 23t23 9v0z" />
    <glyph glyph-name="anchor" unicode="&#x2693;" horiz-adv-x="576" 
d="M571 123l-63 64q-11 10 -22 0l-64 -64q-8 -8 -5 -17q4 -9 14 -10h28q-12 -42 -45 -69q-34 -26 -79 -27h-15v208h47q14 1 15 16v32q-1 15 -15 16h-27q41 28 43 80q-1 41 -28 68t-67 28q-40 -1 -68 -28q-27 -27 -28 -68q2 -52 43 -80h-27q-15 -1 -16 -16v-32q2 -15 15 -16
h47v-208h-14q-45 1 -79 27q-33 27 -44 69h27q11 1 15 10q3 9 -4 17l-63 64q-11 10 -22 0l-64 -64q-8 -8 -5 -17q4 -9 15 -10h35q13 -69 65 -114q51 -44 124 -46h95q73 2 125 46q51 45 64 114h35q12 1 16 10t-4 17v0zM288 384q14 0 22 -9v0q9 -9 9 -23t-9 -23t-23 -9
q-13 0 -22 9t-9 23t9 23t23 9v0z" />
    <glyph glyph-name="swords" unicode="&#xf71d;" 
d="M309 59l80 80l-296 296l-78 13q-15 0 -15 -15l13 -78l296 -296v0zM507 -14l-59 59l32 59q4 11 -3 19l-18 18q-11 9 -22 0l-130 -130q-9 -11 0 -22l18 -18q8 -8 19 -3l58 32l59 -59q11 -10 23 0l22 22q11 12 1 23v0zM499 355l13 78q0 15 -15 15l-78 -13l-139 -140l79 -80
l140 140v0zM153 169l-53 -53l-25 25q-11 9 -22 0l-18 -18q-7 -8 -3 -19l32 -59l-59 -59q-10 -11 0 -23l22 -22q12 -10 23 0l59 59l58 -32q11 -5 19 3l18 18q9 11 0 22l-25 25l53 53l-79 80v0z" />
    <glyph glyph-name="swords" unicode="&#x2694;" 
d="M309 59l80 80l-296 296l-78 13q-15 0 -15 -15l13 -78l296 -296v0zM507 -14l-59 59l32 59q4 11 -3 19l-18 18q-11 9 -22 0l-130 -130q-9 -11 0 -22l18 -18q8 -8 19 -3l58 32l59 -59q11 -10 23 0l22 22q11 12 1 23v0zM499 355l13 78q0 15 -15 15l-78 -13l-139 -140l79 -80
l140 140v0zM153 169l-53 -53l-25 25q-11 9 -22 0l-18 -18q-7 -8 -3 -19l32 -59l-59 -59q-10 -11 0 -23l22 -22q12 -10 23 0l59 59l58 -32q11 -5 19 3l18 18q9 11 0 22l-25 25l53 53l-79 80v0z" />
    <glyph glyph-name="scale-balanced" unicode="&#xf24e;" horiz-adv-x="640" 
d="M555 293q-15 27 -43 27v0q-28 0 -43 -27q-19 -37 -32 -64q-27 -53 -38 -75q-11 -23 -13 -30t-1 -12q1 -34 37 -57q37 -22 91 -23q54 1 90 23q36 23 37 57v1q0 6 -4 16t-22 46l-59 118v0zM439 128l72 144l72 -144h-144v0zM256 112v1v0q1 6 -3 16v0q-4 10 -22 45v0
q-18 36 -60 119q-15 27 -43 27t-43 -27q-19 -37 -32 -64q-27 -53 -38 -75q-11 -23 -13 -30t-1 -12q1 -34 37 -57q36 -22 90 -23q54 1 90 23q37 23 38 57v0zM128 272l72 -144h-144l72 144v0zM495 0h-143v295q37 17 46 57h114q14 0 22 9q9 9 9 23t-9 23t-22 9h-128
q-24 31 -64 32q-41 -1 -64 -32h-128q-14 0 -23 -9t-9 -23t9 -23t22 -9h114q9 -40 46 -57v-295h-143q-20 -1 -34 -14q-13 -14 -14 -34q1 -15 16 -16h416q15 1 16 16q0 20 -14 34q-14 13 -35 14v0z" />
    <glyph glyph-name="scale-balanced" unicode="&#x2696;" horiz-adv-x="640" 
d="M555 293q-15 27 -43 27v0q-28 0 -43 -27q-19 -37 -32 -64q-27 -53 -38 -75q-11 -23 -13 -30t-1 -12q1 -34 37 -57q37 -22 91 -23q54 1 90 23q36 23 37 57v1q0 6 -4 16t-22 46l-59 118v0zM439 128l72 144l72 -144h-144v0zM256 112v1v0q1 6 -3 16v0q-4 10 -22 45v0
q-18 36 -60 119q-15 27 -43 27t-43 -27q-19 -37 -32 -64q-27 -53 -38 -75q-11 -23 -13 -30t-1 -12q1 -34 37 -57q36 -22 90 -23q54 1 90 23q37 23 38 57v0zM128 272l72 -144h-144l72 144v0zM495 0h-143v295q37 17 46 57h114q14 0 22 9q9 9 9 23t-9 23t-22 9h-128
q-24 31 -64 32q-41 -1 -64 -32h-128q-14 0 -23 -9t-9 -23t9 -23t22 -9h114q9 -40 46 -57v-295h-143q-20 -1 -34 -14q-13 -14 -14 -34q1 -15 16 -16h416q15 1 16 16q0 20 -14 34q-14 13 -35 14v0z" />
    <glyph glyph-name="flower-daffodil" unicode="&#xf800;" 
d="M496 129h-47q-48 0 -89 -16q-41 -15 -72 -42v97q29 -12 57 -3t44 36q15 27 9 56t-30 48q19 14 27 36q8 21 3 45q-5 23 -21 39q-17 17 -40 22q-23 4 -45 -4t-36 -27q-14 19 -36 27t-46 3q-23 -5 -39 -21q-16 -17 -21 -40t3 -45t27 -36q-24 -19 -30 -48q-6 -28 9 -56
q16 -27 44 -36t57 3v-97q-31 27 -72 42q-41 16 -89 16l-47 1q-16 -2 -16 -17q10 -75 72 -125q62 -49 152 -51h64q90 2 152 51t72 124q-1 16 -16 18v0zM256 257q-20 0 -34 14v0q-13 14 -14 34q1 20 14 34q14 13 34 14q20 -1 34 -14q13 -14 14 -34q-1 -20 -14 -34
q-14 -14 -34 -14v0z" />
    <glyph glyph-name="flower-daffodil" unicode="&#x2698;" 
d="M496 129h-47q-48 0 -89 -16q-41 -15 -72 -42v97q29 -12 57 -3t44 36q15 27 9 56t-30 48q19 14 27 36q8 21 3 45q-5 23 -21 39q-17 17 -40 22q-23 4 -45 -4t-36 -27q-14 19 -36 27t-46 3q-23 -5 -39 -21q-16 -17 -21 -40t3 -45t27 -36q-24 -19 -30 -48q-6 -28 9 -56
q16 -27 44 -36t57 3v-97q-31 27 -72 42q-41 16 -89 16l-47 1q-16 -2 -16 -17q10 -75 72 -125q62 -49 152 -51h64q90 2 152 51t72 124q-1 16 -16 18v0zM256 257q-20 0 -34 14v0q-13 14 -14 34q1 20 14 34q14 13 34 14q20 -1 34 -14q13 -14 14 -34q-1 -20 -14 -34
q-14 -14 -34 -14v0z" />
    <glyph glyph-name="gear" unicode="&#xf013;" 
d="M500 116q-1 9 -9 14l-46 27q3 18 3 35t-3 35l46 27q8 5 8 14q0 8 -11 32q-11 23 -26 44q-15 22 -26 23q-5 0 -9 -2l-46 -27q-27 23 -61 35v54q-1 12 -13 16q-24 5 -51 5t-51 -5q-12 -4 -13 -16v-54q-34 -12 -61 -35l-46 27q-4 2 -9 2q-10 -1 -25 -22q-15 -20 -26 -44
q-12 -23 -12 -33q0 -9 8 -14l46 -27q-3 -17 -3 -35t3 -35l-46 -27q-8 -5 -8 -14q0 -8 11 -32q11 -23 26 -44q15 -22 26 -23q5 0 9 2l46 27q27 -23 61 -35v-54q1 -12 13 -16q25 -5 50 -5q26 0 52 5q12 5 13 16v54q34 12 61 35l46 -27q4 -2 9 -2q10 1 25 22q15 20 26 44
q12 23 13 33v0zM256 112q-34 1 -57 23v0q-22 23 -23 57q1 34 23 57q23 22 57 23q34 -1 57 -23q22 -23 23 -57q-1 -34 -23 -57q-23 -22 -57 -23v0z" />
    <glyph glyph-name="gear" unicode="&#x2699;" 
d="M500 116q-1 9 -9 14l-46 27q3 18 3 35t-3 35l46 27q8 5 8 14q0 8 -11 32q-11 23 -26 44q-15 22 -26 23q-5 0 -9 -2l-46 -27q-27 23 -61 35v54q-1 12 -13 16q-24 5 -51 5t-51 -5q-12 -4 -13 -16v-54q-34 -12 -61 -35l-46 27q-4 2 -9 2q-10 -1 -25 -22q-15 -20 -26 -44
q-12 -23 -12 -33q0 -9 8 -14l46 -27q-3 -17 -3 -35t3 -35l-46 -27q-8 -5 -8 -14q0 -8 11 -32q11 -23 26 -44q15 -22 26 -23q5 0 9 2l46 27q27 -23 61 -35v-54q1 -12 13 -16q25 -5 50 -5q26 0 52 5q12 5 13 16v54q34 12 61 35l46 -27q4 -2 9 -2q10 1 25 22q15 20 26 44
q12 23 13 33v0zM256 112q-34 1 -57 23v0q-22 23 -23 57q1 34 23 57q23 22 57 23q34 -1 57 -23q22 -23 23 -57q-1 -34 -23 -57q-23 -22 -57 -23v0z" />
    <glyph glyph-name="atom" unicode="&#xf5d2;" 
d="M256 224q-14 0 -23 -9v0q-9 -9 -10 -23q1 -14 10 -23t23 -9t23 9t9 23t-9 23t-23 9v0zM470 320q-7 16 -34 32v0q-26 15 -82 10q-16 39 -41 62q-24 23 -57 24q-33 -1 -57 -24q-25 -23 -41 -62q-56 5 -82 -10q-27 -16 -34 -32q-13 -22 -9 -54q5 -33 34 -74q-29 -41 -34 -74
q-4 -32 9 -54q15 -26 40 -34q24 -9 46 -9t30 1v0q16 -39 41 -62q24 -23 57 -24q33 1 57 24q25 23 41 62v0q8 -1 30 -1t46 9q25 9 40 34q13 22 9 54q-5 33 -34 74q29 41 34 74q4 32 -9 54v0zM95 96q-7 12 15 48q11 -9 22 -19q3 -20 7 -40q-38 0 -44 11v0zM132 259
q-11 -10 -22 -19q-21 36 -15 48q6 10 38 11h3h3q-4 -20 -7 -40v0zM256 384q15 -1 34 -37q-17 -6 -34 -13q-17 7 -34 13q19 36 34 37v0zM256 0q-15 1 -34 37q17 6 34 13q17 -7 34 -13q-19 -36 -34 -37v0zM256 112q-34 1 -57 23v0q-22 23 -23 57q1 34 23 57q23 22 57 23
q34 -1 57 -23q22 -23 23 -57q-1 -34 -23 -57q-23 -22 -57 -23v0zM417 96q-6 -11 -44 -11q4 19 7 40q11 10 22 19q22 -36 15 -48v0zM402 240q-11 10 -22 19q-3 20 -7 40h3q2 1 3 1q32 -2 38 -12q7 -12 -15 -48v0z" />
    <glyph glyph-name="atom" unicode="&#x269b;" 
d="M256 224q-14 0 -23 -9v0q-9 -9 -10 -23q1 -14 10 -23t23 -9t23 9t9 23t-9 23t-23 9v0zM470 320q-7 16 -34 32v0q-26 15 -82 10q-16 39 -41 62q-24 23 -57 24q-33 -1 -57 -24q-25 -23 -41 -62q-56 5 -82 -10q-27 -16 -34 -32q-13 -22 -9 -54q5 -33 34 -74q-29 -41 -34 -74
q-4 -32 9 -54q15 -26 40 -34q24 -9 46 -9t30 1v0q16 -39 41 -62q24 -23 57 -24q33 1 57 24q25 23 41 62v0q8 -1 30 -1t46 9q25 9 40 34q13 22 9 54q-5 33 -34 74q29 41 34 74q4 32 -9 54v0zM95 96q-7 12 15 48q11 -9 22 -19q3 -20 7 -40q-38 0 -44 11v0zM132 259
q-11 -10 -22 -19q-21 36 -15 48q6 10 38 11h3h3q-4 -20 -7 -40v0zM256 384q15 -1 34 -37q-17 -6 -34 -13q-17 7 -34 13q19 36 34 37v0zM256 0q-15 1 -34 37q17 6 34 13q17 -7 34 -13q-19 -36 -34 -37v0zM256 112q-34 1 -57 23v0q-22 23 -23 57q1 34 23 57q23 22 57 23
q34 -1 57 -23q22 -23 23 -57q-1 -34 -23 -57q-23 -22 -57 -23v0zM417 96q-6 -11 -44 -11q4 19 7 40q11 10 22 19q22 -36 15 -48v0zM402 240q-11 10 -22 19q-3 20 -7 40h3q2 1 3 1q32 -2 38 -12q7 -12 -15 -48v0z" />
    <glyph glyph-name="triangle-exclamation" unicode="&#xf071;" 
d="M506 31l-213 364q-14 21 -37 21t-37 -21l-213 -364q-12 -22 0 -42q11 -20 37 -21h426q26 1 37 21q12 20 0 42v0zM232 280q2 22 24 24q22 -2 24 -24v-128q-2 -22 -23 -24q-10 0 -17 7q-8 7 -8 17v128v0zM256 32q-13 0 -22 9v0q-9 9 -9 22q0 14 9 23t22 9t22 -9t9 -23
q0 -13 -9 -22t-22 -9v0z" />
    <glyph glyph-name="triangle-exclamation" unicode="&#x26a0;" 
d="M506 31l-213 364q-14 21 -37 21t-37 -21l-213 -364q-12 -22 0 -42q11 -20 37 -21h426q26 1 37 21q12 20 0 42v0zM232 280q2 22 24 24q22 -2 24 -24v-128q-2 -22 -23 -24q-10 0 -17 7q-8 7 -8 17v128v0zM256 32q-13 0 -22 9v0q-9 9 -9 22q0 14 9 23t22 9t22 -9t9 -23
q0 -13 -9 -22t-22 -9v0z" />
    <glyph glyph-name="bolt" unicode="&#xf0e7;" horiz-adv-x="384" 
d="M373 168l-255 -223q-11 -9 -22 -9q-10 0 -19 6q-19 16 -10 39l77 179h-112q-21 1 -30 21q-7 20 9 35l255 223q19 15 40 2q19 -16 11 -39l-77 -179h111q22 -1 30 -21q8 -19 -8 -34v0z" />
    <glyph glyph-name="bolt" unicode="&#x26a1;" horiz-adv-x="384" 
d="M373 168l-255 -223q-11 -9 -22 -9q-10 0 -19 6q-19 16 -10 39l77 179h-112q-21 1 -30 21q-7 20 9 35l255 223q19 15 40 2q19 -16 11 -39l-77 -179h111q22 -1 30 -21q8 -19 -8 -34v0z" />
    <glyph glyph-name="venus-double" unicode="&#xf226;" horiz-adv-x="640" 
d="M368 272q-2 75 -52 124v0q-49 50 -124 52q-75 -2 -124 -52q-50 -49 -52 -124q1 -66 41 -113t103 -59v-35h-48q-15 -2 -16 -16v-32q1 -15 16 -16h48v-48q1 -15 16 -16h32q15 1 16 16v48h48q15 1 16 16v32q-1 14 -16 16h-48v35q63 12 103 59t41 113v0zM192 176
q-41 1 -68 28v0q-27 27 -28 68q1 41 28 68t68 28q41 -1 68 -28t28 -68q-1 -41 -28 -68t-68 -28v0zM624 272q-2 75 -52 124v0q-49 50 -124 52q-59 -1 -104 -34q28 -30 43 -69q25 22 61 23q41 -1 68 -28t28 -68q-1 -41 -28 -68t-68 -28q-36 1 -62 23q-14 -38 -42 -68
q32 -24 72 -31v-36h-48q-15 -1 -16 -16v-32q1 -15 16 -16h48v-48q1 -15 16 -16h32q15 1 16 16v48h48q15 1 16 16v32q-1 15 -16 16h-48v35q63 13 103 60t41 113v0z" />
    <glyph glyph-name="venus-double" unicode="&#x26a2;" horiz-adv-x="640" 
d="M368 272q-2 75 -52 124v0q-49 50 -124 52q-75 -2 -124 -52q-50 -49 -52 -124q1 -66 41 -113t103 -59v-35h-48q-15 -2 -16 -16v-32q1 -15 16 -16h48v-48q1 -15 16 -16h32q15 1 16 16v48h48q15 1 16 16v32q-1 14 -16 16h-48v35q63 12 103 59t41 113v0zM192 176
q-41 1 -68 28v0q-27 27 -28 68q1 41 28 68t68 28q41 -1 68 -28t28 -68q-1 -41 -28 -68t-68 -28v0zM624 272q-2 75 -52 124v0q-49 50 -124 52q-59 -1 -104 -34q28 -30 43 -69q25 22 61 23q41 -1 68 -28t28 -68q-1 -41 -28 -68t-68 -28q-36 1 -62 23q-14 -38 -42 -68
q32 -24 72 -31v-36h-48q-15 -1 -16 -16v-32q1 -15 16 -16h48v-48q1 -15 16 -16h32q15 1 16 16v48h48q15 1 16 16v32q-1 15 -16 16h-48v35q63 13 103 60t41 113v0z" />
    <glyph glyph-name="mars-double" unicode="&#xf227;" horiz-adv-x="640" 
d="M321 244l56 56l30 -29q12 -11 26 -6q14 6 15 23v113q-1 14 -16 15h-113q-16 -1 -22 -15q-5 -13 5 -26l30 -30l-57 -56q-55 37 -119 30t-112 -57q-45 -54 -44 -121q1 -68 49 -120q54 -53 125 -53t126 52q46 47 51 109q5 61 -30 115v0zM244 76q-30 -28 -69 -28v0
q-38 0 -67 28q-29 30 -29 68t29 68q29 28 68 28q38 0 68 -28q28 -30 28 -68t-28 -68v0zM623 416h-113q-16 -1 -22 -15q-5 -13 5 -26l30 -30l-43 -44v-13q-1 -24 -16 -40q-16 -16 -40 -16h-8v-5q10 -6 20 -15q28 -30 28 -68t-28 -68q-30 -28 -68 -28h-5q-1 1 -2 1
q-15 -29 -38 -52q-9 -9 -19 -17q31 -12 64 -12q70 0 124 52q46 47 51 109q5 61 -30 115l56 56l30 -29q8 -8 17 -7q21 1 24 24v112q-1 15 -17 16v0z" />
    <glyph glyph-name="mars-double" unicode="&#x26a3;" horiz-adv-x="640" 
d="M321 244l56 56l30 -29q12 -11 26 -6q14 6 15 23v113q-1 14 -16 15h-113q-16 -1 -22 -15q-5 -13 5 -26l30 -30l-57 -56q-55 37 -119 30t-112 -57q-45 -54 -44 -121q1 -68 49 -120q54 -53 125 -53t126 52q46 47 51 109q5 61 -30 115v0zM244 76q-30 -28 -69 -28v0
q-38 0 -67 28q-29 30 -29 68t29 68q29 28 68 28q38 0 68 -28q28 -30 28 -68t-28 -68v0zM623 416h-113q-16 -1 -22 -15q-5 -13 5 -26l30 -30l-43 -44v-13q-1 -24 -16 -40q-16 -16 -40 -16h-8v-5q10 -6 20 -15q28 -30 28 -68t-28 -68q-30 -28 -68 -28h-5q-1 1 -2 1
q-15 -29 -38 -52q-9 -9 -19 -17q31 -12 64 -12q70 0 124 52q46 47 51 109q5 61 -30 115l56 56l30 -29q8 -8 17 -7q21 1 24 24v112q-1 15 -17 16v0z" />
    <glyph glyph-name="venus-mars" unicode="&#xf228;" horiz-adv-x="640" 
d="M256 64h-48v35q63 13 103 60t41 113q-2 75 -52 124q-49 50 -124 52q-75 -2 -124 -52q-50 -49 -52 -124q1 -66 41 -113t103 -59v-35h-48q-15 -2 -16 -16v-32q1 -15 16 -16h48v-48q1 -15 16 -16h32q15 1 16 16v48h48q15 1 16 16v32q-1 13 -16 15v0zM176 176q-41 1 -68 28v0
q-27 27 -28 68q1 41 28 68t68 28q41 -1 68 -28t28 -68q-1 -41 -28 -68t-68 -28v0zM624 448h-112q-17 -1 -23 -15q-5 -13 6 -26l29 -30l-24 -24q-47 31 -100 31q-23 0 -45 -6q20 -35 27 -76q9 2 18 2q38 0 68 -28q28 -30 28 -68t-28 -68q-30 -28 -68 -28q-37 0 -65 26
q-24 -29 -57 -47q18 -10 24 -29q45 -30 98 -30q70 0 125 52q45 47 50 109q5 61 -30 115l25 24l29 -29q8 -8 17 -7q21 1 24 24v112q-1 15 -16 16v0z" />
    <glyph glyph-name="venus-mars" unicode="&#x26a4;" horiz-adv-x="640" 
d="M256 64h-48v35q63 13 103 60t41 113q-2 75 -52 124q-49 50 -124 52q-75 -2 -124 -52q-50 -49 -52 -124q1 -66 41 -113t103 -59v-35h-48q-15 -2 -16 -16v-32q1 -15 16 -16h48v-48q1 -15 16 -16h32q15 1 16 16v48h48q15 1 16 16v32q-1 13 -16 15v0zM176 176q-41 1 -68 28v0
q-27 27 -28 68q1 41 28 68t68 28q41 -1 68 -28t28 -68q-1 -41 -28 -68t-68 -28v0zM624 448h-112q-17 -1 -23 -15q-5 -13 6 -26l29 -30l-24 -24q-47 31 -100 31q-23 0 -45 -6q20 -35 27 -76q9 2 18 2q38 0 68 -28q28 -30 28 -68t-28 -68q-30 -28 -68 -28q-37 0 -65 26
q-24 -29 -57 -47q18 -10 24 -29q45 -30 98 -30q70 0 125 52q45 47 50 109q5 61 -30 115l25 24l29 -29q8 -8 17 -7q21 1 24 24v112q-1 15 -16 16v0z" />
    <glyph glyph-name="mars-and-venus" unicode="&#x26a5;" 
d="M480 448h-112q-17 -1 -23 -15q-5 -13 6 -26l29 -30l-27 -27q-41 33 -97 34q-68 -2 -113 -47t-47 -113q1 -59 37 -102q35 -42 91 -55v-19h-32q-15 -1 -16 -16v-31q1 -15 16 -16h32v-32q1 -15 16 -16h32q15 1 16 16v32h32q15 1 16 16v31q-1 15 -16 16h-32v19q56 12 91 55
q36 43 37 102q-1 43 -21 78l30 30l30 -29q12 -11 26 -6q14 6 15 23v112q-1 15 -16 16v0zM256 144q-34 1 -57 23v0q-22 23 -23 57q1 34 23 57q23 22 57 23q34 -1 57 -23q22 -23 23 -57q-1 -34 -23 -57q-23 -22 -57 -23v0z" />
    <glyph glyph-name="mars-stroke" unicode="&#xf229;" 
d="M496 448h-112q-17 -1 -23 -15q-5 -13 6 -26l29 -30l-24 -24l-34 34q-11 9 -23 0l-22 -23q-10 -11 0 -22l34 -34l-19 -19q-54 35 -115 30q-62 -5 -109 -51q-52 -54 -52 -124t52 -124q54 -52 124 -52t124 52q46 47 51 109q5 61 -30 115l19 19l34 -34q11 -10 22 0l23 22
q9 12 0 23l-34 34l24 24l30 -29q12 -11 26 -6q14 6 15 23v112q-1 15 -16 16v0zM276 76q-30 -28 -68 -28v0q-38 0 -68 28q-28 30 -28 68t28 68q30 28 68 28t68 -28q28 -30 28 -68t-28 -68v0z" />
    <glyph glyph-name="mars-stroke" unicode="&#x26a6;" 
d="M496 448h-112q-17 -1 -23 -15q-5 -13 6 -26l29 -30l-24 -24l-34 34q-11 9 -23 0l-22 -23q-10 -11 0 -22l34 -34l-19 -19q-54 35 -115 30q-62 -5 -109 -51q-52 -54 -52 -124t52 -124q54 -52 124 -52t124 52q46 47 51 109q5 61 -30 115l19 19l34 -34q11 -10 22 0l23 22
q9 12 0 23l-34 34l24 24l30 -29q12 -11 26 -6q14 6 15 23v112q-1 15 -16 16v0zM276 76q-30 -28 -68 -28v0q-38 0 -68 28q-28 30 -28 68t28 68q30 28 68 28t68 -28q28 -30 28 -68t-28 -68v0z" />
    <glyph glyph-name="transgender" unicode="&#x26a7;" 
d="M499 448h-95q-14 -1 -18 -12q-5 -12 4 -22l21 -22l-67 -67q-38 26 -88 27q-50 -1 -88 -27l-16 17l6 6q9 11 0 22l-12 12q-11 9 -22 0l-6 -6l-17 16l21 22q9 10 4 22q-4 11 -18 12h-95q-12 -1 -13 -13v-95q1 -14 12 -18q12 -5 22 4l22 21l16 -17l-6 -6q-9 -11 0 -22
l12 -12q11 -9 22 0l6 6l17 -16q-26 -38 -27 -88q1 -59 37 -102q35 -42 91 -55v-19h-16q-15 -1 -16 -16v-15q1 -15 16 -16l16 -1v-16q1 -15 16 -16h32q15 1 16 16v16h16q15 1 16 16v15q-1 15 -16 16l-16 1v19q56 13 91 55q36 43 37 102q-1 50 -27 88l67 67l22 -21
q10 -9 22 -4q11 4 12 18v95q-2 12 -13 13v0zM256 112q-34 1 -57 23v0q-22 23 -23 57q1 34 23 57q23 22 57 23q34 -1 57 -23q22 -23 23 -57q-1 -34 -23 -57q-23 -22 -57 -23v0z" />
    <glyph glyph-name="mars-stroke-up" unicode="&#xf22a;" horiz-adv-x="384" 
d="M224 285v19h24q7 1 8 7v17q-1 7 -8 7h-24v17h25q12 1 17 11q4 11 -4 20l-61 61q-9 8 -18 0l-61 -61q-8 -9 -4 -20q5 -10 17 -11h25v-15h-24q-7 -1 -8 -7v-15q1 -7 8 -7h24v-19q-65 -14 -105 -64q-41 -50 -39 -119q6 -70 55 -117q48 -47 119 -49q75 -2 126 47
q50 49 52 125q-1 66 -41 113t-103 60v0zM192 17q-41 1 -68 28v0q-27 27 -28 67q1 40 28 67t68 28q41 -1 68 -28t28 -67q-1 -40 -28 -67t-68 -28v0z" />
    <glyph glyph-name="mars-stroke-up" unicode="&#x26a8;" horiz-adv-x="384" 
d="M224 285v19h24q7 1 8 7v17q-1 7 -8 7h-24v17h25q12 1 17 11q4 11 -4 20l-61 61q-9 8 -18 0l-61 -61q-8 -9 -4 -20q5 -10 17 -11h25v-15h-24q-7 -1 -8 -7v-15q1 -7 8 -7h24v-19q-65 -14 -105 -64q-41 -50 -39 -119q6 -70 55 -117q48 -47 119 -49q75 -2 126 47
q50 49 52 125q-1 66 -41 113t-103 60v0zM192 17q-41 1 -68 28v0q-27 27 -28 67q1 40 28 67t68 28q41 -1 68 -28t28 -67q-1 -40 -28 -67t-68 -28v0z" />
    <glyph glyph-name="mars-stroke-right" unicode="&#xf22b;" horiz-adv-x="640" 
d="M619 203l-82 78q-13 11 -26 5q-14 -6 -15 -22v-39l-33 -1v48q-1 15 -15 16h-32q-15 -1 -16 -16v-48h-19q-13 63 -60 103t-112 41q-76 -2 -125 -52q-50 -49 -52 -124q2 -75 52 -124q49 -50 124 -52q66 1 113 41t59 103h19v-48q2 -15 16 -16h32q14 1 15 16v49l34 -1v-40
q1 -16 15 -22q13 -6 26 5l82 78q10 11 0 22v0zM208 96q-41 1 -68 28v0q-27 27 -28 68q1 41 28 68t68 28q41 -1 67 -28q27 -27 28 -68q0 -41 -27 -68t-68 -28v0z" />
    <glyph glyph-name="mars-stroke-right" unicode="&#x26a9;" horiz-adv-x="640" 
d="M619 203l-82 78q-13 11 -26 5q-14 -6 -15 -22v-39l-33 -1v48q-1 15 -15 16h-32q-15 -1 -16 -16v-48h-19q-13 63 -60 103t-112 41q-76 -2 -125 -52q-50 -49 -52 -124q2 -75 52 -124q49 -50 124 -52q66 1 113 41t59 103h19v-48q2 -15 16 -16h32q14 1 15 16v49l34 -1v-40
q1 -16 15 -22q13 -6 26 5l82 78q10 11 0 22v0zM208 96q-41 1 -68 28v0q-27 27 -28 68q1 41 28 68t68 28q41 -1 67 -28q27 -27 28 -68q0 -41 -27 -68t-68 -28v0z" />
    <glyph glyph-name="coffin" unicode="&#xf6c6;" horiz-adv-x="448" 
d="M408 333l-108 106q-9 9 -23 9h-103q-14 0 -23 -9l-108 -106q-12 -13 -9 -31l88 -342q7 -23 31 -24h145q24 1 32 24l87 342q3 18 -9 31v0z" />
    <glyph glyph-name="coffin" unicode="&#x26b0;" horiz-adv-x="448" 
d="M408 333l-108 106q-9 9 -23 9h-103q-14 0 -23 -9l-108 -106q-12 -13 -9 -31l88 -342q7 -23 31 -24h145q24 1 32 24l87 342q3 18 -9 31v0z" />
    <glyph glyph-name="neuter" unicode="&#xf22c;" horiz-adv-x="384" 
d="M368 272q-2 75 -52 124v0q-49 50 -124 52q-75 -2 -124 -52q-50 -49 -52 -124q1 -66 41 -113t103 -59v-148q1 -15 16 -16h32q15 1 16 16v147q63 13 103 60t41 113v0zM192 176q-41 1 -68 28v0q-27 27 -28 68q1 41 28 67q27 27 68 28q41 -1 68 -28t28 -67q-1 -41 -28 -68
t-68 -28v0z" />
    <glyph glyph-name="neuter" unicode="&#x26b2;" horiz-adv-x="384" 
d="M368 272q-2 75 -52 124v0q-49 50 -124 52q-75 -2 -124 -52q-50 -49 -52 -124q1 -66 41 -113t103 -59v-148q1 -15 16 -16h32q15 1 16 16v147q63 13 103 60t41 113v0zM192 176q-41 1 -68 28v0q-27 27 -28 68q1 41 28 67q27 27 68 28q41 -1 68 -28t28 -67q-1 -41 -28 -68
t-68 -28v0z" />
    <glyph glyph-name="futbol" unicode="&#xf1e3;" 
d="M177 219l31 -91h96l30 91l-78 57l-79 -57v0zM255 448q-71 -1 -128 -35v0q-58 -34 -92 -92v0q-34 -57 -35 -129q1 -72 35 -129q34 -58 92 -92q57 -34 129 -35q71 1 129 35q57 34 91 92q34 57 35 128q-1 71 -35 129t-91 93q-58 34 -130 35v0zM417 87l-86 1l-25 -81
q-24 -7 -50 -7t-50 7l-25 81l-86 -1q-27 42 -30 95l69 50l-27 80q32 40 81 59l68 -51l68 51q49 -19 81 -59l-27 -80l69 -50q-3 -53 -30 -95v0z" />
    <glyph glyph-name="futbol" unicode="&#x26bd;" 
d="M177 219l31 -91h96l30 91l-78 57l-79 -57v0zM255 448q-71 -1 -128 -35v0q-58 -34 -92 -92v0q-34 -57 -35 -129q1 -72 35 -129q34 -58 92 -92q57 -34 129 -35q71 1 129 35q57 34 91 92q34 57 35 128q-1 71 -35 129t-91 93q-58 34 -130 35v0zM417 87l-86 1l-25 -81
q-24 -7 -50 -7t-50 7l-25 81l-86 -1q-27 42 -30 95l69 50l-27 80q32 40 81 59l68 -51l68 51q49 -19 81 -59l-27 -80l69 -50q-3 -53 -30 -95v0z" />
    <glyph glyph-name="baseball" unicode="&#x1f94e;" 
d="M430 175q0 12 9 15v0q10 2 21 2h3q25 0 49 -6v3v3q-1 72 -35 129q-34 58 -92 92q-57 34 -129 35h-4h-2q6 -24 6 -48q0 -9 -1 -18q-2 -13 -16 -15q-5 0 -10 4t-6 12v3q1 4 1 14q0 23 -6 45q-85 -14 -143 -72q-58 -59 -72 -143q22 -6 45 -6q10 0 14 1h3q5 0 11 -4
q5 -4 5 -12q0 -12 -9 -15q-10 -3 -20 -2h-4q-24 0 -48 6v-1v-5q1 -72 35 -129q34 -58 92 -92q57 -34 129 -35h3h3q-6 24 -6 48q0 8 1 17q2 14 16 14q13 -1 16 -15q0 -2 -1 -3v-13q0 -23 6 -45q85 14 143 72t72 143q-22 6 -45 6q-11 0 -15 -1h-3q-3 0 -9 3q-7 3 -7 13v0z
M238 319q-1 -15 -21 -40v0q-20 -26 -46 -46v0q-25 -21 -41 -22q-15 1 -16 16q0 10 9 14q36 19 53 39t25 35q9 20 21 21q9 -1 13 -7q3 -6 3 -10v0zM398 157q-1 -9 -10 -14q-35 -18 -52 -38t-25 -36q-10 -20 -22 -21q-9 1 -12 6q-4 6 -4 10q2 15 22 41q20 25 45 46t42 22
q14 -1 16 -16v0z" />
    <glyph glyph-name="baseball" unicode="&#xf433;" 
d="M430 175q0 12 9 15v0q10 2 21 2h3q25 0 49 -6v3v3q-1 72 -35 129q-34 58 -92 92q-57 34 -129 35h-4h-2q6 -24 6 -48q0 -9 -1 -18q-2 -13 -16 -15q-5 0 -10 4t-6 12v3q1 4 1 14q0 23 -6 45q-85 -14 -143 -72q-58 -59 -72 -143q22 -6 45 -6q10 0 14 1h3q5 0 11 -4
q5 -4 5 -12q0 -12 -9 -15q-10 -3 -20 -2h-4q-24 0 -48 6v-1v-5q1 -72 35 -129q34 -58 92 -92q57 -34 129 -35h3h3q-6 24 -6 48q0 8 1 17q2 14 16 14q13 -1 16 -15q0 -2 -1 -3v-13q0 -23 6 -45q85 14 143 72t72 143q-22 6 -45 6q-11 0 -15 -1h-3q-3 0 -9 3q-7 3 -7 13v0z
M238 319q-1 -15 -21 -40v0q-20 -26 -46 -46v0q-25 -21 -41 -22q-15 1 -16 16q0 10 9 14q36 19 53 39t25 35q9 20 21 21q9 -1 13 -7q3 -6 3 -10v0zM398 157q-1 -9 -10 -14q-35 -18 -52 -38t-25 -36q-10 -20 -22 -21q-9 1 -12 6q-4 6 -4 10q2 15 22 41q20 25 45 46t42 22
q14 -1 16 -16v0z" />
    <glyph glyph-name="baseball" unicode="&#x26be;" 
d="M430 175q0 12 9 15v0q10 2 21 2h3q25 0 49 -6v3v3q-1 72 -35 129q-34 58 -92 92q-57 34 -129 35h-4h-2q6 -24 6 -48q0 -9 -1 -18q-2 -13 -16 -15q-5 0 -10 4t-6 12v3q1 4 1 14q0 23 -6 45q-85 -14 -143 -72q-58 -59 -72 -143q22 -6 45 -6q10 0 14 1h3q5 0 11 -4
q5 -4 5 -12q0 -12 -9 -15q-10 -3 -20 -2h-4q-24 0 -48 6v-1v-5q1 -72 35 -129q34 -58 92 -92q57 -34 129 -35h3h3q-6 24 -6 48q0 8 1 17q2 14 16 14q13 -1 16 -15q0 -2 -1 -3v-13q0 -23 6 -45q85 14 143 72t72 143q-22 6 -45 6q-11 0 -15 -1h-3q-3 0 -9 3q-7 3 -7 13v0z
M238 319q-1 -15 -21 -40v0q-20 -26 -46 -46v0q-25 -21 -41 -22q-15 1 -16 16q0 10 9 14q36 19 53 39t25 35q9 20 21 21q9 -1 13 -7q3 -6 3 -10v0zM398 157q-1 -9 -10 -14q-35 -18 -52 -38t-25 -36q-10 -20 -22 -21q-9 1 -12 6q-4 6 -4 10q2 15 22 41q20 25 45 46t42 22
q14 -1 16 -16v0z" />
    <glyph glyph-name="cloud-sun" unicode="&#xf6c4;" horiz-adv-x="640" 
d="M96 240q1 48 33 79v0q31 31 78 32q40 -1 70 -24q29 -24 39 -61q28 14 59 14q7 0 14 -1l24 35q6 14 -8 19l-88 16l-16 89q-5 14 -19 8l-74 -52l-74 52q-14 6 -19 -8l-16 -89l-89 -16q-14 -5 -8 -19l52 -74l-52 -74q-6 -14 8 -19l89 -16l16 -89q5 -14 19 -8l11 8
q5 54 46 88q-41 7 -68 37q-26 30 -27 73v0zM128 240q1 -34 23 -57v0q23 -22 57 -23q15 0 28 5q11 52 51 84q-4 30 -26 50q-21 20 -53 21q-34 -1 -57 -23q-22 -23 -23 -57v0zM575 122q0 2 1 3v0v3q-1 27 -19 45t-44 19q-19 0 -34 -10q-14 30 -41 47q-27 18 -61 18
q-48 -1 -79 -33q-32 -31 -33 -78v-5q1 -2 1 -4q-38 -3 -63 -30q-25 -26 -26 -65q0 -41 26 -68q27 -27 68 -28h272q41 1 68 28t28 68q0 32 -18 56q-17 24 -46 34v0z" />
    <glyph glyph-name="cloud-sun" unicode="&#x26c5;" horiz-adv-x="640" 
d="M96 240q1 48 33 79v0q31 31 78 32q40 -1 70 -24q29 -24 39 -61q28 14 59 14q7 0 14 -1l24 35q6 14 -8 19l-88 16l-16 89q-5 14 -19 8l-74 -52l-74 52q-14 6 -19 -8l-16 -89l-89 -16q-14 -5 -8 -19l52 -74l-52 -74q-6 -14 8 -19l89 -16l16 -89q5 -14 19 -8l11 8
q5 54 46 88q-41 7 -68 37q-26 30 -27 73v0zM128 240q1 -34 23 -57v0q23 -22 57 -23q15 0 28 5q11 52 51 84q-4 30 -26 50q-21 20 -53 21q-34 -1 -57 -23q-22 -23 -23 -57v0zM575 122q0 2 1 3v0v3q-1 27 -19 45t-44 19q-19 0 -34 -10q-14 30 -41 47q-27 18 -61 18
q-48 -1 -79 -33q-32 -31 -33 -78v-5q1 -2 1 -4q-38 -3 -63 -30q-25 -26 -26 -65q0 -41 26 -68q27 -27 68 -28h272q41 1 68 28t28 68q0 32 -18 56q-17 24 -46 34v0z" />
    <glyph glyph-name="cloud-rain" unicode="&#x1f327;" 
d="M416 320h-1v0h-1q2 8 2 16q-1 34 -23 57q-23 22 -57 23q-38 -1 -61 -29q-14 28 -40 44q-26 17 -59 17q-48 -1 -79 -33q-32 -31 -33 -79q0 -11 2 -21q-29 -10 -47 -34q-18 -25 -19 -57q1 -41 28 -68t68 -28h320q41 1 68 28t28 68q-1 41 -28 68t-68 28v0zM368 -16
q1 -20 14 -34v0q14 -13 34 -14q20 1 34 14q13 14 14 34q-1 14 -12 36q-12 23 -24 40q-11 18 -12 19q-1 -1 -12 -19q-12 -17 -24 -40q-11 -22 -12 -36v0zM48 -16q1 -20 14 -34v0q14 -13 34 -14q20 1 34 14q13 14 14 34q-1 14 -12 36q-12 23 -24 40q-11 18 -12 19
q-1 -1 -12 -19q-12 -17 -24 -40q-11 -22 -12 -36v0zM208 -16q1 -20 14 -34v0q14 -13 34 -14q20 1 34 14q13 14 14 34q-1 14 -12 36q-12 23 -24 40q-11 18 -12 19q-1 -1 -12 -19q-12 -17 -24 -40q-11 -22 -12 -36v0z" />
    <glyph glyph-name="cloud-rain" unicode="&#xf73d;" 
d="M416 320h-1v0h-1q2 8 2 16q-1 34 -23 57q-23 22 -57 23q-38 -1 -61 -29q-14 28 -40 44q-26 17 -59 17q-48 -1 -79 -33q-32 -31 -33 -79q0 -11 2 -21q-29 -10 -47 -34q-18 -25 -19 -57q1 -41 28 -68t68 -28h320q41 1 68 28t28 68q-1 41 -28 68t-68 28v0zM368 -16
q1 -20 14 -34v0q14 -13 34 -14q20 1 34 14q13 14 14 34q-1 14 -12 36q-12 23 -24 40q-11 18 -12 19q-1 -1 -12 -19q-12 -17 -24 -40q-11 -22 -12 -36v0zM48 -16q1 -20 14 -34v0q14 -13 34 -14q20 1 34 14q13 14 14 34q-1 14 -12 36q-12 23 -24 40q-11 18 -12 19
q-1 -1 -12 -19q-12 -17 -24 -40q-11 -22 -12 -36v0zM208 -16q1 -20 14 -34v0q14 -13 34 -14q20 1 34 14q13 14 14 34q-1 14 -12 36q-12 23 -24 40q-11 18 -12 19q-1 -1 -12 -19q-12 -17 -24 -40q-11 -22 -12 -36v0z" />
    <glyph glyph-name="cloud-rain" unicode="&#x26c6;" 
d="M416 320h-1v0h-1q2 8 2 16q-1 34 -23 57q-23 22 -57 23q-38 -1 -61 -29q-14 28 -40 44q-26 17 -59 17q-48 -1 -79 -33q-32 -31 -33 -79q0 -11 2 -21q-29 -10 -47 -34q-18 -25 -19 -57q1 -41 28 -68t68 -28h320q41 1 68 28t28 68q-1 41 -28 68t-68 28v0zM368 -16
q1 -20 14 -34v0q14 -13 34 -14q20 1 34 14q13 14 14 34q-1 14 -12 36q-12 23 -24 40q-11 18 -12 19q-1 -1 -12 -19q-12 -17 -24 -40q-11 -22 -12 -36v0zM48 -16q1 -20 14 -34v0q14 -13 34 -14q20 1 34 14q13 14 14 34q-1 14 -12 36q-12 23 -24 40q-11 18 -12 19
q-1 -1 -12 -19q-12 -17 -24 -40q-11 -22 -12 -36v0zM208 -16q1 -20 14 -34v0q14 -13 34 -14q20 1 34 14q13 14 14 34q-1 14 -12 36q-12 23 -24 40q-11 18 -12 19q-1 -1 -12 -19q-12 -17 -24 -40q-11 -22 -12 -36v0z" />
    <glyph glyph-name="truck" unicode="&#x1f69a;" horiz-adv-x="640" 
d="M624 96h-16v115q0 26 -19 45l-77 77q-19 19 -45 19h-51v48q-1 20 -14 34q-14 13 -34 14h-320q-20 -1 -34 -14q-13 -14 -14 -34v-320q1 -20 14 -34q14 -13 34 -14h16q1 -41 28 -68t68 -28q41 1 68 28t28 68h128q1 -41 28 -68t68 -28q41 1 68 28t28 68h48q15 1 16 16v32
q-1 15 -16 16v0zM160 -16q-20 1 -34 14v0q-13 14 -14 34q1 20 14 34q14 13 34 14q20 -1 34 -14q13 -14 14 -34q-1 -20 -14 -34q-14 -13 -34 -14v0zM416 288h51l77 -77v-19h-128v96v0zM480 -16q-20 1 -34 14v0q-13 14 -14 34q1 20 14 34q14 13 34 14q20 -1 34 -14
q13 -14 14 -34q-1 -20 -14 -34q-14 -13 -34 -14v0z" />
    <glyph glyph-name="truck" unicode="&#xf0d1;" horiz-adv-x="640" 
d="M624 96h-16v115q0 26 -19 45l-77 77q-19 19 -45 19h-51v48q-1 20 -14 34q-14 13 -34 14h-320q-20 -1 -34 -14q-13 -14 -14 -34v-320q1 -20 14 -34q14 -13 34 -14h16q1 -41 28 -68t68 -28q41 1 68 28t28 68h128q1 -41 28 -68t68 -28q41 1 68 28t28 68h48q15 1 16 16v32
q-1 15 -16 16v0zM160 -16q-20 1 -34 14v0q-13 14 -14 34q1 20 14 34q14 13 34 14q20 -1 34 -14q13 -14 14 -34q-1 -20 -14 -34q-14 -13 -34 -14v0zM416 288h51l77 -77v-19h-128v96v0zM480 -16q-20 1 -34 14v0q-13 14 -14 34q1 20 14 34q14 13 34 14q20 -1 34 -14
q13 -14 14 -34q-1 -20 -14 -34q-14 -13 -34 -14v0z" />
    <glyph glyph-name="truck" unicode="&#x26df;" horiz-adv-x="640" 
d="M624 96h-16v115q0 26 -19 45l-77 77q-19 19 -45 19h-51v48q-1 20 -14 34q-14 13 -34 14h-320q-20 -1 -34 -14q-13 -14 -14 -34v-320q1 -20 14 -34q14 -13 34 -14h16q1 -41 28 -68t68 -28q41 1 68 28t28 68h128q1 -41 28 -68t68 -28q41 1 68 28t28 68h48q15 1 16 16v32
q-1 15 -16 16v0zM160 -16q-20 1 -34 14v0q-13 14 -14 34q1 20 14 34q14 13 34 14q20 -1 34 -14q13 -14 14 -34q-1 -20 -14 -34q-14 -13 -34 -14v0zM416 288h51l77 -77v-19h-128v96v0zM480 -16q-20 1 -34 14v0q-13 14 -14 34q1 20 14 34q14 13 34 14q20 -1 34 -14
q13 -14 14 -34q-1 -20 -14 -34q-14 -13 -34 -14v0z" />
    <glyph glyph-name="shield-cross" unicode="&#xf712;" 
d="M467 364l-192 80q-9 4 -19 4q-9 0 -18 -4l-192 -80q-29 -13 -30 -43q3 -129 51 -215q48 -85 104 -128q57 -42 85 -42q29 0 85 43q56 42 104 128t51 214q-1 30 -29 43v0zM421 224h-133v-204q-17 -12 -32 -19q-16 8 -32 18v205h-133q-7 30 -10 64h143v81l32 14l32 -14v-81
h143q0 -1 -1 -2q-3 -33 -9 -62v0z" />
    <glyph glyph-name="shield-cross" unicode="&#x26e8;" 
d="M467 364l-192 80q-9 4 -19 4q-9 0 -18 -4l-192 -80q-29 -13 -30 -43q3 -129 51 -215q48 -85 104 -128q57 -42 85 -42q29 0 85 43q56 42 104 128t51 214q-1 30 -29 43v0zM421 224h-133v-204q-17 -12 -32 -19q-16 8 -32 18v205h-133q-7 30 -10 64h143v81l32 14l32 -14v-81
h143q0 -1 -1 -2q-3 -33 -9 -62v0z" />
    <glyph glyph-name="torii-gate" unicode="&#xf6a1;" 
d="M480 320q14 0 23 9v0q9 9 9 23v96q-64 -32 -135 -32h-241q-72 0 -136 32v-96q0 -14 9 -23t23 -9h32v-64h-48q-15 -1 -16 -16v-32q2 -15 15 -16h49v-240q1 -15 16 -16h32q15 1 16 16v240h256v-240q1 -15 16 -16h32q15 1 16 16v240h48q15 1 16 16v32q-1 15 -16 16h-48v64
h32v0zM224 256h-96v64h96v-64v0zM384 256h-96v64h96v-64v0z" />
    <glyph glyph-name="torii-gate" unicode="&#x26e9;" 
d="M480 320q14 0 23 9v0q9 9 9 23v96q-64 -32 -135 -32h-241q-72 0 -136 32v-96q0 -14 9 -23t23 -9h32v-64h-48q-15 -1 -16 -16v-32q2 -15 15 -16h49v-240q1 -15 16 -16h32q15 1 16 16v240h256v-240q1 -15 16 -16h32q15 1 16 16v240h48q15 1 16 16v32q-1 15 -16 16h-48v64
h32v0zM224 256h-96v64h96v-64v0zM384 256h-96v64h96v-64v0z" />
    <glyph glyph-name="church" unicode="&#xf51d;" horiz-adv-x="640" 
d="M465 201l-113 68v51h48q15 1 16 16v32q-1 15 -16 16h-48v48q-1 15 -16 16h-32q-15 -1 -16 -16v-48h-48q-15 -1 -16 -16v-32q1 -15 16 -16h48v-51l-112 -68q-15 -9 -16 -27v-238h96v96q1 27 19 45t45 19q27 -1 45 -19t19 -45v-96h96v238q-1 18 -15 27v0zM0 52v-84
q0 -14 9 -23t23 -9h96v192l-109 -47q-18 -8 -19 -29v0zM621 81l-109 47v-192h96q14 0 23 9t9 23v84q-1 21 -19 29v0z" />
    <glyph glyph-name="church" unicode="&#x26ea;" horiz-adv-x="640" 
d="M465 201l-113 68v51h48q15 1 16 16v32q-1 15 -16 16h-48v48q-1 15 -16 16h-32q-15 -1 -16 -16v-48h-48q-15 -1 -16 -16v-32q1 -15 16 -16h48v-51l-112 -68q-15 -9 -16 -27v-238h96v96q1 27 19 45t45 19q27 -1 45 -19t19 -45v-96h96v238q-1 18 -15 27v0zM0 52v-84
q0 -14 9 -23t23 -9h96v192l-109 -47q-18 -8 -19 -29v0zM621 81l-109 47v-192h96q14 0 23 9t9 23v84q-1 21 -19 29v0z" />
    <glyph glyph-name="mountains" unicode="&#xf6fd;" horiz-adv-x="640" 
d="M576 -32h-520q-34 2 -49 29t2 57l223 350q9 12 24 12t24 -12l130 -203l40 63q10 15 27 15q16 0 27 -15l126 -198q19 -34 2 -65t-56 -33v0z" />
    <glyph glyph-name="mountains" unicode="&#x26f0;" horiz-adv-x="640" 
d="M576 -32h-520q-34 2 -49 29t2 57l223 350q9 12 24 12t24 -12l130 -203l40 63q10 15 27 15q16 0 27 -15l126 -198q19 -34 2 -65t-56 -33v0z" />
    <glyph glyph-name="person-skiing" unicode="&#xf7c9;" 
d="M432 352q20 0 34 14v0q14 14 14 34t-14 34q-14 13 -34 14q-20 -1 -34 -14q-13 -14 -14 -34q1 -20 14 -34q14 -14 34 -14v0zM511 -21q-2 22 -24 24q-12 -1 -18 -8q-8 -10 -28 -11q-8 0 -16 3l-136 70l50 74q8 13 8 27q0 19 -14 34l-41 40l-106 53q-1 -4 -1 -9
q1 -26 19 -45l75 -75l-46 -69l-198 102q-5 3 -11 3q-23 -3 -24 -24q0 -14 13 -21l392 -203q18 -8 37 -8q29 1 49 15q19 14 20 28v0zM119 356l-10 -22q8 -4 17 -4q14 0 25 9l48 -24h-1v0l115 -57l32 13l7 -19q6 -19 24 -28l58 -28q7 -3 14 -3q14 0 23 10q9 9 9 22
q0 19 -18 28l-52 27l-17 51q-5 15 -21 28q-15 14 -39 15q-11 0 -24 -5l-82 -32l-62 31v1q0 22 -21 34l-11 -21l-35 7h-1q-4 -1 -5 -6q0 -2 2 -4l25 -23v0z" />
    <glyph glyph-name="person-skiing" unicode="&#x26f7;" 
d="M432 352q20 0 34 14v0q14 14 14 34t-14 34q-14 13 -34 14q-20 -1 -34 -14q-13 -14 -14 -34q1 -20 14 -34q14 -14 34 -14v0zM511 -21q-2 22 -24 24q-12 -1 -18 -8q-8 -10 -28 -11q-8 0 -16 3l-136 70l50 74q8 13 8 27q0 19 -14 34l-41 40l-106 53q-1 -4 -1 -9
q1 -26 19 -45l75 -75l-46 -69l-198 102q-5 3 -11 3q-23 -3 -24 -24q0 -14 13 -21l392 -203q18 -8 37 -8q29 1 49 15q19 14 20 28v0zM119 356l-10 -22q8 -4 17 -4q14 0 25 9l48 -24h-1v0l115 -57l32 13l7 -19q6 -19 24 -28l58 -28q7 -3 14 -3q14 0 23 10q9 9 9 22
q0 19 -18 28l-52 27l-17 51q-5 15 -21 28q-15 14 -39 15q-11 0 -24 -5l-82 -32l-62 31v1q0 22 -21 34l-11 -21l-35 7h-1q-4 -1 -5 -6q0 -2 2 -4l25 -23v0z" />
    <glyph glyph-name="ice-skate" unicode="&#xf7ac;" horiz-adv-x="576" 
d="M64 64h416q14 0 23 9t9 23v37q-1 34 -20 59q-20 25 -53 34l-119 30h-48q-15 1 -16 16q1 15 16 16h48v32h-48q-15 1 -16 16q1 15 16 16h48v80q-1 15 -16 16h-31q-15 -1 -16 -16v-16l-179 -51q-21 -6 -33 -23q-13 -16 -13 -38v-208q0 -14 9 -23t23 -9v0zM552 32
q-22 -2 -24 -23q-2 -23 -24 -25h-71v48h-48v-48h-240l-1 48h-48v-48h-64q-13 0 -22 -9t-9 -22q0 -11 6 -14t9 -3h496q27 1 45 19t19 45v9q-2 21 -24 23v0z" />
    <glyph glyph-name="ice-skate" unicode="&#x26f8;" horiz-adv-x="576" 
d="M64 64h416q14 0 23 9t9 23v37q-1 34 -20 59q-20 25 -53 34l-119 30h-48q-15 1 -16 16q1 15 16 16h48v32h-48q-15 1 -16 16q1 15 16 16h48v80q-1 15 -16 16h-31q-15 -1 -16 -16v-16l-179 -51q-21 -6 -33 -23q-13 -16 -13 -38v-208q0 -14 9 -23t23 -9v0zM552 32
q-22 -2 -24 -23q-2 -23 -24 -25h-71v48h-48v-48h-240l-1 48h-48v-48h-64q-13 0 -22 -9t-9 -22q0 -11 6 -14t9 -3h496q27 1 45 19t19 45v9q-2 21 -24 23v0z" />
    <glyph glyph-name="campground" unicode="&#xf6bb;" horiz-adv-x="576" 
d="M328 330l53 74q7 12 -4 22l-25 19q-13 7 -23 -4l-41 -56l-41 56q-10 11 -22 4l-26 -19q-11 -9 -4 -22l54 -74l-243 -322q-6 -8 -6 -19v-21q0 -14 9 -22q9 -9 23 -9h512q14 0 23 9t9 22v21q0 11 -6 20l-242 321v0zM288 160l116 -159h-232l116 159v0z" />
    <glyph glyph-name="campground" unicode="&#x26fa;" horiz-adv-x="576" 
d="M328 330l53 74q7 12 -4 22l-25 19q-13 7 -23 -4l-41 -56l-41 56q-10 11 -22 4l-26 -19q-11 -9 -4 -22l54 -74l-243 -322q-6 -8 -6 -19v-21q0 -14 9 -22q9 -9 23 -9h512q14 0 23 9t9 22v21q0 11 -6 20l-242 321v0zM288 160l116 -159h-232l116 159v0z" />
    <glyph glyph-name="gas-pump" unicode="&#xf52f;" 
d="M336 0h-320q-15 -1 -16 -16v-32q1 -15 16 -16h320q15 1 16 16v32q-1 15 -16 16v0zM493 341l-81 81q-11 9 -22 0l-12 -12q-9 -11 0 -22l38 -38v-62q0 -22 14 -37q13 -15 34 -18v-161q-2 -22 -24 -24q-22 2 -24 24v32q-1 37 -26 62t-62 26h-7v192q-1 27 -19 45t-45 19h-161
q-27 -1 -45 -19t-19 -45v-352h288v112h8q17 0 28 -12q12 -11 12 -28v-28q1 -29 18 -50q18 -22 47 -26q33 -2 55 19q23 20 24 53v223q0 27 -19 46v0zM256 256h-160v128h159v-128h1z" />
    <glyph glyph-name="gas-pump" unicode="&#x26fd;" 
d="M336 0h-320q-15 -1 -16 -16v-32q1 -15 16 -16h320q15 1 16 16v32q-1 15 -16 16v0zM493 341l-81 81q-11 9 -22 0l-12 -12q-9 -11 0 -22l38 -38v-62q0 -22 14 -37q13 -15 34 -18v-161q-2 -22 -24 -24q-22 2 -24 24v32q-1 37 -26 62t-62 26h-7v192q-1 27 -19 45t-45 19h-161
q-27 -1 -45 -19t-19 -45v-352h288v112h8q17 0 28 -12q12 -11 12 -28v-28q1 -29 18 -50q18 -22 47 -26q33 -2 55 19q23 20 24 53v223q0 27 -19 46v0zM256 256h-160v128h159v-128h1z" />
    <glyph glyph-name="scissors" unicode="&#xf0c4;" 
d="M336 170l-68 -68l126 -127q25 -23 57 -23t56 23q10 12 0 23l-171 172v0zM507 386q10 11 0 23q-24 23 -56 23t-57 -23l-148 -149l-32 31q14 32 8 65t-31 59q-34 33 -80 33q-45 0 -78 -33q-33 -34 -33 -79t33 -79q35 -33 78 -33q15 0 29 4l38 -36l-37 -36q-14 4 -30 4
q-45 0 -79 -33q-33 -34 -33 -79t33 -79q36 -33 79 -33q44 0 79 33q25 26 31 59t-8 65l294 293v0zM112 288q-20 1 -34 14v0q-13 14 -14 34q1 20 14 34q14 13 34 14q20 -1 34 -14q13 -14 14 -34q-1 -20 -14 -34q-14 -13 -34 -14v0zM112 0q-20 1 -34 14v0q-13 14 -14 34
q1 20 14 34q14 13 34 14q20 -1 34 -14q13 -14 14 -34q-1 -20 -14 -34q-14 -13 -34 -14v0z" />
    <glyph glyph-name="scissors" unicode="&#x2704;" 
d="M336 170l-68 -68l126 -127q25 -23 57 -23t56 23q10 12 0 23l-171 172v0zM507 386q10 11 0 23q-24 23 -56 23t-57 -23l-148 -149l-32 31q14 32 8 65t-31 59q-34 33 -80 33q-45 0 -78 -33q-33 -34 -33 -79t33 -79q35 -33 78 -33q15 0 29 4l38 -36l-37 -36q-14 4 -30 4
q-45 0 -79 -33q-33 -34 -33 -79t33 -79q36 -33 79 -33q44 0 79 33q25 26 31 59t-8 65l294 293v0zM112 288q-20 1 -34 14v0q-13 14 -14 34q1 20 14 34q14 13 34 14q20 -1 34 -14q13 -14 14 -34q-1 -20 -14 -34q-14 -13 -34 -14v0zM112 0q-20 1 -34 14v0q-13 14 -14 34
q1 20 14 34q14 13 34 14q20 -1 34 -14q13 -14 14 -34q-1 -20 -14 -34q-14 -13 -34 -14v0z" />
    <glyph glyph-name="scissors" unicode="&#x2702;" 
d="M336 170l-68 -68l126 -127q25 -23 57 -23t56 23q10 12 0 23l-171 172v0zM507 386q10 11 0 23q-24 23 -56 23t-57 -23l-148 -149l-32 31q14 32 8 65t-31 59q-34 33 -80 33q-45 0 -78 -33q-33 -34 -33 -79t33 -79q35 -33 78 -33q15 0 29 4l38 -36l-37 -36q-14 4 -30 4
q-45 0 -79 -33q-33 -34 -33 -79t33 -79q36 -33 79 -33q44 0 79 33q25 26 31 59t-8 65l294 293v0zM112 288q-20 1 -34 14v0q-13 14 -14 34q1 20 14 34q14 13 34 14q20 -1 34 -14q13 -14 14 -34q-1 -20 -14 -34q-14 -13 -34 -14v0zM112 0q-20 1 -34 14v0q-13 14 -14 34
q1 20 14 34q14 13 34 14q20 -1 34 -14q13 -14 14 -34q-1 -20 -14 -34q-14 -13 -34 -14v0z" />
    <glyph glyph-name="scissors" unicode="&#x2700;" 
d="M336 170l-68 -68l126 -127q25 -23 57 -23t56 23q10 12 0 23l-171 172v0zM507 386q10 11 0 23q-24 23 -56 23t-57 -23l-148 -149l-32 31q14 32 8 65t-31 59q-34 33 -80 33q-45 0 -78 -33q-33 -34 -33 -79t33 -79q35 -33 78 -33q15 0 29 4l38 -36l-37 -36q-14 4 -30 4
q-45 0 -79 -33q-33 -34 -33 -79t33 -79q36 -33 79 -33q44 0 79 33q25 26 31 59t-8 65l294 293v0zM112 288q-20 1 -34 14v0q-13 14 -14 34q1 20 14 34q14 13 34 14q20 -1 34 -14q13 -14 14 -34q-1 -20 -14 -34q-14 -13 -34 -14v0zM112 0q-20 1 -34 14v0q-13 14 -14 34
q1 20 14 34q14 13 34 14q20 -1 34 -14q13 -14 14 -34q-1 -20 -14 -34q-14 -13 -34 -14v0z" />
    <glyph glyph-name="plane-engines" unicode="&#xf3de;" horiz-adv-x="576" 
d="M576 192q-3 -27 -35 -45v0q-32 -18 -61 -19h-114l-37 -64h7q15 -1 16 -16v-32q-1 -15 -16 -16h-43l-32 -56q-5 -8 -14 -8h-66q-18 3 -15 20l49 172h-104l-43 -58q-4 -6 -12 -6h-40q-17 2 -16 20l23 78q-21 7 -23 30q2 23 23 30l-23 78q-1 18 16 20h40q8 0 13 -6l42 -58
h103l-48 172q-3 17 15 20h66q9 -1 14 -8l32 -56h43q15 -1 16 -16v-32q-1 -15 -16 -16h-7l37 -64h114q29 -1 61 -19t35 -45v0z" />
    <glyph glyph-name="plane-engines" unicode="&#x2708;" horiz-adv-x="576" 
d="M576 192q-3 -27 -35 -45v0q-32 -18 -61 -19h-114l-37 -64h7q15 -1 16 -16v-32q-1 -15 -16 -16h-43l-32 -56q-5 -8 -14 -8h-66q-18 3 -15 20l49 172h-104l-43 -58q-4 -6 -12 -6h-40q-17 2 -16 20l23 78q-21 7 -23 30q2 23 23 30l-23 78q-1 18 16 20h40q8 0 13 -6l42 -58
h103l-48 172q-3 17 15 20h66q9 -1 14 -8l32 -56h43q15 -1 16 -16v-32q-1 -15 -16 -16h-7l37 -64h114q29 -1 61 -19t35 -45v0z" />
    <glyph glyph-name="envelope" unicode="&#x1f582;" 
d="M256 96q-25 0 -47 16l-209 163v-227q1 -20 14 -34q14 -13 34 -14h416q20 1 34 14q13 14 14 34v227l-209 -163q-22 -16 -47 -16v0zM16 303l212 -165q13 -10 28 -10t28 10l212 165q15 13 16 33q-1 20 -14 34q-14 13 -34 14h-416q-20 -1 -34 -14q-13 -14 -14 -34
q0 -20 16 -33v0z" />
    <glyph glyph-name="envelope" unicode="&#xf0e0;" 
d="M256 96q-25 0 -47 16l-209 163v-227q1 -20 14 -34q14 -13 34 -14h416q20 1 34 14q13 14 14 34v227l-209 -163q-22 -16 -47 -16v0zM16 303l212 -165q13 -10 28 -10t28 10l212 165q15 13 16 33q-1 20 -14 34q-14 13 -34 14h-416q-20 -1 -34 -14q-13 -14 -14 -34
q0 -20 16 -33v0z" />
    <glyph glyph-name="envelope" unicode="&#xf003;" 
d="M256 96q-25 0 -47 16l-209 163v-227q1 -20 14 -34q14 -13 34 -14h416q20 1 34 14q13 14 14 34v227l-209 -163q-22 -16 -47 -16v0zM16 303l212 -165q13 -10 28 -10t28 10l212 165q15 13 16 33q-1 20 -14 34q-14 13 -34 14h-416q-20 -1 -34 -14q-13 -14 -14 -34
q0 -20 16 -33v0z" />
    <glyph glyph-name="envelope" unicode="&#x2709;" 
d="M256 96q-25 0 -47 16l-209 163v-227q1 -20 14 -34q14 -13 34 -14h416q20 1 34 14q13 14 14 34v227l-209 -163q-22 -16 -47 -16v0zM16 303l212 -165q13 -10 28 -10t28 10l212 165q15 13 16 33q-1 20 -14 34q-14 13 -34 14h-416q-20 -1 -34 -14q-13 -14 -14 -34
q0 -20 16 -33v0z" />
    <glyph glyph-name="hand-fist" unicode="&#xf6de;" horiz-adv-x="448" 
d="M224 268v148q0 14 -9 23t-23 9t-23 -9t-9 -23v-144h40q13 0 24 -4v0zM128 272v112q0 14 -9 23t-23 9t-23 -9t-9 -23v-113h2q3 1 6 1h56v0zM288 256q14 0 23 9v0q9 9 9 23v96q0 14 -9 23t-23 9t-23 -9t-9 -23v-96q0 -14 9 -23t23 -9v0zM384 352q-14 0 -23 -9v0
q-9 -9 -9 -23v-64q0 -14 9 -23t23 -9t23 9t9 23v64q0 14 -9 23t-23 9v0zM351 202q-19 12 -27 33q-16 -11 -36 -11q-11 0 -22 4q5 -13 6 -28q-1 -31 -21 -51t-51 -21h-72q-15 1 -16 16q1 15 16 16h72q17 0 28 12q12 11 12 28t-12 28q-11 12 -28 12h-128q-17 0 -28 -12
q-12 -11 -12 -28v-63q1 -53 43 -85l53 -38v-78h224v85q29 19 46 48q18 30 18 67v65q-14 -9 -32 -9q-19 0 -33 10v0z" />
    <glyph glyph-name="hand-fist" unicode="&#x270a;" horiz-adv-x="448" 
d="M224 268v148q0 14 -9 23t-23 9t-23 -9t-9 -23v-144h40q13 0 24 -4v0zM128 272v112q0 14 -9 23t-23 9t-23 -9t-9 -23v-113h2q3 1 6 1h56v0zM288 256q14 0 23 9v0q9 9 9 23v96q0 14 -9 23t-23 9t-23 -9t-9 -23v-96q0 -14 9 -23t23 -9v0zM384 352q-14 0 -23 -9v0
q-9 -9 -9 -23v-64q0 -14 9 -23t23 -9t23 9t9 23v64q0 14 -9 23t-23 9v0zM351 202q-19 12 -27 33q-16 -11 -36 -11q-11 0 -22 4q5 -13 6 -28q-1 -31 -21 -51t-51 -21h-72q-15 1 -16 16q1 15 16 16h72q17 0 28 12q12 11 12 28t-12 28q-11 12 -28 12h-128q-17 0 -28 -12
q-12 -11 -12 -28v-63q1 -53 43 -85l53 -38v-78h224v85q29 19 46 48q18 30 18 67v65q-14 -9 -32 -9q-19 0 -33 10v0z" />
    <glyph glyph-name="hand" unicode="&#x1f91a;" 
d="M480 320v-208q-2 -75 -52 -124q-49 -50 -124 -52h-38q-82 1 -141 59l-113 113q-12 12 -12 28t11 28q12 11 29 12q16 0 28 -12l60 -59v279q0 14 9 23t23 9t23 -9t9 -23v-176q1 -15 16 -16q15 1 16 16v208q0 14 9 23t23 9t23 -9t9 -23v-208q1 -15 16 -16q15 1 16 16v176
q0 14 9 23t23 9t23 -9t9 -23v-176q1 -15 16 -16q15 1 16 16v112q0 14 9 23t23 9t23 -9t9 -23v0z" />
    <glyph glyph-name="hand" unicode="&#xf256;" 
d="M480 320v-208q-2 -75 -52 -124q-49 -50 -124 -52h-38q-82 1 -141 59l-113 113q-12 12 -12 28t11 28q12 11 29 12q16 0 28 -12l60 -59v279q0 14 9 23t23 9t23 -9t9 -23v-176q1 -15 16 -16q15 1 16 16v208q0 14 9 23t23 9t23 -9t9 -23v-208q1 -15 16 -16q15 1 16 16v176
q0 14 9 23t23 9t23 -9t9 -23v-176q1 -15 16 -16q15 1 16 16v112q0 14 9 23t23 9t23 -9t9 -23v0z" />
    <glyph glyph-name="hand" unicode="&#x270b;" 
d="M480 320v-208q-2 -75 -52 -124q-49 -50 -124 -52h-38q-82 1 -141 59l-113 113q-12 12 -12 28t11 28q12 11 29 12q16 0 28 -12l60 -59v279q0 14 9 23t23 9t23 -9t9 -23v-176q1 -15 16 -16q15 1 16 16v208q0 14 9 23t23 9t23 -9t9 -23v-208q1 -15 16 -16q15 1 16 16v176
q0 14 9 23t23 9t23 -9t9 -23v-176q1 -15 16 -16q15 1 16 16v112q0 14 9 23t23 9t23 -9t9 -23v0z" />
    <glyph glyph-name="hand-peace" unicode="&#xf25b;" 
d="M256 161v255q0 14 -9 23t-23 9t-23 -9t-9 -23v-216q43 -2 64 -39v0zM171 197q2 1 5 1v0h2l-85 199q-9 18 -29 19q-16 -1 -24 -11t-8 -21q0 -6 3 -13l82 -191l54 17v0zM416 224q-14 0 -23 -9v0q-9 -9 -9 -23v-64q0 -14 9 -23t23 -9t23 9t9 23v64q0 14 -9 23t-23 9v0z
M320 96q14 0 23 9v0q9 9 9 23v96q0 14 -9 23t-23 9t-23 -9t-9 -23v-96q0 -14 9 -23t23 -9v0zM368 86q-18 -21 -48 -22q-21 0 -37 12q-16 11 -23 30q-11 -34 -47 -47l-48 -15h-4q-11 0 -15 10q-1 3 -1 6q0 11 11 15l46 14q28 10 30 39q-2 25 -17 33q-16 8 -23 7q-6 0 -12 -2
l-104 -32q-28 -11 -28 -38q0 -6 2 -13l18 -54q15 -42 50 -67q34 -25 79 -26h75q63 1 109 38t62 96q-13 -6 -27 -6q-30 1 -48 22v0z" />
    <glyph glyph-name="hand-peace" unicode="&#x270c;" 
d="M256 161v255q0 14 -9 23t-23 9t-23 -9t-9 -23v-216q43 -2 64 -39v0zM171 197q2 1 5 1v0h2l-85 199q-9 18 -29 19q-16 -1 -24 -11t-8 -21q0 -6 3 -13l82 -191l54 17v0zM416 224q-14 0 -23 -9v0q-9 -9 -9 -23v-64q0 -14 9 -23t23 -9t23 9t9 23v64q0 14 -9 23t-23 9v0z
M320 96q14 0 23 9v0q9 9 9 23v96q0 14 -9 23t-23 9t-23 -9t-9 -23v-96q0 -14 9 -23t23 -9v0zM368 86q-18 -21 -48 -22q-21 0 -37 12q-16 11 -23 30q-11 -34 -47 -47l-48 -15h-4q-11 0 -15 10q-1 3 -1 6q0 11 11 15l46 14q28 10 30 39q-2 25 -17 33q-16 8 -23 7q-6 0 -12 -2
l-104 -32q-28 -11 -28 -38q0 -6 2 -13l18 -54q15 -42 50 -67q34 -25 79 -26h75q63 1 109 38t62 96q-13 -6 -27 -6q-30 1 -48 22v0z" />
    <glyph glyph-name="pencil" unicode="&#xf303;" 
d="M498 374l-60 60q-15 14 -34 14t-34 -14l-57 -57l128 -128l56 57q15 15 15 34t-14 34v0zM31 96q-3 -4 -4 -8l-27 -132q-1 -18 16 -20h3l132 27q5 1 8 4l260 260l-128 128l-260 -259v0zM132 8l-75 -15l15 75l24 24v-60h60l-24 -24v0z" />
    <glyph glyph-name="pencil" unicode="&#xf040;" 
d="M498 374l-60 60q-15 14 -34 14t-34 -14l-57 -57l128 -128l56 57q15 15 15 34t-14 34v0zM31 96q-3 -4 -4 -8l-27 -132q-1 -18 16 -20h3l132 27q5 1 8 4l260 260l-128 128l-260 -259v0zM132 8l-75 -15l15 75l24 24v-60h60l-24 -24v0z" />
    <glyph glyph-name="pencil" unicode="&#x270f;" 
d="M498 374l-60 60q-15 14 -34 14t-34 -14l-57 -57l128 -128l56 57q15 15 15 34t-14 34v0zM31 96q-3 -4 -4 -8l-27 -132q-1 -18 16 -20h3l132 27q5 1 8 4l260 260l-128 128l-260 -259v0zM132 8l-75 -15l15 75l24 24v-60h60l-24 -24v0z" />
    <glyph glyph-name="pen-nib" unicode="&#xf5ad;" 
d="M137 309q-32 -10 -44 -41l-93 -280l15 -15l149 150q0 1 -1 2q-3 9 -4 19q1 20 14 34q14 13 34 14q20 -1 34 -14q14 -14 14 -34t-14 -34t-34 -14q-11 0 -21 5l-150 -149l16 -16l280 93q31 11 41 44l43 151l-127 127l-152 -42v0zM498 374l-60 60q-15 14 -34 14t-34 -14
l-57 -57l127 -127l57 57q15 14 15 33t-14 34v0z" />
    <glyph glyph-name="pen-nib" unicode="&#x2711;" 
d="M137 309q-32 -10 -44 -41l-93 -280l15 -15l149 150q0 1 -1 2q-3 9 -4 19q1 20 14 34q14 13 34 14q20 -1 34 -14q14 -14 14 -34t-14 -34t-34 -14q-11 0 -21 5l-150 -149l16 -16l280 93q31 11 41 44l43 151l-127 127l-152 -42v0zM498 374l-60 60q-15 14 -34 14t-34 -14
l-57 -57l127 -127l57 57q15 14 15 33t-14 34v0z" />
    <glyph glyph-name="pen-fancy" unicode="&#x1f58b;" 
d="M64 160l-64 -208l98 104l-1 1q-1 3 -1 7q0 14 9 23t23 9t23 -9t9 -23t-9 -23t-23 -9q-4 0 -7 1l-1 1l-104 -98l208 64l38 99l-99 99l-99 -38v0zM369 420l-183 -200l98 -98l199 183q31 30 29 62t-26 55q-23 23 -55 26q-33 2 -62 -28v0z" />
    <glyph glyph-name="pen-fancy" unicode="&#xf5ac;" 
d="M64 160l-64 -208l98 104l-1 1q-1 3 -1 7q0 14 9 23t23 9t23 -9t9 -23t-9 -23t-23 -9q-4 0 -7 1l-1 1l-104 -98l208 64l38 99l-99 99l-99 -38v0zM369 420l-183 -200l98 -98l199 183q31 30 29 62t-26 55q-23 23 -55 26q-33 2 -62 -28v0z" />
    <glyph glyph-name="pen-fancy" unicode="&#x2712;" 
d="M64 160l-64 -208l98 104l-1 1q-1 3 -1 7q0 14 9 23t23 9t23 -9t9 -23t-9 -23t-23 -9q-4 0 -7 1l-1 1l-104 -98l208 64l38 99l-99 99l-99 -38v0zM369 420l-183 -200l98 -98l199 183q31 30 29 62t-26 55q-23 23 -55 26q-33 2 -62 -28v0z" />
    <glyph glyph-name="check" unicode="&#xf00c;" 
d="M480 320q0 -13 -9 -23l-256 -256q-10 -9 -23 -9t-23 9l-128 128q-9 10 -9 23q0 14 10 23q9 9 22 9t23 -9l105 -106l233 234q10 9 23 9t22 -9q10 -9 10 -23v0z" />
    <glyph glyph-name="check" unicode="&#x2714;" 
d="M480 320q0 -13 -9 -23l-256 -256q-10 -9 -23 -9t-23 9l-128 128q-9 10 -9 23q0 14 10 23q9 9 22 9t23 -9l105 -106l233 234q10 9 23 9t22 -9q10 -9 10 -23v0z" />
    <glyph glyph-name="check" unicode="&#x2713;" 
d="M480 320q0 -13 -9 -23l-256 -256q-10 -9 -23 -9t-23 9l-128 128q-9 10 -9 23q0 14 10 23q9 9 22 9t23 -9l105 -106l233 234q10 9 23 9t22 -9q10 -9 10 -23v0z" />
    <glyph glyph-name="cross" unicode="&#x1f547;" horiz-adv-x="384" 
d="M383 288v-64q0 -14 -9 -23t-22 -9h-96v-224q0 -14 -9 -23t-22 -9h-65q-14 0 -23 9t-9 23v224h-96q-14 0 -23 9t-9 23v64q0 14 9 23t23 9h96v96q0 14 9 23t23 9h64q14 0 22 -9q9 -9 9 -23v-96h96q14 0 23 -9t9 -23v0z" />
    <glyph glyph-name="cross" unicode="&#xf654;" horiz-adv-x="384" 
d="M383 288v-64q0 -14 -9 -23t-22 -9h-96v-224q0 -14 -9 -23t-22 -9h-65q-14 0 -23 9t-9 23v224h-96q-14 0 -23 9t-9 23v64q0 14 9 23t23 9h96v96q0 14 9 23t23 9h64q14 0 22 -9q9 -9 9 -23v-96h96q14 0 23 -9t9 -23v0z" />
    <glyph glyph-name="cross" unicode="&#x271d;" horiz-adv-x="384" 
d="M383 288v-64q0 -14 -9 -23t-22 -9h-96v-224q0 -14 -9 -23t-22 -9h-65q-14 0 -23 9t-9 23v224h-96q-14 0 -23 9t-9 23v64q0 14 9 23t23 9h96v96q0 14 9 23t23 9h64q14 0 22 -9q9 -9 9 -23v-96h96q14 0 23 -9t9 -23v0z" />
    <glyph glyph-name="star-of-david" unicode="&#xf69a;" 
d="M491 103l-55 89l55 89q10 20 0 37q-11 17 -33 18h-111l-58 93q-12 19 -33 19t-33 -18l-58 -94h-111q-23 -1 -33 -18t0 -37l55 -89l-55 -89q-10 -20 0 -36q10 -17 33 -18h111l58 -93q12 -20 33 -20t33 18l58 93h111q23 2 33 19t0 37v0zM256 374l24 -38h-47l23 38v0z
M89 105l21 33l21 -33h-42v0zM110 247l-21 33h42l-21 -33v0zM256 10l-24 38h47l-23 -38v0zM314 105h-116l-54 87l54 87h116l54 -87l-54 -87v0zM381 105l21 33l20 -33h-41v0zM401 247l-20 33h41l-21 -33v0z" />
    <glyph glyph-name="star-of-david" unicode="&#x2721;" 
d="M491 103l-55 89l55 89q10 20 0 37q-11 17 -33 18h-111l-58 93q-12 19 -33 19t-33 -18l-58 -94h-111q-23 -1 -33 -18t0 -37l55 -89l-55 -89q-10 -20 0 -36q10 -17 33 -18h111l58 -93q12 -20 33 -20t33 18l58 93h111q23 2 33 19t0 37v0zM256 374l24 -38h-47l23 38v0z
M89 105l21 33l21 -33h-42v0zM110 247l-21 33h42l-21 -33v0zM256 10l-24 38h47l-23 -38v0zM314 105h-116l-54 87l54 87h116l54 -87l-54 -87v0zM381 105l21 33l20 -33h-41v0zM401 247l-20 33h41l-21 -33v0z" />
    <glyph glyph-name="sparkles" unicode="&#xf890;" 
d="M324 345l60 -25l25 -60q2 -4 7 -4t7 4l25 60l60 25q4 2 4 7t-4 7l-60 25l-25 60q-2 4 -7 4t-7 -4l-25 -60l-60 -25q-4 -2 -4 -7t4 -7v0zM508 39l-60 25l-25 60q-2 4 -7 4t-7 -4l-25 -60l-60 -25q-4 -2 -4 -7t4 -7l60 -25l25 -60q2 -4 7 -4t7 4l25 60l60 25q4 2 4 7t-4 7
v0zM384 192q0 10 -9 15l-112 56l-57 113q-5 8 -14 8t-14 -8l-57 -113l-112 -56q-9 -5 -9 -15q0 -9 9 -14l112 -56l57 -113q4 -8 14 -9q10 1 14 9l57 113l112 56q9 5 9 14v0z" />
    <glyph glyph-name="sparkles" unicode="&#x2728;" 
d="M324 345l60 -25l25 -60q2 -4 7 -4t7 4l25 60l60 25q4 2 4 7t-4 7l-60 25l-25 60q-2 4 -7 4t-7 -4l-25 -60l-60 -25q-4 -2 -4 -7t4 -7v0zM508 39l-60 25l-25 60q-2 4 -7 4t-7 -4l-25 -60l-60 -25q-4 -2 -4 -7t4 -7l60 -25l25 -60q2 -4 7 -4t7 4l25 60l60 25q4 2 4 7t-4 7
v0zM384 192q0 10 -9 15l-112 56l-57 113q-5 8 -14 8t-14 -8l-57 -113l-112 -56q-9 -5 -9 -15q0 -9 9 -14l112 -56l57 -113q4 -8 14 -9q10 1 14 9l57 113l112 56q9 5 9 14v0z" />
    <glyph glyph-name="flower" unicode="&#x1f33c;" 
d="M480 288q-1 54 -37 91v0q-37 36 -91 37q-59 -2 -96 -44q-37 42 -96 44q-54 -1 -91 -37q-36 -37 -37 -91q2 -59 44 -96q-42 -37 -44 -96q1 -54 37 -91q37 -36 91 -37q59 2 96 44q37 -42 96 -44q54 1 91 37q36 37 37 91q-2 59 -44 96q42 37 44 96v0zM256 112q-34 1 -57 23
v0q-22 23 -23 57q1 34 23 57q23 22 57 23q34 -1 57 -23q22 -23 23 -57q-1 -34 -23 -57q-23 -22 -57 -23v0z" />
    <glyph glyph-name="flower" unicode="&#xf7ff;" 
d="M480 288q-1 54 -37 91v0q-37 36 -91 37q-59 -2 -96 -44q-37 42 -96 44q-54 -1 -91 -37q-36 -37 -37 -91q2 -59 44 -96q-42 -37 -44 -96q1 -54 37 -91q37 -36 91 -37q59 2 96 44q37 -42 96 -44q54 1 91 37q36 37 37 91q-2 59 -44 96q42 37 44 96v0zM256 112q-34 1 -57 23
v0q-22 23 -23 57q1 34 23 57q23 22 57 23q34 -1 57 -23q22 -23 23 -57q-1 -34 -23 -57q-23 -22 -57 -23v0z" />
    <glyph glyph-name="flower" unicode="&#x273f;" 
d="M480 288q-1 54 -37 91v0q-37 36 -91 37q-59 -2 -96 -44q-37 42 -96 44q-54 -1 -91 -37q-36 -37 -37 -91q2 -59 44 -96q-42 -37 -44 -96q1 -54 37 -91q37 -36 91 -37q59 2 96 44q37 -42 96 -44q54 1 91 37q36 37 37 91q-2 59 -44 96q42 37 44 96v0zM256 112q-34 1 -57 23
v0q-22 23 -23 57q1 34 23 57q23 22 57 23q34 -1 57 -23q22 -23 23 -57q-1 -34 -23 -57q-23 -22 -57 -23v0z" />
    <glyph glyph-name="snowflake" unicode="&#xf2dc;" 
d="M476 64q-10 -16 -28 -16q-8 0 -16 4l-25 15l5 -20q4 -22 -17 -30h-6q-18 0 -23 17l-18 67l-60 35v-70l48 -49q14 -17 0 -34q-7 -7 -17 -7q-9 0 -17 7l-14 14v-29q0 -14 -9 -23t-23 -9t-23 9t-9 23v29l-14 -14q-17 -14 -34 0q-14 17 0 34l48 49l-1 70l-60 -35l-18 -67
q-5 -17 -23 -17h-6q-21 8 -17 30l5 20l-25 -15q-6 -4 -15 -4q-18 0 -28 16q-6 12 -3 24t15 20l26 15l-20 5q-21 8 -17 30q7 20 29 17l66 -18l61 35l-61 35l-66 -18h-6q-18 0 -23 17q-4 22 17 30l20 5l-26 15q-12 8 -15 20t3 24q8 12 20 15t24 -3l25 -15l-5 20q-3 22 16 30
q22 3 30 -17l18 -67l59 -35v70l-47 49q-14 17 0 34q17 14 34 0l14 -15l-1 30q0 14 9 23q10 9 23 9q14 0 23 -9t9 -23v-30l14 15q17 14 34 0q15 -17 1 -34l-49 -49l1 -70l60 35l18 67q7 20 29 17q21 -8 17 -30l-5 -20l25 15q12 6 24 3t20 -15q6 -12 3 -24q-3 -13 -15 -20
l-26 -15l20 -5q21 -8 17 -30q-5 -17 -23 -17h-6l-67 18l-59 -35l60 -35l66 18q22 3 29 -17q4 -22 -16 -30l-21 -5l26 -15q12 -8 15 -20t-3 -24v0z" />
    <glyph glyph-name="snowflake" unicode="&#x2746;" 
d="M476 64q-10 -16 -28 -16q-8 0 -16 4l-25 15l5 -20q4 -22 -17 -30h-6q-18 0 -23 17l-18 67l-60 35v-70l48 -49q14 -17 0 -34q-7 -7 -17 -7q-9 0 -17 7l-14 14v-29q0 -14 -9 -23t-23 -9t-23 9t-9 23v29l-14 -14q-17 -14 -34 0q-14 17 0 34l48 49l-1 70l-60 -35l-18 -67
q-5 -17 -23 -17h-6q-21 8 -17 30l5 20l-25 -15q-6 -4 -15 -4q-18 0 -28 16q-6 12 -3 24t15 20l26 15l-20 5q-21 8 -17 30q7 20 29 17l66 -18l61 35l-61 35l-66 -18h-6q-18 0 -23 17q-4 22 17 30l20 5l-26 15q-12 8 -15 20t3 24q8 12 20 15t24 -3l25 -15l-5 20q-3 22 16 30
q22 3 30 -17l18 -67l59 -35v70l-47 49q-14 17 0 34q17 14 34 0l14 -15l-1 30q0 14 9 23q10 9 23 9q14 0 23 -9t9 -23v-30l14 15q17 14 34 0q15 -17 1 -34l-49 -49l1 -70l60 35l18 67q7 20 29 17q21 -8 17 -30l-5 -20l25 15q12 6 24 3t20 -15q6 -12 3 -24q-3 -13 -15 -20
l-26 -15l20 -5q21 -8 17 -30q-5 -17 -23 -17h-6l-67 18l-59 -35l60 -35l66 18q22 3 29 -17q4 -22 -16 -30l-21 -5l26 -15q12 -8 15 -20t-3 -24v0z" />
    </font>
</defs>
</svg>
